osu file format v14

[General]
AudioFilename: understand.mp3
AudioLeadIn: 0
PreviewTime: 57553
Countdown: 0
SampleSet: Soft
StackLeniency: 0.7
Mode: 0
LetterboxInBreaks: 0
WidescreenStoryboard: 0

[Editor]
Bookmarks: 83736,92257,232849,241369
DistanceSpacing: 1
BeatDivisor: 4
GridSize: 4
TimelineZoom: 1.5

[Metadata]
Title:Understand? Understand!
TitleUnicode:Understand? Understand!
Artist:Kousaka Umi (CV.Ueda Reina) x Tanaka Kotoha (CV.Taneda Risa)
ArtistUnicode:高坂海美 (CV.上田麗奈)×田中琴葉 (CV.種田梨沙)
Creator:Setz
Version:Doormat's NORM@L
Source:アイドルマスター ミリオンライブ!
Tags:THE IDOLM@STER Million Live imas im@s THE@TER DREAMERS 06 idolmaster Karia Momochikun Doormat うえしゃま
BeatmapID:952859
BeatmapSetID:437279

[Difficulty]
HPDrainRate:4
CircleSize:3.2
OverallDifficulty:4
ApproachRate:5
SliderMultiplier:1.2
SliderTickRate:1

[Events]
//Background and Video events
0,0,"imasbg2.jpg",0,0
//Break Periods
2,83936,95317
2,170564,177684
2,233049,242477
//Storyboard Layer 0 (Background)
//Storyboard Layer 1 (Fail)
//Storyboard Layer 2 (Pass)
//Storyboard Layer 3 (Foreground)
//Storyboard Sound Samples

[TimingPoints]
-49,355.029585798817,4,2,5,80,1,0
838,-100,4,2,6,40,0,0
12199,-100,4,2,5,70,0,0
32613,-100,4,2,6,70,0,0
34033,-100,4,2,5,70,0,0
45394,355.029585798817,3,2,6,60,1,0
49654,355.029585798817,4,2,5,70,1,0
56399,-100,4,2,5,55,0,0
57109,-100,4,2,5,70,0,0
57997,-100,4,2,5,80,0,1
69269,-100,4,2,5,80,0,0
69358,-100,4,2,5,80,0,1
80896,-100,4,2,5,70,0,0
103618,-100,4,2,6,70,0,0
105038,-100,4,2,5,70,0,0
144624,-100,4,2,5,80,0,1
155896,-100,4,2,5,80,0,0
155985,-100,4,2,5,80,0,1
167523,-100,4,2,2,70,0,0
198588,-100,4,2,5,80,0,1
209861,-100,4,2,5,80,0,0
209949,-100,4,2,5,80,0,1
221488,-100,4,2,5,70,0,0
255571,-100,4,2,5,20,0,0

[Colours]
Combo1 : 0,128,255
Combo2 : 255,128,192
Combo3 : 128,128,255
Combo4 : 255,128,128
Combo5 : 255,255,128

[HitObjects]
208,296,838,6,0,L|217:360,2,60,2|2|2,0:0|0:0|0:0,0:0:0:0:
180,244,1371,6,0,P|137:256|59:236,1,120,2|10,0:0|0:0,0:0:0:0:
72,120,2081,2,0,P|114:107|192:127,1,120,2|10,0:0|0:0,0:0:0:0:
228,168,2613,2,0,P|270:180|348:160,1,120,2|2,0:0|0:0,0:0:0:0:
392,128,3146,1,10,0:0:0:0:
441,92,3323,2,0,L|452:220,1,120,2|8,0:0|0:0,0:0:0:0:
401,246,3856,1,8,0:0:0:0:
473,345,4211,6,0,P|419:369|360:362,1,120,0|10,0:0|0:0,0:0:0:0:
256,308,4921,2,0,P|220:304|192:312,2,60,2|2|10,0:0|0:0|0:0,0:0:0:0:
308,280,5453,2,0,B|324:232|324:232|300:160,1,120,2|2,0:0|0:0,0:0:0:0:
248,140,5986,1,10,0:0:0:0:
198,173,6164,2,0,P|164:188|84:176,1,120,2|2,0:0|0:0,0:0:0:0:
56,124,6696,1,10,0:0:0:0:
140,40,7051,6,0,L|260:56,1,120,2|10,0:0|0:0,0:0:0:0:
348,136,7761,2,0,L|228:152,1,120,2|10,0:0|0:0,0:0:0:0:
184,192,8294,2,0,P|168:236|184:316,1,120,2|2,0:0|0:0,0:0:0:0:
232,332,8826,1,10,0:0:0:0:
284,306,9004,2,0,B|344:293|344:293|400:308,1,120,2|10,0:0|0:0,0:0:0:0:
436,356,9536,1,10,0:0:0:0:
496,252,9891,6,0,P|484:204|488:124,1,120,2|10,0:0|0:0,0:0:0:0:
512,80,10424,1,2,0:0:0:0:
416,12,10779,2,0,L|356:20,1,60,2|8,0:0|0:0,0:0:0:0:
312,60,11134,2,0,P|296:92|316:172,1,120,2|2,0:0|0:0,0:0:0:0:
360,208,11666,1,10,0:0:0:0:
360,208,11844,1,2,0:0:0:0:
464,144,12199,2,0,L|452:80,2,60,8|8|0,0:0|0:0|0:0,0:0:0:0:
508,188,12732,6,0,B|516:232|516:232|504:328,1,120,4|8,0:0|0:0,0:0:0:0:
388,304,13442,2,0,L|375:245,2,60,8|0|8,0:0|0:0|0:0,0:0:0:0:
356,352,13974,2,0,P|300:364|228:348,1,120,2|0,0:1|0:0,0:0:0:0:
204,304,14507,1,8,0:0:0:0:
204,304,14684,2,0,P|148:292|76:308,1,120,0|2,0:0|0:1,0:0:0:0:
40,340,15217,1,10,0:1:0:0:
4,223,15572,6,0,P|12:164|2:105,1,120,4|8,0:0|0:0,0:0:0:0:
4,44,16104,2,0,P|48:28|124:56,1,120,0|0,0:1|0:0,0:0:0:0:
140,104,16637,1,8,0:0:0:0:
140,104,16814,2,0,P|184:120|260:92,1,120,2|0,0:1|0:0,0:0:0:0:
288,52,17347,1,10,0:1:0:0:
388,116,17702,2,0,P|392:152|388:184,1,60,10|0,0:1|0:0,0:0:0:0:
332,192,18057,2,0,P|328:228|332:260,1,60,8|8,0:0|0:0,0:0:0:0:
348,308,18412,6,0,L|228:300,1,120,4|8,0:0|0:0,0:0:0:0:
115,260,19121,2,0,P|108:288|109:318,2,60,8|0|8,0:0|0:0|0:0,0:0:0:0:
166,228,19655,2,0,B|182:168|182:168|166:104,1,120,2|0,0:1|0:0,0:0:0:0:
120,76,20187,1,8,0:0:0:0:
232,32,20542,2,0,P|284:20|356:36,1,120,8|6,0:0|0:0,0:0:0:0:
456,88,21252,6,0,B|428:176|488:176|457:263,1,180,10|10,0:1|0:1,0:0:0:0:
304,360,22317,2,0,B|292:316|292:316|308:284|308:284|284:240|312:180,1,180,10|2,0:1|0:1,0:0:0:0:
344,140,23027,1,10,0:1:0:0:
419,236,23382,2,0,P|464:240|509:236,2,90,0|0|6,0:0|0:0|0:0,0:0:0:0:
68,308,24980,2,0,L|126:315,1,60,0|8,0:0|0:0,0:0:0:0:
144,196,25513,6,0,L|24:180,1,120,4|0,0:0|0:0,0:0:0:0:
76,72,26223,2,0,L|134:79,1,60
184,48,26578,2,0,L|242:55,1,60,0|0,0:0|0:0,0:0:0:0:
280,104,26933,2,0,P|296:152|264:224,1,120,0|0,0:0|0:0,0:0:0:0:
156,212,27643,2,0,P|144:252|152:288,1,60
200,296,27998,2,0,P|205:337|192:371,1,60
144,372,28353,6,0,B|88:348|88:348|16:356,1,120,0|0,0:0|0:0,0:0:0:0:
8,236,29063,2,0,L|82:228,1,60,0|0,0:0|0:0,0:0:0:0:
112,188,29418,2,0,L|186:180,1,60,0|0,0:0|0:0,0:0:0:0:
232,176,29773,2,0,P|208:112|204:44,1,120,0|0,0:0|0:0,0:0:0:0:
236,12,30306,1,0,0:0:0:0:
236,12,30483,1,0,0:0:0:0:
408,64,31016,5,0,0:0:0:0:
408,64,31193,2,0,L|396:188,1,120,4|0,0:0|0:0,0:0:0:0:
300,252,31903,2,0,L|288:132,1,120,8|0,0:0|0:0,0:0:0:0:
179,84,32613,2,0,P|128:111|113:167,1,120,10|10,0:0|0:0,0:0:0:0:
159,275,33323,2,0,P|164:320|156:348,2,60,10|2|10,0:0|0:0|0:0,0:0:0:0:
262,215,34033,6,0,P|311:205|383:217,1,120,4|0,0:0|0:0,0:0:0:0:
491,173,34743,2,0,L|479:114,2,60,0|0|0,0:0|0:0|0:0,0:0:0:0:
512,228,35276,2,0,B|516:292|516:292|496:348,1,120,0|0,0:0|0:0,0:0:0:0:
440,364,35808,1,0,0:0:0:0:
340,296,36164,2,0,P|332:252|336:228,2,60,0|0|0,0:0|0:0|0:0,0:0:0:0:
308,348,36696,6,0,L|184:336,1,120,0|0,0:0|0:0,0:0:0:0:
140,372,37229,1,0,0:0:0:0:
88,264,37584,2,0,P|44:252|0:256,2,90
144,244,38294,2,0,L|152:120,1,120
204,92,38826,1,0,0:0:0:0:
204,92,39004,1,0,0:0:0:0:
364,180,39536,5,0,0:0:0:0:
364,180,39714,2,0,P|296:196|240:176,1,120,4|0,0:0|0:0,0:0:0:0:
208,136,40246,2,0,L|128:144,1,60,2|8,0:0|0:0,0:0:0:0:
100,176,40601,1,0,0:0:0:0:
100,176,40779,2,0,B|108:244|108:244|92:288|92:288|100:356,1,180,2|8,0:0|0:0,0:0:0:0:
160,364,41489,1,2,0:0:0:0:
272,320,41844,2,0,L|258:200,1,120,8|0,0:0|0:0,0:0:0:0:
309,90,42554,6,0,P|252:76|195:94,1,120,4|0,0:0|0:0,0:0:0:0:
152,136,43087,1,2,0:0:0:0:
152,136,43264,1,8,0:0:0:0:
40,92,43619,1,2,0:0:0:0:
40,92,43797,2,0,B|24:132|24:132|32:220,1,120,0|8,0:0|0:0,0:0:0:0:
52,264,44329,1,0,0:0:0:0:
159,211,44684,2,0,L|152:137,2,60,8|2|0,0:0|0:0|0:0,0:0:0:0:
255,140,45394,6,0,L|266:259,1,120,6|2,0:0|0:0,0:0:0:0:
363,189,46104,2,0,L|355:117,1,60,2|0,0:0|0:0,0:0:0:0:
339,73,46459,2,0,P|387:77|459:69,1,120,2|2,0:0|0:0,0:0:0:0:
496,184,47169,2,0,L|490:243,1,60,2|0,0:0|0:0,0:0:0:0:
508,299,47524,6,0,P|460:295|388:303,1,120,2|2,0:0|0:0,0:0:0:0:
344,344,48056,1,0,0:0:0:0:
344,344,48234,1,2,0:0:0:0:
276,248,48589,2,0,P|228:236|148:252,1,120,2|2,0:0|0:0,0:0:0:0:
88,344,49299,1,0,0:0:0:0:
12,252,49654,6,0,P|1:193|14:135,1,120,4|2,0:0|0:0,0:0:0:0:
116,72,50364,2,0,P|124:28|120:4,2,60,2|0|2,0:0|0:0|0:0,0:0:0:0:
152,120,50896,2,0,B|212:136|212:136|280:117,1,120,2|0,0:1|0:0,0:0:0:0:
300,72,51429,1,2,0:0:0:0:
416,108,51784,2,0,P|421:63|416:39,2,60,2|2|2,0:0|0:0|0:0,0:0:0:0:
360,132,52316,6,0,B|348:176|348:176|368:272,1,120,4|0,0:0|0:0,0:0:0:0:
412,284,52849,1,2,0:0:0:0:
504,208,53204,2,0,L|512:140,2,60,2|0|2,0:0|0:0|0:0,0:0:0:0:
508,268,53736,2,0,B|496:308|512:352|512:352|472:384,1,120,0|0,0:0|0:0,0:0:0:0:
424,380,54269,1,2,0:0:0:0:
320,320,54624,2,0,P|312:276|324:224,2,90,2|2|2,0:0|0:0|0:0,0:0:0:0:
292,372,55334,6,0,P|244:364|164:368,1,120,8|8,0:0|0:0,0:0:0:0:
96,276,56044,2,0,P|104:228|100:148,1,120,8|8,0:0|0:0,0:0:0:0:
76,104,56577,1,8,0:0:0:0:
50,51,56754,2,0,P|136:56|180:52,1,120,8|12,0:0|0:0,0:0:0:0:
288,80,57464,1,2,0:1:0:0:
288,80,57642,2,0,L|276:144,1,60,0|0,0:0|0:0,0:0:0:0:
252,192,57997,6,0,P|316:184|380:200,1,120,4|0,0:0|0:0,0:0:0:0:
408,240,58529,1,10,0:1:0:0:
360,348,58884,2,0,P|296:356|232:340,1,120,2|8,0:0|0:0,0:0:0:0:
204,296,59417,2,0,P|140:288|76:304,1,120,2|0,0:1|0:0,0:0:0:0:
40,340,59949,1,8,0:0:0:0:
4,224,60304,2,0,L|24:96,1,120,2|8,0:0|0:0,0:0:0:0:
52,52,60837,6,0,B|112:60|112:60|172:44|172:44|232:52,1,180,0|8,0:0|0:0,0:0:0:0:
344,88,61725,1,2,0:0:0:0:
254,169,62080,1,8,0:0:0:0:
254,169,62257,2,0,B|224:256|288:256|254:349,1,180,2|8,0:1|0:0,0:0:0:0:
140,304,63145,2,0,P|132:348|136:380,2,60,2|0|8,0:0|0:0|0:0,0:0:0:0:
100,260,63677,6,0,L|27:274,1,60,0|4,0:0|0:0,0:0:0:0:
0,224,64032,1,0,0:0:0:0:
0,224,64210,1,8,0:0:0:0:
52,116,64565,2,0,P|51:86|44:56,2,60,2|0|8,0:1|0:0|0:0,0:0:0:0:
80,168,65097,2,0,L|197:145,1,120
236,100,65630,1,8,0:0:0:0:
344,148,65985,2,0,P|380:160|464:136,1,120,0|10,0:0|0:1,0:0:0:0:
444,20,66695,6,0,P|408:8|324:32,1,120,4|8,0:0|0:0,0:0:0:0:
236,100,67405,2,0,L|243:160,1,60,2|0,0:0|0:0,0:0:0:0:
212,212,67760,2,0,P|176:220|144:216,1,60,8|0,0:0|0:0,0:0:0:0:
100,244,68115,2,0,L|107:304,2,60,2|2|8,0:0|0:0|0:0,0:0:0:0:
48,216,68648,1,2,0:0:0:0:
128,128,69003,2,0,P|136:92|132:60,1,60,8|8,0:0|0:0,0:0:0:0:
100,20,69358,6,0,L|232:28,1,120,4|0,0:0|0:0,0:0:0:0:
260,72,69890,1,10,0:1:0:0:
364,12,70245,2,0,P|384:60|356:144,1,120,0|8,0:0|0:0,0:0:0:0:
340,176,70778,2,0,B|280:164|280:164|216:184,1,120,2|0,0:1|0:0,0:0:0:0:
176,216,71310,1,8,0:0:0:0:
64,176,71665,2,0,L|72:116,2,60,8|8|8,0:0|0:0|0:0,0:0:0:0:
20,216,72198,6,0,B|8:260|20:312|20:312|64:296|102:306,1,180,8|8,0:0|0:0,0:0:0:0:
208,360,73085,1,0,0:0:0:0:
316,308,73440,1,8,0:0:0:0:
316,308,73618,2,0,B|332:252|332:252|292:196|315:136,1,180,2|8,0:1|0:0,0:0:0:0:
428,180,74506,2,0,L|439:238,2,60,8|0|8,0:0|0:0|0:0,0:0:0:0:
448,124,75038,6,0,L|437:66,1,60,0|4,0:0|0:0,0:0:0:0:
380,44,75393,1,0,0:0:0:0:
380,44,75571,1,8,0:0:0:0:
264,79,75926,2,0,P|234:82|204:77,2,60,0|0|8,0:0|0:0|0:0,0:0:0:0:
304,124,76458,2,0,B|324:168|324:168|300:304,1,180,2|8,0:1|0:0,0:0:0:0:
196,356,77346,2,0,L|175:237,1,120,8|8,0:0|0:0,0:0:0:0:
72,180,78056,6,0,L|51:61,1,120,2|8,0:0|0:0,0:0:0:0:
172,72,78766,2,0,L|182:131,2,60,0|0|8,0:0|0:0|0:0,0:0:0:0:
216,32,79298,2,0,P|274:39|331:22,1,120,2|8,0:0|0:0,0:0:0:0:
392,32,79831,2,0,L|402:91,1,60
376,144,80186,2,0,P|316:136|259:152,1,120,8|8,0:0|0:0,0:0:0:0:
248,272,80896,6,0,P|188:279|131:263,1,120,4|8,0:0|0:0,0:0:0:0:
84,228,81429,1,2,0:1:0:0:
84,228,81606,2,0,L|68:360,1,120,2|8,0:1|0:0,0:0:0:0:
116,384,82139,1,10,0:1:0:0:
224,328,82494,2,0,L|212:260,2,60,2|10|10,0:1|0:1|0:1,0:0:0:0:
344,312,83204,2,0,L|333:252,2,60,2|10|2,0:1|0:1|0:1,0:0:0:0:
396,340,83736,5,4,0:0:0:0:
108,100,96517,6,0,L|184:88,1,60,4|0,0:0|0:0,0:0:0:0:
227,80,96872,2,0,P|216:138|218:198,2,120,4|0|4,0:3|0:0|0:3,0:0:0:0:
348,72,97938,2,0,P|352:116|348:144,1,60,0|0,0:0|0:0,0:0:0:0:
324,184,98293,2,0,L|448:168,1,120,4|0,0:3|0:0,0:0:0:0:
492,200,98825,2,0,P|496:244|492:272,1,60,8|8,0:0|0:0,0:0:0:0:
448,296,99180,6,0,L|328:311,1,120,4|0,0:0|0:0,0:0:0:0:
280,348,99712,1,4,0:3:0:0:
188,272,100068,2,0,P|176:224|192:144,1,120,0|4,0:0|0:3,0:0:0:0:
244,140,100600,2,0,P|256:92|240:12,1,120
184,16,101133,1,4,0:3:0:0:
92,92,101488,2,0,P|52:96|20:92,2,60,8|8|4,0:0|0:0|0:3,0:0:0:0:
176,176,102198,6,0,B|192:216|192:216|176:304,1,120,4|8,0:0|0:0,0:0:0:0:
124,316,102730,1,2,0:0:0:0:
69,340,102908,2,0,B|53:300|53:300|69:212,1,120,0|8,0:0|0:0,0:0:0:0:
176,176,103618,2,0,P|228:188|304:164,1,120,10|10,0:0|0:0,0:0:0:0:
228,68,104328,2,0,L|148:68,1,60,10|10,0:0|0:0,0:0:0:0:
120,32,104683,2,0,L|40:32,1,60,10|2,0:0|0:0,0:0:0:0:
0,32,105038,6,0,P|12:76|8:160,1,120,4|0,0:0|0:0,0:0:0:0:
84,244,105748,2,0,P|48:264|-20:264,2,90,0|0|2,0:0|0:0|0:1,0:0:0:0:
128,204,106458,2,0,B|188:192|188:192|245:205,1,120,0|0,0:0|0:0,0:0:0:0:
307,308,107168,2,0,P|344:283|363:242,1,90,0|0,0:0|0:0,0:0:0:0:
204,104,108056,6,0,L|76:116,1,120,4|0,0:0|0:0,0:0:0:0:
24,116,108588,2,0,P|16:72|32:8,2,90,0|4|2,0:0|0:0|0:0,0:0:0:0:
44,172,109298,2,0,L|36:232,1,60,6|2,0:0|0:0,0:0:0:0:
76,276,109654,2,0,L|68:336,1,60,2|2,0:0|0:0,0:0:0:0:
112,376,110009,2,0,P|168:364|240:380,1,120,2|0,0:0|0:0,0:0:0:0:
324,300,110719,6,0,L|304:168,1,120,4|0,0:0|0:0,0:0:0:0:
284,124,111251,2,0,P|352:128|416:112,1,120,2|0,0:0|0:0,0:0:0:0:
456,88,111784,2,0,B|476:144|476:144|456:288,1,180,2|8,0:0|0:0,0:0:0:0:
408,296,112494,1,2,0:0:0:0:
324,212,112849,2,0,P|288:196|200:224,1,120,8|0,0:0|0:0,0:0:0:0:
184,328,113558,6,0,P|128:347|71:329,1,120,4|0,0:0|0:0,0:0:0:0:
32,284,114091,1,2,0:0:0:0:
32,284,114269,1,8,0:0:0:0:
128,212,114624,1,2,0:0:0:0:
128,212,114801,2,0,B|173:182|173:182|234:180|293:217,1,180,0|2,0:0|0:0,0:0:0:0:
400,268,115689,2,0,P|463:271|521:227,1,120,8|0,0:0|0:0,0:0:0:0:
480,128,116399,6,0,P|416:124|358:168,1,120,4|8,0:0|0:0,0:0:0:0:
280,232,117109,2,0,L|292:292,2,60,0|0|8,0:0|0:0|0:0,0:0:0:0:
236,192,117642,2,0,B|188:184|188:184|152:196|152:196|100:176|44:200,1,180,0|8,0:0|0:0,0:0:0:0:
36,312,118529,2,0,P|92:329|150:316,1,120,0|4,0:0|0:0,0:0:0:0:
264,272,119239,6,0,P|320:254|378:267,1,120,4|8,0:0|0:0,0:0:0:0:
488,312,119949,2,0,L|472:384,2,60,0|0|8,0:0|0:0|0:0,0:0:0:0:
508,256,120482,2,0,B|516:216|516:216|504:176|504:176|520:132|504:80,1,180,0|8,0:0|0:0,0:0:0:0:
444,64,121192,1,8,0:0:0:0:
388,80,121369,2,0,P|384:120|392:152,1,60,0|8,0:0|0:0,0:0:0:0:
408,196,121725,1,8,0:0:0:0:
304,256,122080,5,4,0:0:0:0:
187,226,122435,1,8,0:0:0:0:
195,105,122790,2,0,B|140:84|140:84|79:93,1,120,0|8,0:0|0:0,0:0:0:0:
16,196,123500,2,0,P|9:255|26:312,2,120,0|8|0,0:0|0:0|0:0,0:0:0:0:
79,93,124565,1,4,0:0:0:0:
161,181,124920,6,0,P|208:196|296:168,1,120,10|10,0:1|0:1,0:0:0:0:
384,128,125630,2,0,P|388:88|384:64,2,60,10|2|2,0:1|0:0|0:0,0:0:0:0:
364,184,126162,2,0,B|344:244|384:244|364:301,1,120,4|8,0:0|0:0,0:0:0:0:
312,328,126695,1,2,0:0:0:0:
312,328,126872,2,0,B|272:336|272:336|240:320|240:320|197:328,1,120,4|2,0:0|0:0,0:0:0:0:
144,356,127405,1,10,0:1:0:0:
72,260,127760,6,0,L|80:196,1,60,4|0,0:0|0:0,0:0:0:0:
44,152,128115,2,0,L|52:88,1,60,8|0,0:0|0:0,0:0:0:0:
32,36,128470,2,0,P|76:48|152:36,1,120,2|8,0:1|0:0,0:0:0:0:
204,16,129003,5,2,0:1:0:0:
248,128,129358,2,0,P|296:132|324:124,1,60,0|8,0:0|0:0,0:0:0:0:
336,76,129713,2,0,B|391:57|391:57|451:69,1,120
488,116,130245,1,4,0:0:0:0:
412,208,130600,6,0,P|408:248|412:280,1,60,8|2,0:0|0:0,0:0:0:0:
376,316,130955,2,0,P|336:320|304:316,1,60,2|8,0:0|0:0,0:0:0:0:
272,280,131310,2,0,P|276:240|272:208,2,60,2|2|0,0:0|0:0|0:0,0:0:0:0:
224,316,131843,5,2,0:0:0:0:
120,376,132198,2,0,P|84:380|52:376,1,60,2|8,0:0|0:0,0:0:0:0:
4,364,132553,2,0,L|32:244,1,120,2|0,0:0|0:0,0:0:0:0:
36,188,133085,1,4,0:0:0:0:
108,92,133440,6,0,L|176:92,1,60,4|0,0:0|0:0,0:0:0:0:
220,124,133796,2,0,L|288:124,1,60,8|0,0:0|0:0,0:0:0:0:
328,160,134151,2,0,P|383:180|440:164,1,120,8|8,0:0|0:0,0:0:0:0:
448,44,134861,2,0,P|392:23|335:39,1,120,8|8,0:0|0:0,0:0:0:0:
228,95,135571,2,0,P|220:136|224:164,2,60,8|8|8,0:0|0:0|0:0,0:0:0:0:
192,48,136103,6,0,B|130:35|130:35|76:53,1,120,4|8,0:0|0:0,0:0:0:0:
36,96,136636,1,8,0:0:0:0:
63,212,136991,2,0,P|35:219|5:214,2,60,8|8|8,0:0|0:0|0:0,0:0:0:0:
124,220,137523,2,0,B|140:252|140:252|128:344,1,120,8|8,0:0|0:0,0:0:0:0:
176,372,138056,1,8,0:0:0:0:
292,336,138411,2,0,L|304:237,2,90,8|8|8,0:0|0:0|0:0,0:0:0:0:
340,372,139121,6,0,P|380:380|468:368,1,120,4|10,0:0|0:1,0:0:0:0:
472,252,139831,2,0,P|463:192|472:133,1,120,10|10,0:1|0:1,0:0:0:0:
388,52,140541,2,0,P|348:44|260:56,1,120,10|4,0:1|0:0,0:0:0:0:
188,140,141251,2,0,P|144:148|76:132,2,90,8|8|8,0:0|0:0|0:0,0:0:0:0:
244,160,141961,6,0,B|264:192|264:192|256:288,1,120,8|8,0:0|0:0,0:0:0:0:
372,304,142671,2,0,L|382:174,1,120,8|8,0:0|0:0,0:0:0:0:
436,156,143204,1,8,0:0:0:0:
490,184,143381,2,0,L|494:243,2,60,4|8|8,0:0|0:0|0:0,0:0:0:0:
384,40,144269,2,0,P|354:43|324:41,1,60,0|0,0:0|0:0,0:0:0:0:
268,20,144624,6,0,B|208:8|208:8|136:28,1,120,4|0,0:0|0:0,0:0:0:0:
116,72,145156,1,10,0:1:0:0:
152,188,145511,2,0,P|104:196|68:184,2,60,0|0|8,0:0|0:0|0:0,0:0:0:0:
208,168,146044,2,0,P|252:156|336:172,1,120,2|0,0:1|0:0,0:0:0:0:
368,208,146577,1,8,0:0:0:0:
324,320,146932,2,0,P|280:332|196:316,1,120,0|8,0:0|0:0,0:0:0:0:
160,284,147464,6,0,B|125:277|125:277|85:317|25:309|0:268,1,180,0|8,0:0|0:0,0:0:0:0:
0,148,148352,1,0,0:0:0:0:
115,110,148707,1,8,0:0:0:0:
115,110,148884,2,0,B|203:82|203:142|290:111,1,180,2|8,0:1|0:0,0:0:0:0:
404,68,149772,2,0,L|388:8,2,60,2|0|8,0:0|0:0|0:0,0:0:0:0:
452,104,150304,6,0,L|467:161,1,60,0|4,0:0|0:0,0:0:0:0:
444,220,150659,1,0,0:0:0:0:
444,220,150837,1,8,0:0:0:0:
400,332,151192,2,0,L|276:316,1,120,0|8,0:0|0:0,0:0:0:0:
224,300,151725,2,0,L|100:284,1,120,0|0,0:0|0:0,0:0:0:0:
52,312,152257,1,8,0:0:0:0:
84,196,152612,2,0,P|94:137|76:80,1,120,0|10,0:0|0:1,0:0:0:0:
196,68,153322,6,0,P|185:126|203:183,1,120,4|8,0:0|0:0,0:0:0:0:
280,276,154032,2,0,L|340:260,1,60,2|0,0:0|0:0,0:0:0:0:
360,204,154387,2,0,L|420:188,1,60,8|0,0:0|0:0,0:0:0:0:
456,144,154742,2,0,P|456:100|444:68,2,60,2|2|8,0:0|0:0|0:0,0:0:0:0:
508,172,155275,1,2,0:0:0:0:
436,268,155630,2,0,P|436:312|448:344,1,60,8|8,0:0|0:0,0:0:0:0:
476,376,155985,6,0,L|348:368,1,120,4|0,0:0|0:0,0:0:0:0:
296,360,156517,1,10,0:1:0:0:
188,312,156872,2,0,P|176:356|180:388,2,60,0|0|8,0:0|0:0|0:0,0:0:0:0:
220,260,157405,2,0,B|240:216|240:216|220:132,1,120,2|0,0:1|0:0,0:0:0:0:
204,88,157938,1,10,0:1:0:0:
88,116,158293,2,0,P|83:86|87:56,2,60,8|8|8,0:0|0:0|0:0,0:0:0:0:
100,176,158825,6,0,B|64:204|12:200|12:200|0:248|16:300,1,180,8|8,0:0|0:0,0:0:0:0:
116,348,159713,1,2,0:1:0:0:
221,289,160068,1,8,0:0:0:0:
221,289,160245,2,0,B|264:276|264:276|336:304|416:268,1,180,2|8,0:1|0:0,0:0:0:0:
483,195,161133,2,0,P|501:219|511:248,2,60,8|0|8,0:0|0:0|0:0,0:0:0:0:
448,148,161665,6,0,P|400:144|372:152,1,60,0|4,0:0|0:0,0:0:0:0:
344,184,162020,1,0,0:0:0:0:
344,184,162198,1,10,0:1:0:0:
232,140,162553,2,0,L|244:68,2,60,2|0|8,0:1|0:0|0:0,0:0:0:0:
188,180,163085,2,0,B|136:192|136:192|88:172|88:172|44:192|40:252,1,180,2|8,0:1|0:0,0:0:0:0:
40,348,163973,2,0,L|156:320,1,120,8|8,0:0|0:0,0:0:0:0:
272,352,164683,6,0,L|388:324,1,120,4|8,0:0|0:0,0:0:0:0:
328,220,165393,2,0,L|251:239,2,60,0|0|8,0:0|0:0|0:0,0:0:0:0:
340,160,165926,2,0,P|328:102|342:45,1,120,0|8,0:0|0:0,0:0:0:0:
392,8,166458,2,0,L|452:8,1,60,0|0,0:0|0:0,0:0:0:0:
500,44,166813,2,0,P|514:101|501:159,1,120,8|8,0:0|0:0,0:0:0:0:
424,252,167523,6,0,B|363:266|363:266|307:254,1,120,6|10,0:0|0:0,0:0:0:0:
252,232,168056,1,2,0:0:0:0:
252,232,168233,1,2,0:0:0:0:
256,192,168411,12,4,170364,0:0:0:0:
104,128,178884,6,0,P|172:144|240:120,1,120,6|8,0:0|0:0,0:0:0:0:
324,76,179594,2,0,L|312:12,2,60,0|2|10,0:0|0:0|0:0,0:0:0:0:
368,116,180127,2,0,L|344:240,1,120,2|2,0:0|0:0,0:0:0:0:
292,260,180659,1,10,0:0:0:0:
204,176,181014,2,0,P|164:172|124:188,1,60,0|2,0:0|0:0,0:0:0:0:
120,232,181369,2,0,P|80:236|40:220,1,60,10|2,0:0|0:0,0:0:0:0:
4,215,181725,6,0,P|25:160|26:100,1,120,4|8,0:0|0:0,0:0:0:0:
136,52,182435,2,0,P|113:21|93:5,2,60,2|2|10,0:0|0:0|0:0,0:0:0:0:
180,92,182967,2,0,B|239:111|239:111|294:93,1,120,2|2,0:0|0:0,0:0:0:0:
328,44,183500,1,10,0:0:0:0:
328,44,183677,2,0,B|387:24|387:24|442:42,1,120,2|2,0:0|0:0,0:0:0:0:
476,92,184210,1,8,0:0:0:0:
428,200,184565,6,0,L|450:317,1,120,6|10,0:0|0:0,0:0:0:0:
332,312,185275,2,0,L|320:253,1,60,2|2,0:0|0:0,0:0:0:0:
268,224,185630,2,0,L|256:165,1,60,10|2,0:0|0:0,0:0:0:0:
203,135,185985,2,0,P|146:118|90:137,1,120,2|8,0:0|0:0,0:0:0:0:
116,256,186694,2,0,P|86:258|56:253,2,60,2|10|10,0:0|0:0|0:0,0:0:0:0:
172,236,187227,6,0,L|160:356,1,120,6|2,0:0|0:0,0:0:0:0:
212,384,187760,1,10,0:0:0:0:
312,312,188115,2,0,P|317:282|311:253,1,60,10|0,0:0|0:0,0:0:0:0:
272,208,188470,2,0,P|267:170|275:142,1,60,10|2,0:0|0:0,0:0:0:0:
320,116,188825,2,0,L|375:135,2,60,10|2|8,0:0|0:0|0:0,0:0:0:0:
292,64,189358,2,0,B|200:44|200:44|119:73,1,180,2|4,0:0|0:0,0:0:0:0:
52,172,190245,5,6,0:0:0:0:
131,263,190600,1,10,0:0:0:0:
223,184,190955,2,0,P|257:165|355:168,1,120,10|10,0:0|0:0,0:0:0:0:
428,240,191665,1,10,0:0:0:0:
382,350,192020,1,10,0:0:0:0:
285,276,192375,2,0,P|261:313|257:357,2,90,10|10|10,0:0|0:0|0:0,0:0:0:0:
316,224,193085,5,14,0:0:0:0:
362,114,193440,1,10,0:0:0:0:
271,36,193796,2,0,L|208:48,1,60,10|0,0:0|0:0,0:0:0:0:
184,100,194151,2,0,L|121:112,1,60,10|10,0:0|0:0,0:0:0:0:
92,160,194506,2,0,B|68:216|68:216|96:352,2,180,14|14|8,0:0|0:0|0:0,0:0:0:0:
192,96,195926,6,0,P|236:104|320:92,1,120,0|0,0:0|0:0,0:0:0:0:
424,132,196636,2,0,L|432:196,1,60,0|0,0:0|0:0,0:0:0:0:
384,228,196991,2,0,L|392:292,1,60,0|0,0:0|0:0,0:0:0:0:
356,336,197346,2,0,P|296:326|237:335,1,120,0|0,0:0|0:0,0:0:0:0:
192,372,197878,1,0,0:0:0:0:
88,316,198233,2,0,L|96:252,1,60,8|8,0:0|0:0,0:0:0:0:
92,196,198588,6,0,B|152:216|152:216|206:201,1,120,4|0,0:0|0:0,0:0:0:0:
248,160,199121,1,10,0:1:0:0:
348,92,199476,2,0,P|371:146|361:204,1,120,0|8,0:0|0:0,0:0:0:0:
308,232,200009,2,0,P|284:286|295:343,1,120,2|0,0:1|0:0,0:0:0:0:
348,372,200541,1,10,0:1:0:0:
464,344,200896,2,0,L|444:216,1,120,0|8,0:0|0:0,0:0:0:0:
472,172,201429,6,0,B|458:150|459:109|459:109|390:98|390:98|351:121,1,180,0|8,0:0|0:0,0:0:0:0:
248,184,202316,1,0,0:0:0:0:
142,125,202671,1,8,0:0:0:0:
142,125,202849,2,0,B|102:102|102:102|33:112|33:112|34:154|21:175,1,180,2|8,0:1|0:0,0:0:0:0:
56,292,203736,2,0,P|8:296|-8:292,2,60,2|0|8,0:0|0:0|0:0,0:0:0:0:
116,284,204269,6,0,P|164:280|180:284,1,60,0|4,0:0|0:0,0:0:0:0:
224,316,204624,1,0,0:0:0:0:
224,316,204801,1,8,0:0:0:0:
328,256,205156,2,0,L|312:196,2,60,0|0|8,0:0|0:0|0:0,0:0:0:0:
368,304,205689,2,0,P|432:320|484:300,1,120,0|0,0:0|0:0,0:0:0:0:
496,244,206222,1,8,0:0:0:0:
428,148,206577,2,0,P|416:104|424:12,1,120,0|8,0:0|0:0,0:0:0:0:
300,36,207287,6,0,P|312:80|304:172,1,120,4|8,0:0|0:0,0:0:0:0:
200,104,207997,2,0,P|168:100|128:112,1,60,2|0,0:0|0:0,0:0:0:0:
92,144,208352,2,0,L|104:204,1,60,8|0,0:0|0:0,0:0:0:0:
72,256,208707,2,0,P|40:260|0:248,2,60,2|2|8,0:0|0:0|0:0,0:0:0:0:
108,304,209239,1,2,0:0:0:0:
216,252,209594,2,0,P|245:246|274:250,1,60,8|8,0:0|0:0,0:0:0:0:
320,288,209949,6,0,P|368:304|436:288,1,120,4|0,0:0|0:0,0:0:0:0:
472,244,210482,1,10,0:1:0:0:
432,132,210837,2,0,P|384:116|316:132,1,120,0|8,0:0|0:0,0:0:0:0:
284,180,211369,2,0,P|234:169|183:121,1,120,2|0,0:1|0:0,0:0:0:0:
164,68,211902,1,8,0:0:0:0:
52,108,212257,2,0,P|43:79|46:49,2,60,8|8|8,0:0|0:0|0:0,0:0:0:0:
84,160,212790,6,0,B|92:220|92:220|76:280|76:280|84:340,1,180,2|4,0:1|0:0,0:0:0:0:
200,372,213677,1,0,0:0:0:0:
269,272,214032,1,8,0:0:0:0:
269,272,214210,2,0,B|357:252|357:292|449:272,1,180,4|8,0:0|0:0,0:0:0:0:
412,155,215097,2,0,P|441:150|471:152,2,60,8|0|4,0:0|0:0|0:0,0:0:0:0:
364,120,215630,6,0,P|369:91|367:61,1,60,0|4,0:0|0:0,0:0:0:0:
320,20,215985,1,0,0:0:0:0:
320,20,216162,1,8,0:0:0:0:
216,80,216517,2,0,P|172:84|136:80,2,60,0|0|8,0:0|0:0|0:0,0:0:0:0:
244,132,217050,2,0,B|260:168|260:168|236:308,1,180,2|8,0:1|0:0,0:0:0:0:
128,360,217938,2,0,L|108:241,1,120,0|8,0:0|0:0,0:0:0:0:
32,147,218648,6,0,P|84:120|152:128,1,120,2|8,0:0|0:0,0:0:0:0:
236,200,219358,2,0,L|247:278,2,60,2|0|8,0:0|0:0|0:0,0:0:0:0:
264,148,219890,2,0,P|320:156|396:144,1,120,2|8,0:0|0:0,0:0:0:0:
432,112,220423,2,0,L|423:52,1,60
380,12,220778,2,0,P|324:4|248:16,1,120,8|8,0:0|0:0,0:0:0:0:
168,84,221488,6,0,P|112:92|36:80,1,120,4|8,0:0|0:0,0:0:0:0:
0,52,222020,1,2,0:0:0:0:
0,52,222198,2,0,L|8:176,1,120,2|8,0:0|0:0,0:0:0:0:
40,224,222730,2,0,P|96:216|172:228,1,120,2|2,0:0|0:0,0:0:0:0:
196,268,223263,2,0,L|184:336,1,60,8|2,0:0|0:0,0:0:0:0:
228,368,223618,1,2,0:0:0:0:
328,300,223973,1,8,0:0:0:0:
294,183,224328,6,0,P|288:136|296:64,1,120,4|8,0:0|0:0,0:0:0:0:
328,12,224861,1,2,0:0:0:0:
328,12,225038,2,0,L|208:24,1,120,2|8,0:0|0:0,0:0:0:0:
172,72,225571,2,0,L|52:84,1,120,0|0,0:0|0:0,0:0:0:0:
16,132,226103,2,0,P|12:168|16:196,1,60,8|0,0:0|0:0,0:0:0:0:
56,236,226458,1,2,0:0:0:0:
152,164,226813,1,8,0:0:0:0:
262,211,227168,6,0,P|308:224|392:200,1,120,12|8,0:0|0:0,0:0:0:0:
420,168,227701,1,2,0:0:0:0:
420,168,227878,2,0,L|440:292,1,120,10|8,0:0|0:0,0:0:0:0:
404,336,228411,2,0,P|346:320|288:334,1,120,2|0,0:0|0:0,0:0:0:0:
240,368,228943,2,0,L|172:356,1,60,8|0,0:0|0:0,0:0:0:0:
148,308,229298,1,8,0:0:0:0:
48,376,229654,1,8,0:0:0:0:
7,260,230009,6,0,P|4:201|15:142,1,120,4|8,0:0|0:0,0:0:0:0:
60,104,230541,1,2,0:0:0:0:
60,104,230719,2,0,B|120:120|120:120|175:104,1,120,4|8,0:0|0:0,0:0:0:0:
220,64,231250,1,4,0:0:0:0:
320,132,231606,2,0,L|308:204,2,60,2|8|4,0:0|0:0|0:0,0:0:0:0:
436,96,232316,2,0,L|426:36,2,60,2|10|2,0:1|0:1|0:1,0:0:0:0:
480,136,232849,5,4,0:0:0:0:
236,44,243677,5,0,0:0:0:0:
236,44,243855,2,0,L|296:52,1,60,8|8,0:0|0:0,0:0:0:0:
327,104,244210,6,0,P|314:162|325:221,1,120,4|8,0:0|0:0,0:0:0:0:
363,336,244920,2,0,P|390:324|412:304,2,60,8|0|8,0:0|0:0|0:0,0:0:0:0:
308,316,245452,2,0,B|248:304|248:304|180:324,1,120,2|0,0:1|0:0,0:0:0:0:
140,352,245985,1,8,0:0:0:0:
140,352,246162,2,0,B|83:368|83:368|23:356,1,120,0|2,0:0|0:1,0:0:0:0:
4,300,246695,1,2,0:1:0:0:
28,184,247050,6,0,P|68:164|148:184,1,120,4|8,0:0|0:0,0:0:0:0:
172,228,247582,2,0,P|208:232|248:224,1,60,0|8,0:0|0:0,0:0:0:0:
276,188,247938,2,0,P|280:136|272:116,1,60,0|8,0:0|0:0,0:0:0:0:
264,72,248293,2,0,B|324:56|324:56|380:67,1,120,2|0,0:1|0:0,0:0:0:0:
424,108,248825,1,10,0:1:0:0:
348,204,249180,2,0,P|348:248|352:280,1,60,10|0,0:1|0:0,0:0:0:0:
396,304,249535,2,0,L|460:288,1,60,8|8,0:0|0:0,0:0:0:0:
511,267,249890,6,0,P|504:208|506:148,1,120,4|8,0:0|0:0,0:0:0:0:
422,62,250600,2,0,P|444:41|471:30,2,60,8|0|8,0:0|0:0|0:0,0:0:0:0:
380,104,251133,2,0,B|324:120|324:120|263:107,1,120,2|0,0:1|0:0,0:0:0:0:
232,56,251665,1,8,0:0:0:0:
144,140,252020,2,0,P|132:208|148:260,1,120,8|10,0:0|0:1,0:0:0:0:
216,352,252730,6,0,B|264:360|304:340|304:340|344:356|392:347,1,180,10|10,0:1|0:1,0:0:0:0:
388,168,253796,2,0,B|340:160|300:180|300:180|260:164|211:172,1,180,10|10,0:1|0:1,0:0:0:0:
164,208,254506,1,2,0:1:0:0:
52,164,254861,2,0,P|48:120|56:96,2,60,10|10|2,0:1|0:1|0:1,0:0:0:0:
68,220,255393,5,4,0:0:0:0:
256,192,255571,12,0,258588,0:0:0:0:
