osu file format v14

[General]
AudioFilename: romeo_malechorus.mp3
AudioLeadIn: 0
PreviewTime: -1
Countdown: 1
SampleSet: Soft
StackLeniency: 0.7
Mode: 0
LetterboxInBreaks: 1
WidescreenStoryboard: 0

[Editor]
DistanceSpacing: 0.8
BeatDivisor: 2
GridSize: 16
TimelineZoom: 1.7

[Metadata]
Title:Romeo and Cinderella
TitleUnicode:Romeo and Cinderella
Artist:Kouhei, ???
ArtistUnicode:Kouhei, ???
Creator:AcidSnow1
Version:Normal?
Source:Nico Nico Douga
Tags:chorus utaite utattemita utatte mita niconico niconicodouga nicovideo
BeatmapID:1073018
BeatmapSetID:504309

[Difficulty]
HPDrainRate:8
CircleSize:4
OverallDifficulty:8
ApproachRate:7
SliderMultiplier:2
SliderTickRate:2

[Events]
//Background and Video events
//Break Periods
2,18570,22588
//Storyboard Layer 0 (Background)
//Storyboard Layer 1 (Fail)
//Storyboard Layer 2 (Pass)
//Storyboard Layer 3 (Foreground)
//Storyboard Sound Samples

[TimingPoints]
896,352.941176470588,4,2,0,80,1,0
1605,-125,4,2,0,80,0,0
12900,352.941176470588,4,1,0,80,1,0
24194,-100,4,2,0,80,0,0

[HitObjects]
160,160,895,5,0,0:0:0:0:
240,112,1072,1,0,0:0:0:0:
336,112,1248,1,0,0:0:0:0:
416,160,1425,1,0,0:0:0:0:
448,256,1601,2,0,B|208:256|208:256|48:192,3,400,0|0|0|0,0:0|0:0|0:0|0:0,0:0:0:0:
96,160,3896,1,0,0:0:0:0:
160,96,4072,1,0,0:0:0:0:
240,144,4248,1,0,0:0:0:0:
304,80,4425,6,0,P|384:144|320:224,1,160,2|0,0:0|0:0,0:0:0:0:
272,160,4954,2,0,P|176:128|96:160,2,160,2|2|2,0:0|0:0|0:0,0:0:0:0:
176,208,5837,2,0,L|368:208,3,160,2|2|2|2,0:0|0:0|0:0|0:0,0:0:0:0:
448,144,7248,6,0,B|356:51|260:35|192:96,2,240,0|0|0,0:0|0:0|0:0,0:0:0:0:
320,144,8660,1,2,0:0:0:0:
224,208,9013,1,2,0:0:0:0:
336,256,9366,1,2,0:0:0:0:
240,320,9719,1,2,0:0:0:0:
144,256,10072,5,0,0:0:0:0:
144,256,10248,1,0,0:0:0:0:
256,192,10425,12,4,11484,0:0:0:0:
208,128,11660,5,0,0:0:0:0:
320,80,11837,1,0,0:0:0:0:
384,176,12013,1,0,0:0:0:0:
272,224,12190,2,0,B|272:320|272:320|144:320,1,200,0|0,0:0|0:0,0:0:0:0:
160,240,12896,5,0,0:0:0:0:
160,240,13076,1,0,0:0:0:0:
256,192,13252,12,0,14135,0:0:0:0:
304,144,14488,6,0,L|416:144,2,100
208,144,15017,2,0,L|80:144,2,100
256,80,15547,1,0,0:0:0:0:
128,240,15899,6,0,L|128:352,1,100
208,240,16429,2,0,L|336:240,1,100
368,176,16782,2,0,L|240:176,1,100
224,96,17311,2,0,L|112:96,2,100
304,96,17841,2,0,P|368:96|400:176,3,100
192,192,23488,5,4,0:0:0:0:
256,128,23752,1,4,0:0:0:0:
320,192,24017,1,4,0:0:0:0:
64,304,24370,6,0,L|64:176,2,100
144,192,24899,2,0,L|144:304,1,100
224,176,25252,1,0,0:0:0:0:
240,288,25429,1,0,0:0:0:0:
304,128,25605,2,2,B|384:128|384:128|384:224,2,100
368,208,26135,2,2,B|288:208|288:208|288:176,2,100
304,272,26664,2,2,L|416:272,1,100
416,96,27194,5,0,0:0:0:0:
336,32,27370,1,0,0:0:0:0:
240,80,27547,1,0,0:0:0:0:
144,32,27723,1,0,0:0:0:0:
96,128,27899,1,0,0:0:0:0:
192,176,28076,1,0,0:0:0:0:
128,288,28252,1,0,0:0:0:0:
240,240,28429,2,2,L|400:240,2,100
352,176,28958,2,2,L|464:160,2,100
288,80,29488,2,2,L|160:80,1,100
144,64,30017,5,0,0:0:0:0:
144,144,30194,1,0,0:0:0:0:
144,224,30370,1,0,0:0:0:0:
144,304,30547,2,2,B|304:304|416:272|416:176|416:96,1,400
304,64,31429,5,0,0:0:0:0:
224,80,31605,1,0,0:0:0:0:
224,160,31782,1,0,0:0:0:0:
304,160,31958,2,0,L|304:304,1,100,2|0,0:0|0:0,0:0:0:0:
384,272,32311,2,0,L|384:160,1,100,2|0,0:0|0:0,0:0:0:0:
448,208,32664,2,0,B|432:96|352:64|160:64|128:96,1,300,0|2,0:0|0:0,0:0:0:0:
160,176,33370,2,0,P|192:272|400:272,1,300,2|0,0:0|0:0,0:0:0:0:
256,192,34076,12,0,35135,0:0:0:0:
336,64,35664,5,0,0:0:0:0:
208,80,35841,1,0,0:0:0:0:
368,144,36017,1,0,0:0:0:0:
240,160,36194,1,0,0:0:0:0:
400,224,36370,1,0,0:0:0:0:
272,240,36547,1,0,0:0:0:0:
432,304,36723,1,0,0:0:0:0:
304,320,36899,2,2,B|208:320|208:320|128:240,1,200
64,176,37429,2,2,B|160:176|160:176|240:256,1,200
288,208,37958,2,2,B|288:192|304:176|288:160|304:144|288:128|304:112|288:96,1,100
384,80,38488,5,0,0:0:0:0:
336,160,38664,1,0,0:0:0:0:
384,240,38841,1,0,0:0:0:0:
336,320,39017,1,0,0:0:0:0:
384,240,39194,1,0,0:0:0:0:
336,160,39370,1,0,0:0:0:0:
384,80,39547,1,0,0:0:0:0:
