osu file format v5

[General]
AudioFilename: Sociometry[full].mp3
AudioLeadIn: 0
PreviewTime: -1
Countdown: 1
SampleSet: Normal
StackLeniency: 0.8
Mode: 0
EditorBookmarks: 69982,82975,127025

[Metadata]
Title:Sociometry
Artist:Kotoko
Creator:eirrol
Version:Easy

[Difficulty]
HPDrainRate:2
CircleSize:4
OverallDifficulty:2
SliderMultiplier:1.3
SliderTickRate:2

[Events]
//Background and Video events
0,0,"untitledD.png"
//Break Periods
2,67647,80253
2,112013,125465
//Storyboard Layer 0 (Background)
//Storyboard Layer 1 (Failing)
//Storyboard Layer 2 (Passing)
//Storyboard Layer 3 (Foreground)
//Storyboard Sound Samples
//Background Colour Transformations
3,100,176,175,255

[TimingPoints]
7015,422.535211267606,4,1,0,100
199700,422.535211267606,4,2,0,100
211530,422.535211267606,4,1,0,100

[Colours]
Combo1 : 255,0,0
Combo2 : 255,128,255
Combo3 : 64,0,128
Combo4 : 0,255,255
Combo5 : 255,128,0

[HitObjects]
256,192,27296,12,4,30676
112,104,32367,5,0
376,104,34057,1,0
248,328,35747,1,0
72,144,37437,5,0
192,144,38282,1,0
312,152,39127,1,0
408,224,39972,5,0
360,272,40395,1,0
296,264,40817,6,0,B|24:264,1,260
40,128,42507,2,0,B|456:128,1,390
456,192,44198,2,0,B|384:248|296:288|160:256|80:208,1,390
96,144,45888,1,4
352,168,47578,6,0,B|379:309|232:296,2,195
400,120,49268,2,4,B|0:120,1,390
104,184,50958,6,0,B|464:184,2,325
96,240,53493,1,0
152,240,53916,1,0
184,296,54338,6,0,B|472:296,1,260
424,232,55606,1,0
400,168,56029,2,0,B|301:225|274:103|144:96,1,260
120,136,57296,1,0
88,200,57719,6,0,B|184:200|208:264|200:328|304:336,1,260
296,272,58986,1,0
296,208,59409,1,0
296,144,59831,1,0
296,80,60254,1,0
360,80,60676,1,0
368,152,61099,6,0,B|368:304,3,130
312,320,62789,2,4,B|176:336|96:240|64:128|120:40,1,390
168,80,64479,1,0
224,160,65113,5,0
224,160,65324,1,0
320,160,65747,1,0
384,160,66169,1,0
376,216,66592,1,0
344,264,67015,5,0
344,264,67226,1,0
344,264,67437,1,0
80,104,81381,5,0
136,104,81803,5,0
192,104,82226,5,0
248,104,82648,5,0
312,104,83071,5,0
360,144,83493,5,0
392,200,83916,1,0
360,256,84338,5,0
296,280,84761,1,0
232,296,85184,1,0
168,288,85606,1,0
120,168,86451,5,0
184,168,86874,1,0
248,168,87296,1,0
376,184,88141,5,0
408,240,88564,1,0
360,288,88986,1,0
232,304,89831,6,0,B|176:304|132:272|128:208,3,130
128,168,91522,2,4,B|240:72|368:88|488:184,1,390
376,232,93212,6,0,B|328:296|168:280,1,195
136,256,94268,1,0
136,256,94479,1,0
80,184,94902,1,0
144,112,95536,5,0
144,112,95747,1,0
256,208,96592,6,0,B|256:352,1,130
312,336,97437,1,0
376,344,97860,6,0,B|376:184,1,130
336,168,98705,1,0
272,160,99127,1,0
136,136,99972,6,0,B|176:40|304:56,2,195
136,192,101662,1,0
160,248,102085,1,0
208,280,102507,1,0
256,192,103353,12,4,106310
256,104,108000,5,0
256,160,108423,1,0
256,216,108845,1,0
256,272,109268,1,0
120,232,110113,6,4,B|96:88|216:48|352:64|408:120|410:176|376:304,1,520
216,120,127015,6,0,B|488:120,1,260
472,256,128705,2,0,B|56:256,1,390
56,192,130396,2,0,B|128:136|216:96|352:128|432:176,1,390
416,240,132086,1,4
160,216,133776,6,0,B|133:75|280:88,2,195
112,264,135466,2,4,B|520:264,1,390
408,200,137156,6,0,B|48:200,2,325
416,144,139691,1,0
360,144,140114,1,0
344,80,140536,6,0,B|241:39|208:123|80:80,1,260
88,152,141804,1,0
88,216,142227,2,0,B|160:277|248:176|352:248,1,260
392,248,143494,1,0
392,168,143916,6,0,B|376:80|280:72,2,130
328,184,145184,1,0
264,192,145607,1,0
224,312,146452,1,4
144,232,147297,6,0,B|144:80,1,130
200,128,148141,1,0
200,128,148564,1,0
200,64,148987,2,4,B|336:48|416:144|448:256|392:344,1,390
344,304,150677,1,0
288,224,151311,5,0
288,224,151522,1,0
192,224,151945,1,0
128,224,152367,1,0
128,160,152790,1,0
128,96,153212,1,4
256,192,154057,12,4,161662
280,80,162507,6,0,B|336:80|380:112|384:176,3,130
384,216,164198,2,4,B|272:312|117:323|24:184,1,390
136,152,165888,6,0,B|184:88|344:104,1,195
376,128,166944,1,0
376,128,167155,1,0
432,200,167578,1,0
368,272,168212,5,0
368,272,168423,1,0
256,176,169268,6,0,B|256:32,1,130
200,48,170113,1,0
136,40,170536,6,0,B|136:200,1,130
176,216,171381,1,0
240,224,171803,1,0
376,248,172648,6,0,B|336:344|208:328,2,195
376,192,174338,1,0
352,136,174761,1,0
304,104,175183,1,0
168,72,176029,6,0,B|80:128|64:352|288:352,1,390
280,288,177719,2,0,B|349:255|432:296,2,130
248,232,178986,1,4
184,200,179409,6,0,B|240:56|400:64|456:128|472:272|424:352|216:344|72:320,1,715
80,168,182578,1,0
80,168,182789,2,4,B|200:96|384:128|440:224|464:312,1,455
