osu file format v7

[General]
AudioFilename: Kodera Kanako - Sora wo Miagete.mp3
AudioLeadIn: 0
PreviewTime: 113036
Countdown: 0
SampleSet: Soft
StackLeniency: 0.5
Mode: 0
LetterboxInBreaks: 1

[Editor]
Bookmarks: 18145,113036,144081,174493,189699,204905,220111,237217,267629,282835,298066,313247,332254,337923,347142,347537
DistanceSpacing: 0.699999988079071
BeatDivisor: 4
GridSize: 8

[Metadata]
Title:Sora wo Miagete
Artist:Kotera Kanako
Creator:f0012979
Version:Hard
Source:Falcom Sound Team J.D.K.
Tags:falcom breeze

[Difficulty]
HPDrainRate:5
CircleSize:5
OverallDifficulty:6
SliderMultiplier:2.2
SliderTickRate:0.5

[Events]
//Background and Video events
0,0,"Sora wo Miagete.jpg"
//Break Periods
2,98664,111986
2,189898,202905
//Storyboard Layer 0 (Background)
//Storyboard Layer 1 (Fail)
//Storyboard Layer 2 (Pass)
//Storyboard Layer 3 (Foreground)
Sprite,Foreground,Centre,"SB\white frame.png",320,240 M,0,0,21296,320,240 F,1,16227,21296,1,0 F,0,98464,111769,1 F,0,111769,113036,1,0 F,0,113036,,0 F,0,189699,192233,0,1 F,0,192233,203955,1,0.9988161 F,1,203955,208073,0.9988161,0 F,0,328453,330354,0,1 F,0,330354,332254,1,0 F,0,332254,345712,0,1 F,0,345712,348869,1,0
Sprite,Foreground,Centre,"Sora wo Miagete.jpg",320,240 S,0,0,,0.84 M,0,0,348080,320,240 M,0,348080,,320,240
Sprite,Foreground,Centre,"SB\feather.png",320,240 M,2,388,4189,211,-53,-55,303 R,2,388,4189,0,-5.632
Sprite,Foreground,Centre,"SB\feather.png",320,240 R,0,3952,6011,1.59744,0.4140449 M,2,3952,6090,-55,114,345,240 R,0,6011,6486,0.4140449 M,1,6090,6486,345,240,416,259 M,0,6486,7199,416,259,214,337 R,0,6486,7199,0.4140449,1.110366 M,0,7199,7595,214,337,105,377 R,0,7199,7991,1.110366,0.9055652 M,0,7595,8624,105,377,358,536 R,0,7991,8624,0.9055652,0.5369245
Sprite,Foreground,Centre,"SB\feather.png",320,240 M,0,4189,4823,534,-43,308,76 R,0,4189,4823,0,0.6963202 M,0,4823,5140,308,76,250,86 R,0,4823,5140,0.6963202 M,0,5140,5773,250,86,476,145 R,0,5140,5773,0.6963202,-0.3686399 M,0,5773,6407,476,145,606,150 R,0,5773,6407,-0.3686399,-0.06143985 M,0,6407,7041,606,150,347,279 R,0,6407,7041,-0.06143985,1.3312 M,0,7041,7674,347,279,276,296 R,0,7041,7674,1.3312 M,0,7674,8308,276,296,509,385 R,0,7674,8308,1.3312,-0.3071994 R,0,8308,8466,-0.3071994,0.06144011 M,0,8308,8941,509,385,616,381 R,0,8466,8941,0.06144011,0.2252798 M,0,8941,9654,616,381,419,497 R,0,8941,9654,0.2252798,1.31072 M,0,9654,10129,419,497,370,527
Sprite,Foreground,Centre,"SB\feather.png",320,240 M,2,9892,14327,-58,444,713,-50 R,0,9892,14327,0,-3.29728
Sprite,Foreground,Centre,"SB\Lyric\01.png",320,240 F,0,17495,18128,0,1 M,0,17495,25098,224,408,269,409 F,0,18128,24464,1 F,0,24464,25098,1,0
Sprite,Foreground,Centre,"SB\Lyric\02.png",320,240 F,0,25098,25731,0,1 M,0,25098,32700,247,410,275,408 F,0,25731,32067,1 F,0,32067,32700,1,0
Sprite,Foreground,Centre,"SB\Lyric\03.png",320,240 F,0,32700,33334,0,1 M,0,32700,40303,243,407,270,409 F,0,33334,39670,1 F,0,39670,40303,1,0
Sprite,Foreground,Centre,"SB\Lyric\04.png",320,240 F,0,40303,40937,0,1 M,0,40303,48540,249,408,269,409 F,0,40937,47906,1 F,0,47906,48540,1,0
Sprite,Foreground,Centre,"SB\Lyric\05.png",320,240 F,0,48540,49174,0,1 M,0,48540,55509,203,407,235,408 F,0,49174,54876,1 F,0,54876,55509,1,0
Sprite,Foreground,Centre,"SB\Lyric\06.png",320,240 F,0,55509,56143,0,1 M,0,55509,63112,224,408,254,408 F,0,56143,62479,1 F,0,62479,63112,1,0
Sprite,Foreground,Centre,"SB\Lyric\07.png",320,240 F,0,63112,63746,0,1 M,0,63112,70398,182,408,239,408 F,0,63746,69765,1 F,0,69765,70398,1,0
Sprite,Foreground,Centre,"SB\Lyric\08.png",320,240 F,0,70398,71032,0,1 M,0,70398,78318,227,407,260,407 F,0,71032,77685,1 F,0,77685,78318,1,0
Sprite,Foreground,Centre,"SB\Lyric\09.png",320,240 F,0,78318,78952,0,1 M,0,78318,87188,254,406,281,406 F,0,78952,86555,1 F,0,86555,87188,1,0
Sprite,Foreground,Centre,"SB\Lyric\10.png",320,240 F,0,87188,87822,0,1 M,0,87188,94158,178,406,236,406 F,0,87822,93524,1 F,0,93524,94158,1,0
Sprite,Foreground,Centre,"SB\white.png",320,240 F,0,97801,98464,0,1 S,0,97801,98464,1.01024,2.5872 F,0,98464,98543,1,0 F,0,157386,158654,0,0.4761598 F,0,158654,159287,0.4761598,1 S,2,158654,159287,1.01024,5 F,1,159287,159604,1,0
Sprite,Foreground,Centre,"SB\title.png",320,240 F,2,98780,100998,0,1 M,2,98780,101631,320,191,320,183 F,0,100998,111769,1 M,0,101631,113036,320,183 F,1,111769,113036,1,0
Sprite,Foreground,Centre,"SB\f0012979.png",320,240 F,0,105433,106066,0,1 M,2,105433,107334,312,347,312,321 F,0,106066,108601,1 M,0,107334,109234,312,321 F,0,108601,109234,1,0
Sprite,Foreground,Centre,"SB\SB.png",320,240 F,0,109234,109868,0,1 M,2,109234,110502,320,342,320,320 F,0,109868,111769,1 M,0,110502,113036,320,320 F,1,111769,113036,1,0
Sprite,Foreground,Centre,"SB\Lyric\11.png",320,240 F,0,113036,113669,0,1 M,0,113036,120639,244,412,274,412 F,0,113669,120005,1 F,0,120005,120639,1,0
Sprite,Foreground,Centre,"SB\Lyric\12.png",320,240 F,0,120639,121272,0,1 M,0,120639,128242,240,407,269,407 F,0,121272,127608,1 F,0,127608,128242,1,0
Sprite,Foreground,Centre,"SB\Lyric\13.png",320,240 F,0,128242,128875,0,1 M,0,128242,135845,212,408,250,408 F,0,128875,135211,1 F,0,135211,135845,1,0
Sprite,Foreground,Centre,"SB\Lyric\14.png",320,240 F,0,135845,136478,0,1 M,0,135845,143448,224,406,262,406 F,0,136478,142814,1 F,0,142814,143448,1,0
Sprite,Foreground,Centre,"SB\Lyric\15.png",320,240 F,0,144081,144715,0,1 M,0,144081,151051,235,406,283,406 F,0,144715,150417,1 F,0,150417,151051,1,0
Sprite,Foreground,Centre,"SB\Lyric\16.png",320,240 F,0,151051,151684,0,1 M,0,151051,158654,251,407,281,407 F,0,151684,158020,1 F,0,158020,158654,1,0
Sprite,Foreground,Centre,"SB\Lyric\17.png",320,240 F,0,158654,159287,0,1 M,0,158654,165940,187,407,227,407 F,0,159287,165306,1 F,0,165306,165940,1,0
Sprite,Foreground,Centre,"SB\Lyric\18.png",320,240 F,0,165940,166573,0,1 M,0,165940,173859,240,406,274,406 F,0,166573,173226,1 F,0,173226,173859,1,0
Sprite,Foreground,Centre,"SB\Lyric\19.png",320,240 F,0,173859,174493,0,1 M,0,173859,181146,183,407,211,407 F,0,174493,180512,1 F,0,180512,181146,1,0
Sprite,Foreground,Centre,"SB\Lyric\20'.png",320,240 F,0,181146,181779,0,1 M,0,181146,189699,221,406,266,406 F,0,181779,188432,1 F,0,188432,189699,1,0
Sprite,Foreground,Centre,"SB\Lyric\21.png",320,240 F,0,220111,220744,0,1 M,0,220111,227080,203,408,233,408 F,0,220744,226447,1 F,0,226447,227080,1,0
Sprite,Foreground,Centre,"SB\Lyric\22.png",320,240 F,0,227080,227714,0,1 M,0,227080,235317,215,406,254,406 F,0,227714,234683,1 F,0,234683,235317,1,0
Sprite,Foreground,Centre,"SB\Lyric\23.png",320,240 F,0,236584,237217,0,1 M,0,236584,243870,186,406,232,406 F,0,237217,243236,1 F,0,243236,243870,1,0
Sprite,Foreground,Centre,"SB\Lyric\24.png",320,240 F,0,243870,244504,0,1 M,0,243870,251790,231,405,279,405 F,0,244504,251156,1 F,0,251156,251790,1,0
Sprite,Foreground,Centre,"SB\Lyric\25.png",320,240 F,0,251790,252423,0,1 M,0,251790,260660,258,406,295,406 F,0,252423,260026,1 F,0,260026,260660,1,0
Sprite,Foreground,Centre,"SB\Lyric\26.png",320,240 F,0,260660,261293,0,1 M,0,260660,266996,178,407,226,407 F,0,261293,266362,1 F,0,266362,266996,1,0
Sprite,Foreground,Centre,"SB\Lyric\27ko.png",320,240 M,0,266996,,83,406 F,0,266996,267233,0,1 F,0,267233,267629,1 F,0,267629,,1
Sprite,Foreground,Centre,"SB\Lyric\27no.png",320,240 M,0,267629,267788,114,374,110,384 F,0,267629,267788,0,1 S,0,267629,267788,2.76128,2.09568 M,0,267788,270164,110,384,109,403 S,2,267788,270164,2.09568,1.06144 F,0,267788,273648,1 M,0,270164,274282,109,403,110,402 F,0,273648,274282,1,0
Sprite,Foreground,Centre,"SB\Lyric\27kored.png",320,240 M,0,267629,274282,83,406 F,0,273648,274282,1,0
Sprite,Foreground,Centre,"SB\Lyric\27sora.png",320,240 F,0,270164,270797,0,1 M,2,270164,271431,145,403 S,2,270164,271431,1.88064,1 F,0,270797,273648,1 M,0,271431,274282,145,403 F,0,273648,,1 F,0,273648,274282,1,0
Sprite,Foreground,Centre,"SB\Lyric\27no.png",320,240 M,2,271431,272064,193,401,179,404 F,0,271431,272064,0,1 S,2,271431,272064,1.64512,1 F,0,272064,273648,1 M,0,272064,274282,179,404 F,0,273648,274282,1,0
Sprite,Foreground,Centre,"SB\Lyric\27shita.png",320,240 F,0,272064,272698,0,1 M,2,272064,273332,246,403,212,402 S,2,272064,273332,1.90112,1 F,0,272698,273648,1 M,0,273332,274282,212,402 F,0,273648,274282,1,0
Sprite,Foreground,Centre,"SB\Lyric\27de.png",320,240 F,1,273332,273965,0,1 M,2,273332,274282,273,386,248,403 S,2,273332,274282,1.86016,1 F,0,273965,274282,1,0
Sprite,Foreground,Centre,"SB\Lyric\28.png",320,240 F,0,274282,274915,0,1 M,0,274282,284102,262,406,308,406 F,0,274915,283469,1 F,0,283469,284102,1,0
Sprite,Foreground,Centre,"SB\Lyric\29.png",320,240 F,0,284102,284736,0,1 M,0,284102,289488,185,403,224,403 F,0,284736,288854,1 F,0,288854,289488,1,0
Sprite,Foreground,Centre,"SB\Lyric\30'.png",320,240 F,0,289488,290121,0,1 M,0,289488,297408,218,405,264,405 F,0,290121,296774,1 F,0,296774,297408,1,0
Sprite,Foreground,Centre,"SB\Lyric\31.png",320,240 F,0,297408,298041,0,1 M,0,297408,304694,183,406,218,406 F,0,298041,304060,1 F,0,304060,304694,1,0
Sprite,Foreground,Centre,"SB\Lyric\32.png",320,240 F,0,304694,305327,0,1 M,0,304694,312613,232,407,266,407 F,0,305327,311980,1 F,0,311980,312613,1,0
Sprite,Foreground,Centre,"SB\Lyric\33.png",320,240 F,0,312613,313247,0,0.98976 M,0,312613,321484,256,407,290,407 F,0,313247,320850,0.98976 F,0,320850,321484,0.98976,0
Sprite,Foreground,Centre,"SB\Lyric\34.png",320,240 F,0,321484,322117,0,1 M,0,321484,329720,159,405,220,405 F,0,322117,329087,1 F,0,329087,329720,1,0
//Storyboard Sound Samples
//Background Colour Transformations
3,100,0,0,0

[TimingPoints]
1022,633.579725448786,3,2,1,55,1,0
16227,-100,3,2,1,0,0,1
18128,-200,3,2,1,55,0,0
98464,633.579725448786,3,2,1,50,1,1
98622,-100,3,2,1,50,0,0
151684,-200,3,2,1,50,0,0
152635,-100,3,2,1,50,0,0
155486,-200,3,2,1,50,0,0
156753,-100,3,2,1,50,0,0
169424,-200,3,2,1,50,0,0
170692,-100,3,2,1,50,0,0
175760,-200,3,2,1,50,0,0
177027,-100,3,2,1,50,0,0
182096,-200,3,2,1,50,0,0
182730,-100,3,2,1,50,0,0
203955,-100,3,2,1,50,0,1
204905,-100,3,2,1,50,0,0
220111,-200,3,2,1,50,0,0
266204,-200,3,2,1,60,0,0
266837,-200,3,2,1,70,0,0
267471,-200,3,2,1,50,0,0
267629,-100,3,2,1,70,0,1
272698,-100,3,2,1,60,0,0
298041,-100,3,2,1,60,0,1
305644,-100,3,2,1,60,0,0
332254,-200,3,2,1,50,0,0
341755,645.161290322581,3,2,1,50,1,0
341755,-200,3,2,1,50,0,0
343690,674.157303370787,3,2,1,50,1,0
343690,-200,3,2,1,50,0,0
345712,789.473684210526,3,2,1,50,1,0
345712,-200,3,2,1,50,0,0
345909,-200,3,2,1,20,0,0

[Colours]
Combo1 : 136,219,251
Combo2 : 255,255,255
Combo3 : 208,255,255

[HitObjects]
256,192,16227,12,2,18128
72,152,19395,5,0
72,152,19712,1,0
72,152,20029,2,0,B|40:208|80:272,2,110,2|0|0
128,200,21930,1,2
208,200,22563,2,0,B|248:192|248:144|304:144,1,110
376,144,23830,1,2
376,296,25098,5,0
376,296,25414,1,0
376,296,25731,1,2
224,296,26998,1,0
192,272,27315,1,0
160,248,27632,2,0,B|160:128,2,110,2|0|0
160,328,29533,2,0,B|256:376|392:320,1,220,2|0
373,327,31117,1,0
373,327,31433,1,2
376,176,32700,5,0
376,176,33017,1,0
376,176,33334,1,2
304,40,34601,1,0
280,72,34918,1,0
256,104,35235,2,0,B|256:232,2,110,2|0|0
200,48,37136,2,0,B|144:24|88:48,1,110,2|0
48,104,38403,2,0,B|48:224,1,110,0|2
176,320,40303,5,0
176,320,40620,1,0
176,320,40937,1,2
328,320,42204,1,0
360,296,42521,1,0
392,272,42838,2,0,B|392:152,3,110,2|0|0|2
392,88,45372,1,0
392,88,45689,1,0
392,88,46006,6,0,B|456:88,2,55,0|0|2
328,48,47273,2,0,B|272:40|208:48,1,110
218,46,48540,5,2
216,160,49490,2,0,B|216:224,2,55
216,120,50441,2,0,B|160:112|104:120,2,110,2|0|0
296,120,52341,2,0,B|408:120|408:240,1,165,2|0
408,256,53609,1,0
408,296,53925,1,0
408,336,54242,1,2
256,336,55509,5,0
256,336,55826,1,0
256,336,56143,2,0,B|184:336|184:256,1,110,2|0
120,192,57093,6,0,B|80:248,2,55
144,160,58044,2,0,B|200:128|264:168,1,110,2|0
249,159,58994,1,0
249,159,59311,1,0
248,240,59944,6,0,B|304:264|368:232,2,110,2|0|0
184,200,61845,1,2
168,128,62479,1,0
200,56,63112,1,0
280,32,63746,6,0,B|312:16|408:24,3,110,2|0|0|2
472,160,66280,6,0,B|440:136|368:104,1,110
224,136,67547,2,0,B|272:160|328:208,1,110,2|0
176,248,68815,2,0,B|144:224|56:200,2,110,0|2|0
264,328,70398,5,0
296,304,70714,1,0
304,264,71031,1,0
296,224,71348,2,0,B|264:232|216:216|176:224,2,110,2|0|0
368,240,73250,2,0,B|392:184|368:112,1,110,2|0
296,128,74517,2,0,B|248:144|184:128,1,110,0|2
120,88,75784,1,0
48,104,76417,5,0
56,184,77051,2,0,B|64:224|104:304,1,110,2|0
200,256,78318,2,0,B|232:272|320:288,1,110,0|2
336,192,79585,1,0
336,112,80219,6,0,B|240:64|96:56,1,220
40,144,82120,1,0
48,264,82753,2,0,B|80:296|120:368,1,110,2|0
224,312,84020,1,0
256,192,84654,2,0,B|224:160|208:88,1,110,2|0
208,48,85604,6,0,B|264:48,3,55,0|0|0|2
328,88,87188,2,0,B|368:80|416:96|448:88,2,110,0|0|2
176,88,89723,1,0
96,88,90356,2,0,B|88:152|152:272|272:288,1,275,2|0
256,285,92257,1,2
320,240,92891,2,0,B|384:240,2,55
256,200,94158,6,0,B|224:144|256:88,1,110,2|0
312,144,95425,2,0,B|352:136|416:152|464:144,1,137.5,0|2
256,192,97801,12,4,98464
312,136,113036,5,8
312,56,113353,1,0
384,88,113669,2,0,B|424:176|376:256,1,165,4|0
360,280,114303,1,0
280,280,114620,1,0
264,208,114937,6,0,B|208:176|144:216,1,110
80,216,115570,2,0,B|16:144|80:48,1,165,0|0
104,48,116204,1,0
184,48,116521,1,0
232,104,116837,2,0,B|344:152|456:104,1,220,8|0
448,224,117946,5,0
448,224,118104,2,0,B|472:288|440:352,1,110
384,288,118738,2,0,B|360:232|384:176,1,110
448,136,119372,1,0
376,48,119847,1,0
376,48,120005,2,0,B|320:8|248:64,1,110
248,128,120639,6,0,B|192:104|128:136,2,110,8|0|0
336,208,121748,1,0
336,208,121906,2,0,B|368:152|336:88,1,110,0|0
280,56,122540,1,0
208,88,122856,1,0
248,152,123173,5,0
320,240,123648,1,0
320,240,123807,1,0
376,184,124123,1,0
432,128,124440,1,8
376,80,124757,1,0
320,32,125074,1,0
184,64,125549,1,0
184,64,125707,6,0,B|152:128|192:184,2,110
256,32,126658,1,0
328,64,126975,1,0
328,176,127450,1,0
328,176,127608,6,0,B|352:240|328:296,2,110,0|0|8
256,144,128559,1,0
184,168,128875,1,4
184,280,129351,1,0
184,280,129509,2,0,B|128:312|64:272,1,110
40,216,130142,5,0
24,144,130459,1,0
40,72,130776,1,0
160,32,131251,1,0
160,32,131410,2,0,B|216:24|288:32,1,110
336,72,132043,1,8
376,136,132360,1,0
296,136,132677,5,0
184,136,133152,1,0
184,136,133310,1,0
128,184,133627,1,0
72,232,133944,1,0
128,288,134261,1,0
184,336,134578,5,0
224,232,135053,1,0
224,232,135211,2,0,B|280:208|344:240,1,110
392,280,135845,5,8
392,200,136161,1,0
344,136,136478,2,0,B|264:80|168:136,1,165
160,152,137112,1,0
160,232,137429,1,0
200,296,137745,6,0,B|328:296,2,110,0|0|0
88,296,138854,1,0
88,296,139013,2,0,B|56:240|88:176,1,110
120,128,139646,1,8
200,128,139963,2,0,B|320:128,1,110
408,184,140755,5,0
408,184,140914,2,0,B|440:128|408:64,1,110
344,40,141547,1,0
272,8,141864,1,0
200,40,142181,1,0
272,128,142656,5,8
296,160,142814,1,0
320,192,142972,1,0
304,224,143131,1,0
288,256,143289,1,0
264,288,143448,2,0,B|144:288,2,110,8|0|4
424,336,144556,5,0
424,336,144715,2,0,B|464:216,1,110
464,152,145348,1,8
464,152,145665,1,0
432,80,145982,2,0,B|400:48|328:24,1,110
328,104,146616,2,0,B|288:80|216:88,1,110
224,168,147249,2,0,B|176:160|112:192,1,110,8|0
104,264,147883,5,0
192,336,148358,1,0
192,336,148516,2,0,B|248:304|312:344,1,110
344,280,149150,2,0,B|384:224|336:160,1,110,8|0
296,120,149783,1,0
184,120,150259,1,0
184,120,150417,6,0,B|136:176|192:240,2,110,0|0|8
256,88,151367,1,0
328,120,151684,2,0,B|376:200|320:288,1,165
326,276,152951,1,8
256,312,153268,1,0
176,312,153585,2,0,B|56:256|72:112,1,220
120,72,154535,1,0
184,112,154852,1,8
336,88,155486,6,0,B|464:88,2,110,0|0|8
336,88,157386,2,0,B|352:160,3,55
312,136,158020,2,0,B|312:208,3,55
280,184,158654,2,0,B|264:256,3,55,8|0|0|0
232,248,159287,5,4
120,192,159762,1,0
120,192,159921,2,0,B|88:248|128:312,2,110,0|0|8
48,168,160871,1,0
32,240,161188,1,0
184,240,161821,6,0,B|216:192|176:120,1,110
264,48,162455,1,8
384,64,162772,2,0,B|400:120|384:184,2,110,0|0|0
264,48,163722,1,0
240,160,164039,2,0,B|272:208|280:272,2,110,0|8|0
120,168,164989,1,0
64,272,165465,5,0
64,272,165623,2,0,B|112:280|176:336,2,110,0|0|8
24,208,166573,1,0
64,144,166890,2,0,B|240:144,1,165,4|0
264,144,167524,1,0
344,144,167840,2,0,B|376:208|336:272,2,110,0|8|0
344,144,168791,1,0
160,152,169424,6,0,B|136:216|168:272,2,110,0|8|0
256,88,171167,1,0
256,88,171325,2,0,B|312:64|376:96,2,110,0|0|8
256,88,172592,6,0,B|272:152,3,55,0|0|0|8
232,136,173226,2,0,B|232:216,3,55
200,176,173859,2,0,B|176:240,3,55,12|0|0|0
144,248,174493,5,4
40,200,174968,1,0
40,200,175127,2,0,B|8:256|48:320,1,110
104,344,175760,6,0,B|160:376|232:336,2,110,8|0|0
64,280,177344,1,0
32,128,177661,6,0,B|56:104|152:64,1,110,8|0
216,160,178295,1,0
240,280,178611,2,0,B|272:304|368:320,2,110,0|0|0
184,176,179562,1,8
232,64,179878,2,0,B|272:48|352:64,1,110
416,224,180670,1,0
416,224,180829,1,0
416,144,181146,5,0
360,96,181462,2,0,B|304:72|248:96,1,110,8|0
200,152,182096,2,0,B|176:208|200:264,1,110,4|0
344,216,183363,1,8
344,64,183997,1,0
232,64,184472,1,0
232,64,184630,6,0,B|200:56|152:72|112:64,2,110,0|0|8
384,104,185898,2,0,B|416:184|376:272,1,165,4|0
344,280,186531,1,0
272,256,186848,1,0
232,320,187165,2,0,B|168:288|192:200,1,110,8|0
112,208,187798,6,0,B|104:144|168:104,1,110
184,96,188273,1,0
224,104,188432,1,8
264,168,188749,1,0
304,168,188907,1,0
344,168,189065,2,0,B|376:176|424:160|464:168,2,110,8|0|0
256,192,203955,12,4,204905
56,80,205855,5,0
128,96,206172,1,8
192,56,206489,1,0
272,48,206806,2,0,B|360:40|440:88,1,165
430,82,207439,1,0
430,82,207756,1,0
488,200,208073,5,8
424,160,208390,1,0
360,200,208706,2,0,B|280:232|184:240,1,165
200,238,209340,1,0
200,238,209657,1,0
48,272,209974,5,8
96,336,210290,1,0
176,336,210607,2,0,B|240:344|352:296,1,165
335,302,211241,1,0
335,302,211557,1,0
448,192,211874,5,8
416,120,212191,1,0
344,88,212508,2,0,B|288:56|160:48,1,165,4|0
184,49,213141,1,0
112,80,213458,2,0,B|96:144|144:192,2,110,0|8|0
232,136,214409,6,0,B|320:152|384:232,1,165
371,218,215042,1,0
400,288,215359,2,0,B|360:336|280:344,2,110,0|8|0
264,248,216309,6,0,B|176:248|104:200,1,165
107,202,216943,1,0
72,136,217260,2,0,B|96:80|160:64,2,110,0|8|0
200,152,218210,6,0,B|224:144|288:160|336:152,1,110
328,152,218685,1,8
344,152,218844,1,0
360,152,219002,1,0
376,152,219160,1,0
392,152,219319,1,0
408,152,219477,1,8
472,192,219794,1,0
472,272,220111,6,0,B|408:336|296:320,1,165,2|2
280,312,221378,1,0
240,320,221695,1,0
200,328,222012,6,0,B|165:326|128:312,1,55,2|0
40,248,222645,2,0,B|80:248|120:272,1,55,0|0
184,208,223279,2,0,B|152:208|112:184,1,55
40,112,223912,6,0,B|79:109|232:128,1,165,2|0
240,128,225179,1,0
280,136,225496,1,0
320,128,225813,1,2
360,120,226130,2,0,B|400:104|432:128,2,55,0|0|2
360,160,227080,6,0,B|360:296,1,110,0|2
256,328,228664,1,0
256,328,228981,1,0
200,272,229615,2,0,B|176:216|200:160,2,110,2|0|0
256,320,231515,6,0,B|304:312|416:328|488:320,1,220,2|0
504,248,233416,5,2
464,168,234050,1,0
376,96,234683,1,0
256,64,235317,1,2
104,72,236584,5,0
104,72,237217,5,2
88,104,237534,1,0
72,144,237851,1,0
88,184,238168,1,0
112,216,238485,2,0,B|88:288,2,55,0|0|2
216,232,239752,6,0,B|248:248|312:312,1,110
400,248,241019,2,0,B|392:208|328:152,1,110,2|0
432,56,242286,2,0,B|456:88|472:168,1,110,0|2
448,320,243870,6,0,B|512:320,2,55,0|0|0
408,320,244820,2,0,B|352:336|272:312,1,110,2|0
248,256,246088,1,0
192,200,246721,2,0,B|248:168|312:208,1,110,2|0
352,256,247988,1,0
272,256,248622,2,0,B|240:200|272:136,1,110,2|0
320,96,249889,6,0,B|256:64|200:104,1,110,0|2
160,152,251156,1,0
136,80,251790,1,0
200,40,252423,1,2
352,40,253691,6,0,B|400:152|344:272,1,220,0|0
256,312,255591,1,0
152,256,256225,2,0,B|160:192|112:136,1,110,2|0
200,40,257492,2,0,B|224:96|304:112,1,110,0|2
376,64,258601,6,0,B|376:152,3,82.5,2|2|2|2
352,264,260660,6,0,B|304:280|224:264,2,110,0|0|2
368,232,262244,1,0
384,200,262561,1,0
368,168,262877,1,2
344,136,263194,6,0,B|224:136,1,110,0|2
200,120,264145,1,0
168,104,264461,1,0
136,120,264778,2,0,B|96:184|144:240,1,110,2|0
128,264,265729,5,2
152,296,266045,1,2
256,240,266362,5,2
320,296,266679,1,2
376,176,266996,5,2
480,160,267312,1,2
344,56,267629,5,4
224,80,268104,1,0
224,80,268263,2,0,B|88:80,2,110,0|0|8
296,104,269213,1,0
296,104,269530,2,0,B|328:160|288:216,1,110
232,256,270164,5,0
256,288,270322,1,0
296,296,270480,1,0
376,296,270797,2,0,B|480:344,2,110,8|0|0
352,224,271748,5,0
320,208,271906,1,0
288,192,272064,2,0,B|176:136,2,110,0|0|8
352,152,273015,2,0,B|456:208,2,110
336,144,273807,5,8
320,136,273965,1,0
304,128,274123,1,0
288,120,274282,1,0
272,112,274440,1,0
256,104,274599,2,8,B|192:72,3,55,8|8|0|0
192,72,275232,6,0,B|136:40|72:80,1,110,4|0
160,152,275866,2,0,B|216:184|280:144,1,110
272,256,276499,2,0,B|328:224|400:272,1,110,8|0
472,176,277133,6,0,B|392:120|304:176,1,165
288,192,277767,2,0,B|224:216|168:184,1,110
64,104,278400,5,8
40,176,278717,1,0
80,240,279034,2,0,B|160:200|256:248,1,165
272,256,279667,2,0,B|336:280|400:248,1,110
480,144,280301,5,8
368,24,280934,2,0,B|416:80,3,55,0|0|0|8
368,72,281568,2,0,B|392:144,3,55
344,120,282202,2,0,B|344:184,3,55,8|0|0|0
312,160,282835,6,0,B|256:320,1,165,4|0
257,315,283469,1,0
257,315,283786,1,0
120,312,284102,6,0,B|160:208,1,110,8|0
159,209,284578,1,0
159,209,284736,1,0
192,136,285053,1,0
192,136,285211,1,0
192,136,285370,6,0,B|232:24,2,110,0|0|8
192,136,286320,1,0
160,208,286637,6,0,B|120:320,1,110
56,200,287270,2,0,B|96:144|64:80,1,110
184,48,287904,2,0,B|216:96|288:104,1,110,8|0
408,96,288537,2,0,B|368:152|416:224,1,110
402,200,289013,1,0
402,200,289171,1,0
352,312,289488,6,0,B|320:256|240:240,1,110,0|8
200,216,290121,1,0
128,248,290438,2,0,B|152:128|72:32,1,220
192,24,291389,5,0
280,96,291705,2,0,B|224:128|208:208,2,110,8|0|0
384,136,292656,1,0
416,240,292972,2,0,B|352:216|288:264,2,110,0|0|8
408,352,293923,1,0
416,240,294240,5,4
336,248,294556,1,0
336,248,294715,1,0
336,248,294873,1,0
264,280,295190,1,0
192,312,295507,2,0,B|136:328|80:312,1,110,4|0
83,312,296140,6,0,B|32:264,3,55,0|0|0|8
80,272,296774,2,0,B|48:200,3,55,0|0|0|0
96,232,297408,2,0,B|96:168,3,55,12|0|0|0
128,192,298041,5,4
208,192,298358,1,0
216,152,298516,1,0
208,112,298675,2,0,B|184:72|104:32,2,110,0|0|8
272,72,299625,1,0
272,72,299783,1,0
272,72,299942,6,0,B|312:120|304:184,2,110
384,32,300892,1,0
472,112,301209,2,0,B|480:176|416:216,2,110,8|0|0
384,32,302159,1,0
344,40,302318,1,0
304,56,302476,2,0,B|240:88|240:176,2,110,0|0|8
360,160,303427,1,0
376,280,303743,6,0,B|344:272|288:288|232:280,1,110,4|0
264,240,304219,2,0,B|208:216|144:248,1,110,8|0
128,264,304694,1,0
96,280,304852,1,0
64,296,305010,2,0,B|32:248|64:176,2,110,8|0|4
200,328,305961,6,0,B|240:280|256:208,2,110
152,264,306911,1,8
184,192,307228,1,0
160,160,307386,1,0
128,136,307545,1,0
128,56,307862,2,0,B|184:48|240:88,2,110
56,88,308812,1,8
56,88,309129,2,0,B|32:152|64:216,2,110
56,88,309921,1,0
56,88,310079,1,0
120,48,310396,1,0
200,40,310713,6,0,B|344:16|392:136,1,220,4|0
424,128,311505,1,0
416,168,311663,1,0
408,208,311821,1,8
440,232,311980,5,0
408,256,312138,1,0
376,272,312297,1,0
344,288,312455,1,0
336,328,312613,5,8
312,304,312772,1,0
280,280,312930,1,0
256,256,313089,1,0
216,272,313247,6,0,B|184:216|224:144,1,110,4|0
213,166,313722,1,0
213,166,313881,1,0
280,128,314197,1,0
344,88,314514,6,0,B|312:56|232:24,2,110,8|0|0
424,88,315465,1,0
440,120,315623,1,0
472,144,315781,2,0,B|464:184|432:248,2,110,0|0|8
352,144,316732,5,0
248,192,317049,6,0,B|280:224|288:312,1,110,4|0
168,280,317682,2,0,B|136:232|136:144,1,110,0|0
96,64,318316,2,0,B|56:88|32:168,1,110,8|0
96,264,318949,2,0,B|136:264|208:216,1,110
280,136,319424,6,0,B|336:168,5,55,8|0|0|0|0|12
392,200,320533,1,0
464,240,320850,1,4
368,336,321167,5,0
368,336,321325,1,0
368,336,321484,2,0,B|256:336,1,110
184,336,322117,1,8
184,336,322434,1,0
184,336,322751,2,0,B|112:240|192:112,1,220,4|0
256,104,323701,1,0
256,104,324018,1,8
456,136,324651,6,0,B|344:136,1,110
346,136,325127,1,0
346,136,325285,1,0
280,168,325602,1,0
208,200,325919,2,0,B|88:200,1,110,8|0
98,200,326552,1,0
56,264,326869,5,0
56,264,327027,1,0
56,264,327186,2,0,B|184:264,1,110
232,304,327819,1,8
304,344,328136,1,0
304,344,328295,1,0
304,344,328453,2,0,B|432:344,1,110
448,328,328928,1,0
472,296,329087,2,0,B|496:232|472:184,1,110
432,128,329720,1,8
432,128,330037,1,0
360,96,330354,6,0,B|336:88|288:104|240:96,1,110,4|0
232,96,330829,1,8
216,96,330987,1,0
200,96,331146,1,0
184,96,331304,1,0
168,96,331462,1,0
152,96,331621,1,8
72,96,331938,1,0
72,96,332254,5,2
48,208,333205,6,0,B|112:208,3,55,0|0|0|2
248,264,335422,5,0
288,256,335739,1,0
328,264,336056,1,2
424,328,337006,6,0,B|488:328,3,55,0|0|0|2
416,184,339224,6,0,B|392:160|344:160,1,55
328,160,339857,1,2
176,160,341125,6,0,B|144:160|112:184,1,55
96,200,341755,1,2
208,304,343045,6,0,B|240:296|272:272,1,55,0|0
288,264,343690,1,2
336,72,345712,5,2
256,192,346106,12,2,348080
