osu file format v13

[General]
AudioFilename: 05 -Opening size-.mp3
AudioLeadIn: 1500
PreviewTime: 62985
Countdown: 0
SampleSet: Soft
StackLeniency: 0.5
Mode: 0
LetterboxInBreaks: 0
WidescreenStoryboard: 1

[Editor]
DistanceSpacing: 0.9
BeatDivisor: 4
GridSize: 4
TimelineZoom: 1

[Metadata]
Title:Senkou no Yukue -Opening size-
TitleUnicode:閃光の行方 -Opening size-
Artist:Kotera Kanako
ArtistUnicode:小寺可南子
Creator:jonathanlfj
Version:Nightmare
Source:THE LEGEND OF HEROES: SEN NO KISEKI II
Tags:英雄伝説 閃の軌跡 閃の軌跡2 two trails of flash falcom sound team jdk rpg game opening sjoy Raose Project_Railgun
BeatmapID:509442
BeatmapSetID:217172

[Difficulty]
HPDrainRate:7
CircleSize:4
OverallDifficulty:8
ApproachRate:9
SliderMultiplier:1.9
SliderTickRate:1

[Events]
//Background and Video events
0,0,"weeee.jpg",0,0
Video,-430,"video.avi"
//Break Periods
//Storyboard Layer 0 (Background)
//Storyboard Layer 1 (Fail)
//Storyboard Layer 2 (Pass)
//Storyboard Layer 3 (Foreground)
//Storyboard Sound Samples
//Background Colour Transformations
3,100,163,162,255

[TimingPoints]
585,342.857142857143,4,2,1,50,1,0
585,-125,4,2,1,50,0,0
4699,-125,4,2,1,35,0,0
5385,-125,4,2,1,60,0,0
5985,-125,4,2,1,5,0,0
6070,-100,4,2,1,70,0,1
6156,-100,4,2,1,70,0,0
14813,-142.857142857143,4,2,1,70,0,0
15327,-100,4,2,1,70,0,0
15842,-142.857142857143,4,2,1,70,0,0
16099,-142.857142857143,4,2,1,5,0,0
16185,-100,4,2,1,70,0,0
17042,-125,4,2,1,50,0,0
28013,-111.111111111111,4,2,1,60,0,0
33499,-100,4,2,1,70,0,0
38985,-100,4,2,1,50,0,0
39499,-100,4,2,1,60,0,0
40013,-100,4,2,1,70,0,0
41727,-125,4,2,1,50,0,0
52356,-125,4,2,1,60,0,0
52699,-100,4,2,1,70,0,0
61442,-142.857142857143,4,2,1,70,0,0
62985,-100,4,2,1,70,0,0
63670,-90.9090909090909,4,2,1,80,0,1
84242,-90.9090909090909,4,2,1,80,0,0
84389,342.857142857143,4,2,1,80,1,0
84389,-90.9090909090909,4,2,1,80,0,0
85613,342.857142857143,4,2,1,80,1,1
85613,-90.9090909090909,4,2,1,80,0,1
107555,-200,4,2,1,80,0,0
110813,-200,4,2,1,40,0,0
111670,-200,4,2,1,60,0,0
112355,-100,4,2,1,80,0,0
113042,343.347639484979,4,2,1,70,1,1
113127,-100,4,2,1,70,0,0
121797,-142.857142857143,4,2,1,70,0,0
122312,-100,4,2,1,70,0,0
122827,-142.857142857143,4,2,1,70,0,0
123084,-142.857142857143,4,2,1,5,0,0
123170,-100,4,2,1,70,0,0
123857,-142.857142857143,4,2,1,70,0,0
124200,-142.857142857143,4,2,1,5,0,0
124372,-100,4,2,1,70,0,0
125402,-100,4,2,1,20,0,0
128149,-100,4,2,1,5,0,0

[Colours]
Combo1 : 153,228,14
Combo2 : 255,128,51
Combo3 : 109,153,254
Combo4 : 238,32,37
Combo5 : 255,200,34

[HitObjects]
108,220,585,6,0,L|96:304,2,76,2|0|0,0:0|0:0|0:0,0:0:0:0:
172,108,1099,2,0,L|160:28,2,76,2|0|0,0:0|0:0|0:0,0:0:0:0:
296,168,1613,1,2,0:0:0:0:
200,268,1785,1,0,0:0:0:0:
264,76,1956,6,0,P|284:32|316:4,1,76,2|0,0:0|0:0,0:0:0:0:
360,96,2299,1,0,0:0:0:0:
148,196,2470,2,0,P|124:156|96:136,1,76,2|0,0:0|0:0,0:0:0:0:
56,224,2813,1,0,0:0:0:0:
288,284,2985,2,0,P|336:276|368:260,1,76,2|0,0:0|0:0,0:0:0:0:
428,28,3327,5,2,0:0:0:0:
360,96,3499,1,0,0:0:0:0:
384,188,3670,2,0,P|408:228|440:260,1,76,0|0,0:0|0:0,0:0:0:0:
268,64,4013,2,0,P|216:56|192:56,1,76,2|0,0:0|0:0,0:0:0:0:
56,224,4356,2,0,P|100:224|148:212,1,76
220,152,4699,5,4,0:0:0:0:
280,228,5042,1,4,0:0:0:0:
340,304,5385,6,0,L|396:284,1,38,8|0,1:0|1:0,0:0:0:0:
280,228,5556,2,0,L|336:208,1,38,8|0,1:0|1:0,0:0:0:0:
220,152,5727,2,2,B|172:168|128:152|128:152|120:128,1,114,8|0,1:2|0:0,0:0:0:0:
176,56,6070,6,0,P|244:52|324:140,1,190,4|8,1:2|0:0,0:0:0:0:
196,308,6585,1,0,0:0:0:0:
196,308,6670,1,8,0:1:0:0:
196,308,6756,1,0,1:0:0:0:
220,152,6927,1,0,1:0:0:0:
308,320,7099,1,8,0:0:0:0:
136,220,7270,6,0,P|116:156|176:56,1,190,4|0,1:2|1:0,0:0:0:0:
320,172,7785,2,0,B|364:184|364:184|412:168|440:120,1,142.5,8|8,0:0|0:1,0:0:0:0:
448,52,8127,1,0,1:0:0:0:
484,228,8299,1,0,1:0:0:0:
332,68,8470,2,0,L|232:60,1,95,8|0,0:0|0:0,0:0:0:0:
72,172,8813,6,0,L|176:156,1,95,4|0,1:2|0:0,0:0:0:0:
108,72,9156,1,8,0:0:0:0:
48,272,9327,1,0,0:0:0:0:
76,268,9413,1,8,0:1:0:0:
104,264,9499,1,0,1:0:0:0:
68,168,9670,1,0,1:0:0:0:
88,364,9842,1,8,0:0:0:0:
256,244,10013,6,0,B|300:220|300:220|332:240|332:240|384:220|436:252,1,190,4|0,1:2|1:0,0:0:0:0:
188,176,10527,2,0,P|148:144|136:48,1,142.5,8|8,0:0|0:1,0:0:0:0:
188,8,10870,1,0,1:0:0:0:
280,152,11042,1,0,1:1:0:0:
152,264,11213,2,0,L|140:368,1,95,8|0,0:0|0:0,0:0:0:0:
68,168,11556,6,0,P|132:144|252:184,1,190,4|8,1:2|0:0,0:0:0:0:
376,328,12070,1,0,0:0:0:0:
376,328,12156,1,8,0:1:0:0:
376,328,12242,2,0,P|324:316|292:292,1,95,0|0,1:0|1:0,0:0:0:0:
248,180,12585,1,8,0:0:0:0:
436,112,12756,6,0,B|444:176|444:176|476:228|476:228|484:292,1,190,4|0,1:2|1:0,0:0:0:0:
348,168,13270,2,0,L|336:68,1,95,8|0,0:0|0:0,0:0:0:0:
276,32,13527,2,0,L|224:28,1,47.5,8|0,0:1|1:0,0:0:0:0:
432,108,13785,1,0,1:0:0:0:
244,136,13956,1,8,1:2:0:0:
208,132,14042,1,8,1:2:0:0:
172,128,14127,1,8,1:2:0:0:
108,36,14299,5,10,1:2:0:0:
192,240,14470,1,8,1:2:0:0:
48,120,14642,1,0,1:2:0:0:
308,100,14813,2,0,L|448:112,1,132.999995941162,4|0,1:2|1:0,0:0:0:0:
192,240,15327,5,10,1:2:0:0:
388,196,15499,1,8,1:2:0:0:
228,32,15670,1,0,1:0:0:0:
296,272,15842,2,0,P|304:328|296:380,1,99.7499969558717,4|0,1:2|0:0,0:0:0:0:
298,370,16185,5,2,1:2:0:0:
148,160,16356,1,4,1:2:0:0:
192,324,16527,1,0,0:0:0:0:
272,196,16699,1,4,1:2:0:0:
392,276,16870,1,0,1:0:0:0:
392,276,16956,1,0,1:0:0:0:
392,276,17042,6,0,L|496:268,1,76,4|0,1:0|0:0,0:0:0:0:
272,196,17385,2,0,L|192:204,1,76,0|0,1:0|0:0,0:0:0:0:
340,124,17727,1,0,1:0:0:0:
340,124,17899,1,0,0:0:0:0:
464,224,18070,2,0,P|476:268|472:312,1,76,0|0,1:0|0:0,0:0:0:0:
272,196,18413,6,0,P|248:160|240:124,1,76,0|0,1:0|0:0,0:0:0:0:
284,40,18756,1,2,1:2:0:0:
384,36,18927,1,0,0:0:0:0:
368,216,19099,2,0,P|340:264|316:284,2,76,0|0|0,1:0|0:0|1:0,0:0:0:0:
180,148,19613,1,0,0:0:0:0:
180,148,19699,1,0,0:0:0:0:
180,148,19785,6,0,P|172:196|176:228,1,76,2|0,1:2|0:0,0:0:0:0:
88,272,20127,2,0,P|120:304|156:320,1,76,0|0,1:0|0:0,0:0:0:0:
244,292,20470,1,0,1:0:0:0:
272,196,20642,1,0,0:0:0:0:
184,52,20813,2,0,P|144:60|108:80,1,76,0|0,1:0|0:0,0:0:0:0:
272,100,21156,5,0,1:0:0:0:
352,44,21327,1,2,0:0:0:0:
312,188,21499,1,0,1:0:0:0:
408,176,21670,1,2,0:0:0:0:
304,288,21842,2,0,B|264:276|212:284|212:284|192:312,1,114,0|0,1:0|0:0,0:0:0:0:
199,301,22185,1,0,1:0:0:0:
372,364,22356,1,0,0:0:0:0:
388,340,22442,1,0,0:0:0:0:
404,316,22527,6,0,L|412:240,1,76,2|0,1:2|0:0,0:0:0:0:
464,88,22870,2,0,L|476:172,1,76,0|0,1:0|0:0,0:0:0:0:
308,268,23213,1,0,1:0:0:0:
308,268,23385,1,0,0:0:0:0:
340,176,23556,2,0,L|328:84,1,76,0|0,1:0|0:0,0:0:0:0:
168,192,23899,6,0,P|220:200|252:196,1,76,2|0,1:2|0:0,0:0:0:0:
116,104,24242,1,0,1:0:0:0:
64,188,24413,1,0,0:0:0:0:
216,104,24585,1,2,1:2:0:0:
168,20,24756,1,0,0:0:0:0:
168,192,24927,2,0,B|172:232|172:232|192:276,1,76,0|0,1:0|0:0,0:0:0:0:
200,292,25185,1,0,0:0:0:0:
216,316,25270,6,0,P|252:344|368:328,2,152,2|0|0,1:2|1:0|1:0,0:0:0:0:
400,252,26127,1,0,0:0:0:0:
192,164,26299,2,0,L|108:176,1,76,0|0,1:0|0:0,0:0:0:0:
300,256,26642,6,0,P|324:176|312:88,1,152,2|0,1:2|1:0,0:0:0:0:
252,36,27156,1,0,0:0:0:0:
88,160,27327,1,2,1:2:0:0:
208,140,27499,1,8,0:0:0:0:
132,48,27670,1,0,1:0:0:0:
80,180,27842,1,0,1:0:0:0:
72,200,27927,1,0,1:0:0:0:
64,220,28013,6,0,L|80:312,1,85.4999973907472,4|0,1:2|0:0,0:0:0:0:
204,332,28356,2,0,L|168:244,1,85.4999973907472,0|0,1:0|0:0,0:0:0:0:
276,256,28699,1,0,1:0:0:0:
356,320,28870,1,0,0:0:0:0:
456,292,29042,2,0,P|472:256|476:200,1,85.4999973907472,0|0,1:0|0:0,0:0:0:0:
372,140,29385,6,0,P|368:200|380:240,1,85.4999973907472,0|0,1:0|0:0,0:0:0:0:
452,76,29727,1,2,1:2:0:0:
452,76,29899,1,0,0:0:0:0:
288,80,30070,2,0,P|272:128|276:176,1,85.4999973907472,0|0,1:0|0:0,0:0:0:0:
208,328,30413,2,0,P|216:272|212:228,1,85.4999973907472,0|0,1:0|0:0,0:0:0:0:
168,184,30670,1,0,0:0:0:0:
168,184,30756,6,0,B|128:188|128:188|80:176,1,85.4999973907472,2|0,1:2|0:0,0:0:0:0:
188,88,31099,2,0,B|148:72|148:72|112:40,1,85.4999973907472,0|0,1:0|0:0,0:0:0:0:
288,80,31442,1,0,1:0:0:0:
332,172,31613,1,0,0:0:0:0:
256,244,31785,2,0,B|248:284|248:284|256:336,1,85.4999973907472,0|0,1:0|0:0,0:0:0:0:
348,284,32127,6,0,P|372:288|448:284,1,85.4999973907472,0|2,1:0|0:0,0:0:0:0:
168,184,32470,2,0,P|144:180|68:184,1,85.4999973907472,0|2,1:0|0:0,0:0:0:0:
252,240,32813,1,0,1:0:0:0:
188,88,32985,1,0,1:0:0:0:
120,280,33156,2,0,L|112:384,1,85.4999973907472,8|0,1:2|0:0,0:0:0:0:
352,284,33499,6,0,P|360:220|348:184,1,95,4|0,1:2|0:0,0:0:0:0:
192,40,33842,2,0,P|184:112|204:188,1,142.5,8|8,0:0|0:1,0:0:0:0:
252,240,34185,1,0,1:0:0:0:
100,164,34356,1,0,1:0:0:0:
304,108,34527,2,0,P|356:104|404:112,1,95,8|0,0:0|0:0,0:0:0:0:
252,240,34870,6,0,B|180:208|112:244|112:244|100:288,1,190,2|8,1:2|0:0,0:0:0:0:
296,324,35385,1,0,0:0:0:0:
296,324,35470,1,8,0:1:0:0:
296,324,35556,1,0,1:0:0:0:
436,188,35727,1,0,1:0:0:0:
392,344,35899,1,8,0:0:0:0:
360,132,36070,2,0,L|368:80,1,47.5
412,24,36242,6,0,L|396:128,1,95,4|0,1:2|0:0,0:0:0:0:
472,300,36585,2,0,P|408:256|336:272,1,142.5,8|8,0:0|0:1,0:0:0:0:
296,324,36927,2,0,L|200:320,1,95,0|0,1:0|1:0,0:0:0:0:
240,88,37270,2,0,P|280:120|296:160,1,95,8|0,0:0|0:0,0:0:0:0:
104,364,37613,6,0,P|96:312|108:268,1,95,2|0,1:2|0:0,0:0:0:0:
188,192,37956,1,8,0:0:0:0:
296,324,38127,1,0,0:0:0:0:
264,324,38213,1,8,0:1:0:0:
232,324,38299,1,0,1:0:0:0:
344,240,38470,1,0,0:0:0:0:
188,192,38642,2,0,P|176:136|184:92,1,95,12|0,0:0|0:0,0:0:0:0:
272,32,38985,5,4,1:2:0:0:
344,240,39156,1,8,1:1:0:0:
181,99,39499,5,4,1:2:0:0:
432,184,39670,1,8,1:0:0:0:
112,188,40013,5,4,1:2:0:0:
436,80,40185,1,8,1:0:0:0:
436,80,40527,5,0,1:0:0:0:
432,184,40699,1,8,1:2:0:0:
344,240,40870,1,0,1:0:0:0:
244,212,41042,5,8,1:3:0:0:
432,184,41213,1,8,1:0:0:0:
352,16,41385,1,8,1:0:0:0:
344,240,41556,1,8,1:0:0:0:
160,140,41727,6,0,P|224:108|312:128,1,152,4|0,1:2|0:0,0:0:0:0:
244,212,42242,1,2,1:2:0:0:
84,216,42413,2,0,P|56:156|84:64,1,152,8|0,0:0|0:0,0:0:0:0:
160,140,42927,1,0,1:0:0:0:
164,280,43099,5,2,1:2:0:0:
244,212,43270,2,0,L|324:208,1,76,8|0,0:0|0:0,0:0:0:0:
160,284,43613,1,2,1:2:0:0:
308,160,43785,2,0,B|420:152|420:152|452:176,1,152,8|0,0:0|0:0,0:0:0:0:
388,252,44299,1,0,1:0:0:0:
208,196,44470,6,0,P|140:188|72:236,1,152,2|0,1:2|0:0,0:0:0:0:
160,284,44985,1,0,1:0:0:0:
308,160,45156,2,0,L|320:80,1,76,8|0,0:0|0:0,0:0:0:0:
284,260,45499,2,0,L|296:344,1,76,0|0,0:0|1:0,0:0:0:0:
208,196,45842,5,2,1:2:0:0:
224,96,46013,1,8,0:0:0:0:
112,228,46185,2,0,L|120:312,1,76,0|0,0:0|1:0,0:0:0:0:
296,356,46527,2,0,P|312:308|308:204,1,152,8|0,0:0|0:0,0:0:0:0:
256,124,47042,1,0,1:0:0:0:
416,204,47213,6,0,B|436:220|436:220|460:76,1,152,4|0,1:2|0:0,0:0:0:0:
360,120,47727,1,0,1:0:0:0:
336,264,47899,2,0,P|336:304|344:344,1,76,8|0,0:0|0:0,0:0:0:0:
412,200,48242,1,0,0:0:0:0:
412,200,48413,1,0,1:0:0:0:
280,180,48585,5,2,1:2:0:0:
460,112,48756,2,0,L|476:32,1,76,8|0,0:0|0:0,0:0:0:0:
416,204,49099,1,0,1:0:0:0:
360,120,49270,2,0,P|308:88|212:104,1,152,8|0,0:0|0:0,0:0:0:0:
280,180,49785,1,0,1:0:0:0:
336,260,49956,6,0,P|292:276|244:272,2,76,2|0|0,1:2|0:0|0:0,0:0:0:0:
184,216,50470,2,0,P|136:212|96:220,1,76,0|8,1:0|0:0,0:0:0:0:
280,180,50813,2,0,P|280:128|264:88,1,76
196,44,51156,1,0,1:0:0:0:
188,212,51327,5,2,1:2:0:0:
104,156,51499,2,0,L|100:76,1,76,8|0,0:0|0:0,0:0:0:0:
28,220,51842,1,0,1:0:0:0:
20,240,51927,1,0,1:0:0:0:
12,260,52013,2,0,L|8:344,1,76,12|0,1:2|0:0,0:0:0:0:
160,360,52356,1,0,1:0:0:0:
196,356,52442,1,8,1:2:0:0:
232,340,52527,1,8,1:2:0:0:
256,312,52613,1,8,1:2:0:0:
268,272,52699,6,0,B|304:232|360:236|360:236|392:208|392:208|444:224,1,190,4|8,1:2|0:0,0:0:0:0:
344,336,53213,1,0,0:0:0:0:
344,336,53299,1,8,1:0:0:0:
344,336,53385,1,0,1:0:0:0:
320,144,53556,1,0,1:0:0:0:
180,236,53727,2,0,P|112:228|84:216,1,95,8|0,0:0|0:0,0:0:0:0:
168,60,54070,6,0,P|208:52|264:60,1,95,2|0,1:2|0:0,0:0:0:0:
452,140,54413,2,0,B|428:160|428:160|372:172|320:144,1,142.5,8|8,0:0|0:1,0:0:0:0:
320,144,54756,1,2,1:2:0:0:
456,40,54927,1,0,1:0:0:0:
388,212,55099,2,0,B|384:260|384:260|404:308,1,95,8|0,0:0|0:0,0:0:0:0:
248,212,55442,6,0,P|204:200|148:208,1,95,4|0,1:2|1:0,0:0:0:0:
320,144,55785,2,0,P|368:120|460:148,1,142.5,8|0,0:0|0:0,0:0:0:0:
492,204,56127,1,0,1:0:0:0:
456,40,56299,1,0,1:0:0:0:
388,212,56470,1,8,0:0:0:0:
220,112,56642,6,0,B|144:104|144:104|96:120|96:120|32:112,1,190,4|0,1:2|1:0,0:0:0:0:
160,204,57156,2,0,P|216:216|304:184,1,142.5,8|8,0:0|0:1,0:0:0:0:
336,128,57499,1,2,1:2:0:0:
280,296,57670,1,0,1:0:0:0:
220,112,57842,1,8,0:0:0:0:
392,224,58013,1,0,0:0:0:0:
288,36,58185,6,0,P|216:12|120:76,1,190,4|8,1:2|0:0,0:0:0:0:
124,240,58699,1,0,0:0:0:0:
124,240,58785,1,8,0:1:0:0:
124,240,58870,1,0,1:0:0:0:
220,112,59042,1,0,1:0:0:0:
64,152,59213,1,8,0:0:0:0:
228,264,59385,1,0,0:0:0:0:
64,316,59556,6,0,B|32:284|32:284|8:208|64:152,1,190,2|8,1:2|0:0,0:0:0:0:
248,280,60070,1,0,0:0:0:0:
268,296,60156,1,8,0:1:0:0:
288,312,60242,2,0,L|392:324,1,95,0|0,1:0|1:0,0:0:0:0:
324,212,60585,1,12,0:0:0:0:
324,212,60756,1,0,0:0:0:0:
176,180,60927,5,8,1:2:0:0:
356,104,61099,1,8,1:2:0:0:
156,56,61270,1,8,1:2:0:0:
248,280,61442,5,8,1:2:0:0:
324,212,61785,1,10,1:2:0:0:
400,144,62127,2,0,B|424:48|424:48|432:84,1,132.999995941162,4|0,1:2|1:0,0:0:0:0:
456,264,62642,1,8,1:2:0:0:
456,264,62985,5,0,1:0:0:0:
412,276,63070,1,8,1:2:0:0:
364,272,63156,1,8,1:2:0:0:
324,248,63242,1,8,1:2:0:0:
292,212,63327,1,8,1:2:0:0:
248,196,63413,1,8,1:2:0:0:
200,196,63499,1,8,1:2:0:0:
160,220,63585,1,8,1:2:0:0:
132,260,63670,6,0,L|112:152,1,104.500003189087,6|0,1:0|0:0,0:0:0:0:
358,24,64013,2,0,P|398:90|396:168,1,156.750004783631,8|8,0:0|0:1,0:0:0:0:
340,220,64356,1,0,1:0:0:0:
212,64,64527,1,0,1:0:0:0:
420,84,64699,2,0,P|472:76|520:48,1,104.500003189087,8|0,0:0|0:0,0:0:0:0:
464,328,65042,6,0,B|420:300|420:300|360:292,1,104.500003189087,2|0,1:2|0:0,0:0:0:0:
88,340,65385,2,0,B|136:360|136:360|248:344,1,156.750004783631,8|8,0:0|0:1,0:0:0:0:
288,280,65727,2,0,P|296:216|292:172,1,104.500003189087,0|0,1:0|1:0,0:0:0:0:
132,40,66070,2,0,P|124:112|128:152,1,104.500003189087,8|0,0:0|0:0,0:0:0:0:
392,256,66413,6,0,B|408:184|384:112|384:112|408:84|412:52,1,209.000006378174,2|8,1:2|0:0,0:0:0:0:
220,200,66927,1,0,0:0:0:0:
220,200,67013,1,8,0:1:0:0:
220,200,67099,1,0,1:0:0:0:
304,32,67270,1,0,1:0:0:0:
104,80,67442,2,0,P|160:96|216:88,1,104.500003189087,8|0,0:0|0:0,0:0:0:0:
448,140,67785,6,0,P|408:128|340:136,1,104.500003189087,2|0,1:2|0:0,0:0:0:0:
252,364,68127,2,0,P|276:300|268:212,1,156.750004783631,8|8,0:0|0:1,0:0:0:0:
224,148,68470,1,0,1:0:0:0:
168,280,68642,1,0,1:0:0:0:
360,232,68813,1,8,0:0:0:0:
264,56,68985,1,0,0:0:0:0:
108,192,69156,6,0,L|0:184,1,104.500003189087,4|0,1:2|0:0,0:0:0:0:
168,280,69499,2,0,P|224:256|320:272,1,156.750004783631,8|8,0:0|0:1,0:0:0:0:
316,270,69842,1,0,1:0:0:0:
224,148,70013,1,0,1:0:0:0:
368,64,70185,2,0,L|476:72,1,104.500003189087,8|0,0:0|0:0,0:0:0:0:
424,292,70527,6,0,P|404:248|392:184,1,104.500003189087,2|0,1:2|0:0,0:0:0:0:
264,56,70870,2,0,P|280:132|256:212,1,156.750004783631,8|8,0:0|0:1,0:0:0:0:
196,256,71213,2,0,P|256:256|308:284,1,104.500003189087,0|0,1:0|1:0,0:0:0:0:
68,336,71556,2,0,L|48:212,1,104.500003189087,8|0,0:0|0:0,0:0:0:0:
136,56,71899,6,0,B|188:76|188:76|232:60|232:60|280:80|336:68,1,209.000006378174,2|8,1:2|0:0,0:0:0:0:
236,176,72413,1,0,0:0:0:0:
236,176,72499,1,8,0:1:0:0:
236,176,72585,2,0,B|224:228|224:228|236:280,1,104.500003189087,0|0,1:0|1:0,0:0:0:0:
432,224,72927,2,0,B|444:172|444:172|432:116,1,104.500003189087,8|0,0:0|0:0,0:0:0:0:
296,36,73270,5,2,1:2:0:0:
336,172,73442,1,0,0:0:0:0:
236,276,73613,2,0,P|176:256|136:168,1,156.750004783631,8|8,0:0|0:1,0:0:0:0:
156,104,73956,1,0,1:0:0:0:
320,256,74127,1,0,1:0:0:0:
380,56,74299,1,8,0:0:0:0:
236,176,74470,1,0,0:0:0:0:
408,312,74642,6,0,P|420:256|408:204,1,104.500003189087,4|0,1:2|0:0,0:0:0:0:
236,276,74985,2,0,B|176:264|120:288|120:288|92:252,1,156.750004783631,8|8,0:0|0:1,0:0:0:0:
56,188,75327,2,0,P|48:144|56:84,1,104.500003189087,0|0,1:0|1:0,0:0:0:0:
328,116,75670,2,0,P|336:152|332:224,1,104.500003189087,8|0,0:0|0:0,0:0:0:0:
64,320,76013,6,0,P|104:284|168:268,1,104.500003189087,2|0,1:2|0:0,0:0:0:0:
432,336,76356,2,0,B|384:376|324:360|324:360|300:320,1,156.750004783631,8|8,0:0|0:1,0:0:0:0:
268,256,76699,1,0,1:0:0:0:
328,116,76870,1,0,1:0:0:0:
468,228,77042,2,0,L|356:212,1,104.500003189087,8|0,0:0|0:0,0:0:0:0:
240,56,77385,6,0,P|308:16|424:76,1,209.000006378174,2|8,1:2|0:0,0:0:0:0:
232,160,77899,1,0,0:0:0:0:
232,160,77985,1,8,0:1:0:0:
232,160,78070,2,0,P|176:144|144:108,1,104.500003189087,0|0,1:0|1:0,0:0:0:0:
80,148,78327,2,0,L|24:144,1,52.2500015945435,0|8,0:0|0:0,0:0:0:0:
144,8,78585,1,0,0:0:0:0:
328,116,78756,6,0,P|332:172|316:224,1,104.500003189087,2|0,1:2|0:0,0:0:0:0:
60,276,79099,2,0,P|128:256|220:272,1,156.750004783631,8|8,0:0|0:1,0:0:0:0:
272,320,79442,1,0,1:0:0:0:
232,160,79613,1,0,1:0:0:0:
412,180,79785,2,0,P|392:248|360:284,1,104.500003189087,8|0,0:0|0:0,0:0:0:0:
172,72,80127,6,0,B|220:48|272:64|272:64|324:80|376:60,1,209.000006378174,4|8,1:2|0:0,0:0:0:0:
232,160,80642,1,0,0:0:0:0:
208,200,80727,1,8,0:1:0:0:
200,247,80813,2,0,P|208:295|238:343,1,104.500003189087,0|0,1:0|1:0,0:0:0:0:
308,372,81070,1,0,0:0:0:0:
308,372,81156,2,0,L|420:364,1,104.500003189087,8|0,0:0|0:0,0:0:0:0:
304,240,81499,6,0,B|244:216|244:216|176:256|100:236,1,209.000006378174,2|8,1:2|0:0,0:0:0:0:
248,65,82013,1,0,0:0:0:0:
290,87,82099,1,8,0:1:0:0:
336,96,82185,2,0,P|392:88|444:60,1,104.500003189087,0|0,1:0|1:0,0:0:0:0:
500,104,82442,1,0,0:0:0:0:
500,104,82527,2,0,P|508:156|500:212,1,104.500003189087,8|0,0:0|0:0,0:0:0:0:
324,324,82870,6,0,P|244:296|120:328,1,209.000006378174,4|8,1:2|0:0,0:0:0:0:
324,200,83385,1,0,0:0:0:0:
324,200,83470,1,8,0:1:0:0:
324,200,83556,2,0,L|336:96,1,104.500003189087,0|0,1:0|1:0,0:0:0:0:
148,204,83899,2,0,L|156:316,1,104.500003189087,8|0,0:0|0:0,0:0:0:0:
184,104,84242,5,4,1:2:0:0:
80,128,84389,1,8,0:0:0:0:
52,168,84474,1,8,0:0:0:0:
48,216,84560,1,8,0:0:0:0:
60,260,84645,1,8,0:0:0:0:
92,292,84731,1,0,1:0:0:0:
136,280,84817,1,0,1:0:0:0:
184,284,84902,1,8,1:2:0:0:
228,304,84988,1,8,1:2:0:0:
260,336,85074,6,0,L|328:332,1,52.2500015945435,0|0,1:0|1:0,0:0:0:0:
440,260,85245,2,0,L|384:264,1,52.2500015945435,8|0,1:2|1:0,0:0:0:0:
244,216,85417,2,0,L|308:212,1,52.2500015945435,8|0,1:3|1:0,0:0:0:0:
440,108,85613,6,0,P|388:124|320:120,1,104.500003189087,6|0,1:0|0:0,0:0:0:0:
68,56,85956,2,0,P|152:40|228:60,1,156.750004783631,8|8,0:0|0:1,0:0:0:0:
260,124,86298,2,0,L|268:236,1,104.500003189087,0|0,1:0|1:0,0:0:0:0:
32,324,86641,2,0,L|48:204,1,104.500003189087,8|0,0:0|0:0,0:0:0:0:
236,348,86984,6,0,P|172:364|124:360,1,104.500003189087,2|0,1:2|0:0,0:0:0:0:
336,252,87327,2,0,B|392:228|448:244|448:244|468:196,1,156.750004783631,8|8,0:0|0:1,0:0:0:0:
464,205,87670,1,0,1:0:0:0:
400,360,87841,1,0,1:0:0:0:
232,248,88013,2,0,L|128:240,1,104.500003189087,8|0,0:0|0:0,0:0:0:0:
288,156,88355,6,0,P|280:80|160:16,1,209.000006378174,2|8,1:2|0:0,0:0:0:0:
76,164,88870,1,0,0:0:0:0:
76,164,88955,1,8,0:1:0:0:
76,164,89041,2,0,P|132:160|176:136,1,104.500003189087,0|0,1:0|1:0,0:0:0:0:
356,28,89384,2,0,P|336:88|332:136,1,104.500003189087,8|0,0:0|0:0,0:0:0:0:
324,340,89727,6,0,P|296:284|256:252,1,104.500003189087,2|0,1:2|0:0,0:0:0:0:
32,248,90070,2,0,P|104:252|168:184,1,156.750004783631,8|8,0:0|0:1,0:0:0:0:
164,116,90413,1,0,1:0:0:0:
200,304,90584,1,0,1:0:0:0:
344,188,90755,2,0,P|361:138|364:84,1,104.500003189087,8|0,0:0|0:0,0:0:0:0:
428,256,91098,6,0,P|340:204|236:232,1,209.000006378174,4|8,1:2|0:0,0:0:0:0:
152,376,91613,1,0,0:0:0:0:
152,376,91698,1,8,0:1:0:0:
152,376,91784,1,0,1:0:0:0:
324,340,91955,1,0,1:0:0:0:
152,232,92127,2,0,L|144:128,1,104.500003189087,8|0,0:0|0:0,0:0:0:0:
356,40,92470,6,0,B|364:92|364:92|356:156,1,104.500003189087,2|0,1:2|0:0,0:0:0:0:
248,284,92813,2,0,B|288:252|288:252|404:244,1,156.750004783631,8|8,0:0|0:1,0:0:0:0:
468,268,93155,2,0,P|484:328|476:384,1,104.500003189087,0|0,1:0|1:0,0:0:0:0:
440,136,93498,2,0,P|456:64|476:28,1,104.500003189087,8|0,0:0|0:0,0:0:0:0:
304,176,93841,6,0,B|260:180|260:180|228:156|228:156|160:140|112:184,1,209.000006378174,2|8,1:2|0:0,0:0:0:0:
192,264,94355,1,0,0:0:0:0:
192,264,94441,1,8,0:1:0:0:
192,264,94527,1,0,1:0:0:0:
52,280,94698,1,0,1:0:0:0:
272,336,94870,2,0,P|320:340|380:320,1,104.500003189087,8|0,0:0|0:0,0:0:0:0:
376,124,95213,5,2,1:2:0:0:
312,232,95384,1,0,1:0:0:0:
192,264,95555,2,0,P|140:236|108:188,1,104.500003189087,10|0,0:0|0:0,0:0:0:0:
224,148,95898,1,0,1:0:0:0:
404,248,96070,1,0,1:0:0:0:
296,88,96241,1,10,0:0:0:0:
264,296,96413,1,0,0:0:0:0:
472,348,96584,6,0,P|512:280|480:156,1,209.000006378174,4|8,1:2|0:0,0:0:0:0:
296,88,97098,1,0,0:0:0:0:
296,88,97184,1,8,0:1:0:0:
296,88,97270,2,0,P|284:128|288:200,1,104.500003189087,0|0,1:0|1:0,0:0:0:0:
384,364,97613,2,0,P|384:308|368:260,1,104.500003189087,8|0,0:0|0:0,0:0:0:0:
128,332,97955,6,0,B|180:344|180:344|240:336,1,104.500003189087,2|0,1:2|0:0,0:0:0:0:
416,172,98298,2,0,B|376:156|376:156|320:196|252:184,1,156.750004783631,8|8,0:0|0:1,0:0:0:0:
192,180,98641,2,0,B|144:174|144:174|88:148,1,104.500003189087,0|0,1:0|1:0,0:0:0:0:
380,36,98984,2,0,B|428:42|428:42|484:68,1,104.500003189087,8|0,0:0|0:0,0:0:0:0:
324,272,99327,6,0,B|256:260|256:260|188:284|188:284|116:276,1,209.000006378174,2|8,1:2|0:0,0:0:0:0:
304,168,99841,1,0,0:0:0:0:
312,136,99927,1,8,0:1:0:0:
320,104,100013,1,0,1:0:0:0:
192,180,100184,2,0,L|176:124,1,52.2500015945435,0|0,1:0|0:0,0:0:0:0:
176,52,100355,2,0,L|156:160,1,104.500003189087,8|0,0:0|0:0,0:0:0:0:
72,344,100698,6,0,P|56:316|56:232,1,104.500003189087,2|0,1:2|0:0,0:0:0:0:
244,320,101041,2,0,B|300:324|300:324|352:308,1,104.500003189087,8|0,0:0|0:0,0:0:0:0:
408,260,101298,2,0,L|416:200,1,52.2500015945435,8|0,0:1|1:0,0:0:0:0:
436,336,101555,1,0,1:0:0:0:
292,240,101727,1,8,0:0:0:0:
476,156,101898,1,0,0:0:0:0:
336,340,102070,6,0,B|276:352|276:352|208:304|132:328,1,209.000006378174,4|8,1:2|0:0,0:0:0:0:
72,179,102584,1,0,0:0:0:0:
118,190,102670,1,8,0:1:0:0:
164,188,102755,2,0,P|212:172|252:132,1,104.500003189087,0|0,1:0|1:0,0:0:0:0:
264,56,103013,2,0,L|336:48,1,52.2500015945435,0|8,0:0|0:0,0:0:0:0:
476,156,103270,1,0,0:0:0:0:
348,224,103441,6,0,P|256:208|156:268,1,209.000006378174,4|8,1:2|0:0,0:0:0:0:
383,344,103955,1,0,0:0:0:0:
426,325,104041,1,8,0:1:0:0:
460,292,104127,2,0,P|476:240|472:180,1,104.500003189087,0|0,1:0|1:0,1:0:0:0:
424,128,104384,2,0,L|432:72,1,52.2500015945435,0|8,0:0|0:0,0:0:0:0:
352,228,104641,1,0,0:0:0:0:
212,112,104813,6,0,B|128:88|52:136|52:136|116:160,1,209.000006378174,4|8,1:2|0:0,0:0:0:0:
296,176,105327,1,0,0:0:0:0:
296,176,105413,1,8,0:1:0:0:
296,176,105498,2,0,P|316:120|312:72,1,104.500003189087,0|0,1:0|1:0,0:0:0:0:
196,216,105841,2,0,P|204:280|228:320,1,104.500003189087,8|0,0:0|0:0,0:0:0:0:
468,292,106184,6,0,P|484:240|480:184,1,104.500003189087,0|0,1:0|1:0,0:0:0:0:
420,84,106527,1,10,0:0:0:0:
296,176,106698,1,8,0:0:0:0:
256,176,106784,1,8,0:0:0:0:
216,160,106870,1,8,0:0:0:0:
192,128,106955,1,8,0:0:0:0:
184,88,107041,1,0,1:0:0:0:
196,48,107127,1,0,1:0:0:0:
224,16,107213,1,8,1:3:0:0:
232,24,107298,1,0,1:0:0:0:
240,32,107384,1,8,1:3:0:0:
248,40,107470,1,0,1:0:0:0:
256,48,107555,5,4,1:2:0:0:
256,120,108927,5,4,1:2:0:0:
256,192,110298,6,0,B|268:228|256:260|256:260|244:296|256:332,2,142.5,4|0|0,1:2|0:0|0:0,0:0:0:0:
172,152,111670,1,2,0:0:0:0:
88,192,112013,1,2,0:0:0:0:
88,192,112355,6,0,L|80:244,1,47.5,8|8,0:0|0:0,0:0:0:0:
172,152,112527,2,0,L|168:92,1,47.5,8|8,0:0|0:0,0:0:0:0:
256,192,112698,2,8,L|260:248,1,47.5,8|8,1:2|1:2,1:2:0:0:
328,132,112870,2,8,L|340:76,1,47.5,8|8,1:2|1:2,1:2:0:0:
372,212,113041,6,0,P|424:224|488:208,1,95,4|0,1:2|0:0,0:0:0:0:
316,296,113385,2,0,P|248:272|164:296,1,142.5,8|8,0:0|0:1,0:0:0:0:
136,348,113728,1,0,1:0:0:0:
256,192,113900,1,0,1:0:0:0:
88,192,114072,1,8,0:0:0:0:
244,368,114243,6,0,B|296:352|316:296|316:296|356:308|408:292,1,190,4|0,1:2|1:0,0:0:0:0:
256,192,114758,1,8,0:0:0:0:
368,120,114930,1,0,0:0:0:0:
364,148,115016,1,8,0:1:0:0:
360,176,115102,1,0,1:0:0:0:
280,64,115273,1,0,1:0:0:0:
472,136,115445,2,0,L|488:236,1,95,8|0,0:0|0:0,0:0:0:0:
320,272,115788,6,0,P|248:252|220:256,1,95,4|0,1:2|0:0,0:0:0:0:
140,312,116132,1,8,0:0:0:0:
168,176,116303,1,0,0:0:0:0:
160,148,116389,1,8,0:1:0:0:
152,120,116475,1,0,1:0:0:0:
224,260,116647,1,0,1:0:0:0:
84,228,116818,1,8,0:0:0:0:
268,168,116990,6,0,B|304:100|272:32|272:32|212:16,1,190,4|0,1:2|1:0,0:0:0:0:
4,68,117505,2,0,P|48:116|144:124,1,142.5,8|8,0:0|0:1,0:0:0:0:
192,100,117848,2,0,L|292:104,1,95,0|0,1:0|1:0,0:0:0:0:
88,268,118192,2,0,L|200:256,1,95,8|0,0:0|0:0,0:0:0:0:
428,292,118535,6,0,P|376:344|260:340,1,190,4|8,1:2|0:0,0:0:0:0:
188,180,119050,1,0,0:0:0:0:
188,180,119136,1,8,0:1:0:0:
188,180,119222,1,0,1:0:0:0:
324,248,119393,1,0,1:0:0:0:
280,88,119565,1,8,0:0:0:0:
176,284,119737,6,0,B|112:304|44:264|44:264|16:308,1,190,4|0,1:2|1:0,0:0:0:0:
192,184,120252,1,8,0:0:0:0:
316,332,120423,2,0,L|372:324,1,47.5,0|8,0:0|0:1,0:0:0:0:
432,288,120595,2,0,L|444:184,1,95,0|0,1:0|1:0,0:0:0:0:
348,28,120938,1,8,1:2:0:0:
328,60,121024,1,0,1:0:0:0:
324,96,121110,1,0,1:0:0:0:
332,132,121196,1,0,1:0:0:0:
352,164,121282,5,12,1:2:0:0:
192,20,121454,1,8,1:2:0:0:
428,92,121625,1,0,1:2:0:0:
192,184,121797,2,0,B|152:200|152:200|52:184,1,132.999995941162,4|0,1:2|1:0,0:0:0:0:
264,112,122312,5,12,1:2:0:0:
28,180,122484,1,8,1:2:0:0:
192,20,122655,1,0,1:0:0:0:
200,272,122827,2,0,P|240:312|288:328,1,99.7499969558717,4|0,1:2|0:0,0:0:0:0:
356,324,123170,5,2,1:2:0:0:
140,336,123342,1,8,1:2:0:0:
296,224,123514,2,0,L|304:176,1,47.5,8|8,0:0|0:0,0:0:0:0:
192,184,123685,2,0,L|184:120,1,47.5,8|0,1:3|1:0,0:0:0:0:
256,64,123857,2,0,B|292:68|292:68|320:60|320:60|356:60|388:92,1,132.999995941162,0|0,1:2|0:0,0:0:0:0:
416,340,124372,5,4,1:2:0:0:
96,340,124715,1,12,1:2:0:0:
96,340,124887,1,12,1:2:0:0:
256,64,125230,1,6,1:2:0:0:
256,192,125402,12,0,128149,0:0:0:0:
