osu file format v13

[General]
AudioFilename: 05 -Opening size-.mp3
AudioLeadIn: 1500
PreviewTime: 62985
Countdown: 0
SampleSet: Soft
StackLeniency: 0.5
Mode: 0
LetterboxInBreaks: 0
WidescreenStoryboard: 1

[Editor]
DistanceSpacing: 1
BeatDivisor: 2
GridSize: 4
TimelineZoom: 1

[Metadata]
Title:Senkou no Yukue -Opening size-
TitleUnicode:閃光の行方 -Opening size-
Artist:Kotera Kanako
ArtistUnicode:小寺可南子
Creator:jonathanlfj
Version:Easy
Source:THE LEGEND OF HEROES: SEN NO KISEKI II
Tags:英雄伝説 閃の軌跡 閃の軌跡2 two trails of flash falcom sound team jdk rpg game opening sjoy Raose Project_Railgun
BeatmapID:515289
BeatmapSetID:217172

[Difficulty]
HPDrainRate:2
CircleSize:3
OverallDifficulty:2
ApproachRate:3
SliderMultiplier:0.799999999999999
SliderTickRate:1

[Events]
//Background and Video events
0,0,"weeee.jpg",0,0
Video,-430,"video.avi"
//Break Periods
//Storyboard Layer 0 (Background)
//Storyboard Layer 1 (Fail)
//Storyboard Layer 2 (Pass)
//Storyboard Layer 3 (Foreground)
//Storyboard Sound Samples
//Background Colour Transformations
3,100,163,162,255

[TimingPoints]
585,342.857142857143,4,2,1,50,1,0
4699,-100,4,2,1,35,0,0
5385,-100,4,2,1,60,0,0
6070,-100,4,2,1,70,0,1
6156,-100,4,2,1,70,0,0
17042,-100,4,2,1,50,0,0
28013,-100,4,2,1,60,0,0
33499,-100,4,2,1,70,0,0
38985,-100,4,2,1,50,0,0
39499,-100,4,2,1,60,0,0
40013,-100,4,2,1,70,0,0
41727,-100,4,2,1,50,0,0
52356,-100,4,2,1,60,0,0
52699,-100,4,2,1,70,0,0
63670,-100,4,2,1,65,0,1
63842,-100,4,2,1,80,0,1
84242,-100,4,2,1,80,0,0
84389,342.857142857143,4,2,1,80,1,0
85613,342.857142857143,4,2,1,80,1,1
107555,-100,4,2,1,80,0,0
110813,-100,4,2,1,40,0,0
111670,-100,4,2,1,60,0,0
112355,-100,4,2,1,80,0,0
113042,343.347639484979,4,2,1,70,1,1
113127,-100,4,2,1,70,0,0
123857,-100,4,2,1,40,0,0
124372,-100,4,2,1,70,0,0
125402,-100,4,2,1,20,0,0
128149,-100,4,2,1,5,0,0

[Colours]
Combo1 : 153,228,14
Combo2 : 255,128,51
Combo3 : 109,153,254
Combo4 : 238,32,37
Combo5 : 255,200,34

[HitObjects]
320,228,585,6,0,P|396:252|448:244,2,120,2|0|2,0:0|0:0|0:0,0:0:0:0:
276,160,1956,2,0,B|280:120|280:120|304:88|304:88|308:48,2,120,2|0|2,0:0|0:0|0:0,0:0:0:0:
240,232,3327,6,0,P|144:256|72:228,1,160,2|2,0:0|0:0,0:0:0:0:
160,96,4699,1,4,0:0:0:0:
240,104,5042,1,4,0:0:0:0:
320,112,5385,2,0,L|336:196,1,79.9999999999999,8|8,1:0|1:2,0:0:0:0:
312,268,6070,5,4,1:2:0:0:
152,280,6756,2,0,P|100:240|80:176,2,120,0|4|8,1:0|1:2|0:0,0:0:0:0:
232,272,8127,2,0,P|256:240|272:188,1,79.9999999999999,0|8,1:0|0:0,0:0:0:0:
224,136,8813,6,0,B|258:113|304:120|332:152|332:152|420:124,1,200,4|0,1:2|1:0,0:0:0:0:
484,160,10013,2,0,P|496:224|488:288,1,120,4|8,1:2|0:0,0:0:0:0:
428,328,10870,2,0,L|336:336,1,79.9999999999999,0|8,1:0|0:0,0:0:0:0:
272,312,11556,5,4,1:2:0:0:
328,160,12242,2,0,P|260:148|196:172,2,120,0|4|8,1:0|1:2|0:0,0:0:0:0:
368,228,13613,2,0,P|396:200|408:160,1,79.9999999999999,0|8,1:0|1:2,0:0:0:0:
372,92,14299,6,0,P|300:68|244:68,1,120,10|4,1:2|1:2,0:0:0:0:
140,96,15327,2,0,B|152:120|152:120|120:160|128:212,1,120,10|4,1:2|1:2,0:0:0:0:
192,308,16356,1,4,1:2:0:0:
260,268,16699,1,4,1:2:0:0:
324,316,17042,6,0,P|376:328|480:280,1,160,4|0,1:0|1:0,0:0:0:0:
504,216,18070,2,0,B|512:176|512:176|500:136,2,79.9999999999999,0|0|2,1:0|1:0|1:2,0:0:0:0:
432,180,19099,2,0,B|380:184|380:184|328:168|328:168|272:172,1,160,0|2,1:0|1:2,0:0:0:0:
200,312,20470,6,0,L|108:320,1,79.9999999999999,0|0,1:0|1:0,0:0:0:0:
52,276,21156,2,0,L|44:192,1,79.9999999999999,0|0,1:0|1:0,0:0:0:0:
92,132,21842,2,0,B|128:108|168:116|168:116|208:96|208:96|244:100,1,160,0|2,1:0|1:2,0:0:0:0:
384,176,23213,5,0,1:0:0:0:
292,308,23899,1,2,1:2:0:0:
212,304,24242,2,0,L|104:296,2,79.9999999999999,0|2|0,1:0|1:2|1:0,0:0:0:0:
292,308,25270,6,0,P|364:280|408:204,1,160,2|0,1:2|1:0,0:0:0:0:
400,132,26299,1,0,1:0:0:0:
336,84,26642,2,0,B|288:96|288:96|172:84,2,160,2|2|4,1:2|1:2|1:2,0:0:0:0:
232,208,28699,6,0,L|124:196,1,79.9999999999999,0|0,1:0|1:0,0:0:0:0:
76,228,29385,2,0,P|64:292|72:328,1,79.9999999999999,0|2,1:0|1:2,0:0:0:0:
136,348,30070,2,0,B|216:356|216:356|300:324,1,160,0|2,1:0|1:2,0:0:0:0:
424,240,31442,6,0,P|412:204|384:172,1,79.9999999999999,0|0,1:0|1:0,1:0:0:0:
304,168,32127,2,0,P|260:172|212:152,1,79.9999999999999,0|0,1:0|1:0,0:0:0:0:
272,92,32813,2,0,P|312:88|356:104,1,79.9999999999999,0|8,1:0|1:2,0:0:0:0:
384,172,33499,6,0,B|380:224|332:244|332:244|336:320,1,160,4|0,1:2|1:0,0:0:0:0:
176,309,34870,2,0,B|180:244|180:244|132:224|128:172,1,160,2|0,1:2|1:0,0:0:0:0:
256,76,36242,6,0,P|310:82|420:40,2,160,4|0|2,1:2|1:0|1:2,0:0:0:0:
184,36,37956,1,8,0:0:0:0:
124,88,38299,2,0,L|108:176,1,79.9999999999999,0|8,1:0|0:0,0:0:0:0:
152,236,38985,5,4,1:2:0:0:
256,180,39499,1,4,1:2:0:0:
360,236,40013,2,0,L|372:368,2,120,4|0|8,1:2|1:0|1:3,0:0:0:0:
352,156,41385,1,8,1:0:0:0:
296,100,41727,6,0,B|256:84|216:100|216:100|176:116|140:100,1,160,4|8,1:2|0:0,0:0:0:0:
260,208,43099,2,0,B|300:224|340:208|340:208|380:192|416:208,1,160,2|8,1:2|0:0,0:0:0:0:
332,344,44470,6,0,P|284:348|236:336,1,79.9999999999999,2|0,1:2|0:0,0:0:0:0:
188,296,45156,1,8,0:0:0:0:
228,140,45842,2,0,P|272:156|300:180,2,79.9999999999999,2|0|8,1:2|0:0|0:0,0:0:0:0:
148,140,46870,1,0,0:0:0:0:
80,184,47213,6,0,B|52:144|52:144|52:84|112:52,1,160,4|8,1:2|0:0,0:0:0:0:
185,37,48242,1,0,0:0:0:0:
260,68,48585,2,0,P|360:56|408:16,1,160,2|8,1:2|0:0,0:0:0:0:
484,160,49956,6,0,B|500:196|500:196|496:248,1,79.9999999999999,2|0,1:2|0:0,0:0:0:0:
489,316,50642,1,8,0:0:0:0:
332,348,51327,2,0,P|296:344|256:316,2,79.9999999999999,2|0|12,1:2|0:0|1:2,0:0:0:0:
396,296,52356,1,0,1:0:0:0:
320,268,52699,6,0,P|300:192|320:112,1,160,4|0,1:2|1:0,0:0:0:0:
388,76,53727,1,8,0:0:0:0:
320,32,54070,2,0,B|268:24|268:24|216:40|216:40|160:32,2,160,2|2|4,1:2|1:2|1:2,0:0:0:0:
456,120,56127,6,0,P|472:168|440:232,2,120,0|4|8,1:0|1:2|0:0,0:0:0:0:
392,168,57499,1,2,1:2:0:0:
320,132,57842,1,8,0:0:0:0:
264,188,58185,6,0,P|184:200|128:184,2,120,4|0|8,1:2|0:0|0:0,0:0:0:0:
320,132,59556,2,0,B|380:108|440:136|440:136|456:184,1,160,2|0,1:2|1:0,0:0:0:0:
476,248,60585,1,12,0:0:0:0:
428,312,60927,6,0,B|412:312|388:300|388:300|352:316|352:316|304:316,1,120,8|8,1:2|1:2,0:0:0:0:
232,316,61785,1,10,1:2:0:0:
272,248,62127,2,0,B|308:188|324:124|292:88|240:108|256:148,1,200,4|0,1:2|1:0,0:0:0:0:
360,268,63670,6,0,P|388:192|376:92,1,160,6|0,1:0|1:0,0:0:0:0:
256,20,65042,1,2,1:2:0:0:
184,56,65385,1,8,0:0:0:0:
112,92,65727,2,0,L|128:184,1,79.9999999999999,0|8,1:0|0:0,0:0:0:0:
196,212,66413,6,0,L|220:348,2,120,2|0|8,1:2|0:0|0:0,0:0:0:0:
272,184,67785,2,0,P|340:200|404:128,1,160,2|0,1:2|1:0,0:0:0:0:
324,120,68813,1,8,0:0:0:0:
244,108,69156,6,0,P|196:160|228:252,1,160,4|0,1:2|1:0,0:0:0:0:
340,340,70527,2,0,P|296:332|252:336,1,79.9999999999999,2|8,1:2|0:0,0:0:0:0:
188,368,71213,2,0,P|144:364|108:352,1,79.9999999999999,0|8,1:0|0:0,0:0:0:0:
68,284,71899,6,0,L|52:108,2,160,2|0|2,1:2|1:0|1:2,0:0:0:0:
200,192,73956,2,0,P|260:184|296:192,1,79.9999999999999,0|8,1:0|0:0,0:0:0:0:
352,224,74642,6,0,B|392:240|430:225|430:225|451:192|434:149,1,160,4|0,1:2|1:0,0:0:0:0:
288,84,76013,1,2,1:2:0:0:
212,112,76356,1,8,0:0:0:0:
152,60,76699,2,0,L|64:44,1,79.9999999999999,0|8,1:0|0:0,0:0:0:0:
12,100,77385,6,0,P|8:184|48:252,1,160,2|0,1:2|1:0,0:0:0:0:
120,272,78413,1,8,0:0:0:0:
180,216,78756,2,0,B|220:204|260:216|260:216|300:228|340:216,1,160,2|0,1:2|1:0,0:0:0:0:
432,88,80127,6,0,P|484:160|492:236,1,160,4|0,1:2|1:0,0:0:0:0:
396,356,81499,2,0,B|360:332|360:332|232:340,1,160,2|0,1:2|1:0,0:0:0:0:
120,240,82870,6,0,B|116:200|116:200|132:164|132:164|128:124,2,120,4|0|8,1:2|0:0|0:0,0:0:0:0:
132,320,84242,1,4,1:2:0:0:
256,228,84903,1,8,1:2:0:0:
104,160,85613,6,0,B|64:104|72:32|72:32|108:56,1,160,6|0,1:0|1:0,0:0:0:0:
228,132,86984,1,2,1:2:0:0:
308,116,87327,1,8,0:0:0:0:
356,52,87670,2,0,P|408:44|452:56,1,79.9999999999999,0|8,1:0|0:0,0:0:0:0:
484,112,88355,6,0,B|500:140|500:140|492:256,2,120,2|0|8,1:2|0:0|0:0,0:0:0:0:
420,160,89727,2,0,L|408:328,1,160,2|0,1:2|1:0,0:0:0:0:
340,360,90755,1,8,0:0:0:0:
272,320,91098,6,0,B|228:316|228:316|172:344|108:312,1,160,4|0,1:2|1:0,0:0:0:0:
176,168,92470,2,0,P|168:136|184:84,1,79.9999999999999,2|8,1:2|0:0,0:0:0:0:
248,132,93155,2,0,P|284:96|316:88,1,79.9999999999999,0|8,1:0|0:0,0:0:0:0:
320,168,93841,6,0,B|364:160|383:124|383:124|428:124|460:152,1,160,2|0,1:2|1:0,0:0:0:0:
484,224,94870,1,8,0:0:0:0:
424,276,95213,2,0,L|328:264,1,79.9999999999999,2|10,1:2|0:0,0:0:0:0:
344,348,95898,2,0,L|256:336,1,79.9999999999999,0|10,1:0|0:0,0:0:0:0:
192,372,96584,6,0,P|224:312|220:208,1,160,4|0,1:2|1:0,0:0:0:0:
68,184,97955,1,2,1:2:0:0:
32,256,98298,1,8,0:0:0:0:
80,320,98641,2,0,P|108:280|112:236,1,79.9999999999999,0|8,1:0|0:0,0:0:0:0:
148,176,99327,6,0,B|176:144|220:148|220:148|256:172|296:160,1,160,2|0,1:2|1:0,0:0:0:0:
268,84,100355,1,8,0:0:0:0:
188,68,100698,2,0,P|128:88|80:128,2,120,2|0|8,1:2|0:0|0:0,0:0:0:0:
268,84,102070,6,0,B|336:88|388:52|388:52|428:60,1,160,4|0,1:2|1:0,0:0:0:0:
488,204,103441,2,0,P|464:280|396:312,1,160,4|0,1:2|1:0,0:0:0:0:
260,228,104813,6,0,P|340:200|404:208,2,120,4|0|8,1:2|0:0|0:0,0:0:0:0:
208,288,106184,1,0,1:0:0:0:
128,292,106527,1,10,0:0:0:0:
64,244,106870,2,0,B|56:220|56:220|61:188|61:188|56:164,1,79.9999999999999,8|8,0:0|1:3,0:0:0:0:
36,88,107555,5,4,1:2:0:0:
256,320,108927,1,4,1:2:0:0:
476,88,110298,6,0,P|500:140|476:200,2,120,4|0|0,1:2|0:0|0:0,0:0:0:0:
420,144,111670,1,2,0:0:0:0:
348,108,112013,1,2,0:0:0:0:
284,156,112355,2,0,B|264:150|264:150|231:161|184:152,1,79.9999999999999,8|8,0:0|1:2,0:0:0:0:
128,128,113042,5,4,1:2:0:0:
64,272,113728,2,0,P|120:288|192:268,2,120,0|4|8,1:0|1:2|0:0,0:0:0:0:
24,204,115102,2,0,L|12:104,1,79.9999999999999,0|8,1:0|0:0,0:0:0:0:
64,60,115788,6,0,B|128:44|180:76|180:76|212:56|212:56|264:64,1,200,4|0,1:2|1:0,0:0:0:0:
328,92,116990,2,0,B|348:128|344:168|344:168|384:184,1,120,4|8,1:2|0:0,0:0:0:0:
460,172,117848,2,0,P|484:144|496:92,1,79.9999999999999,0|8,1:0|0:0,0:0:0:0:
472,28,118535,5,4,1:2:0:0:
328,92,119222,2,0,P|264:100|212:80,2,120,0|4|8,1:0|1:2|0:0,0:0:0:0:
392,140,120595,1,0,1:0:0:0:
388,220,120938,1,8,1:2:0:0:
324,268,121282,6,0,B|296:288|296:288|208:280,1,120,12|4,1:2|1:2,0:0:0:0:
144,180,122312,2,0,B|229:172|229:172|252:144,1,120,12|4,1:2|1:2,0:0:0:0:
312,40,123342,2,0,B|344:68|384:72|384:72|398:97|396:124,1,120,8|0,1:2|1:2,0:0:0:0:
360,224,124372,5,4,1:2:0:0:
296,272,124715,2,0,B|275:286|275:286|256:192,1,120,12|6,1:2|1:2,0:0:0:0:
256,192,125402,12,0,128149,0:0:0:0:
