osu file format v14

[General]
AudioFilename: Rush Out!.mp3
AudioLeadIn: 1500
PreviewTime: 86144
Countdown: 0
SampleSet: Soft
StackLeniency: 0.7
Mode: 0
LetterboxInBreaks: 0
WidescreenStoryboard: 0

[Editor]
DistanceSpacing: 0.5
BeatDivisor: 4
GridSize: 4
TimelineZoom: 1.7

[Metadata]
Title:Rush Out!
TitleUnicode:Rush Out!
Artist:Kotera Kanako
ArtistUnicode:小寺可南子
Creator:zj0924
Version:Alternative Saga
Source:イースvs.空の軌跡 オルタナティブ・サーガ
Tags:Falcom Sound Team J.D.K. jdk 神藤由东大 浜田英明 INNOCENT PRIMEVAL BREAKER Ys7 Adol Christin ドラマCD イースSEVENプロローグ ~綴られざる冒険譚~
BeatmapID:669669
BeatmapSetID:298417

[Difficulty]
HPDrainRate:6.5
CircleSize:4
OverallDifficulty:8
ApproachRate:9
SliderMultiplier:1.6
SliderTickRate:1

[Events]
//Background and Video events
0,0,"BG.jpg",0,0
//Break Periods
//Storyboard Layer 0 (Background)
//Storyboard Layer 1 (Fail)
//Storyboard Layer 2 (Pass)
//Storyboard Layer 3 (Foreground)
//Storyboard Sound Samples

[TimingPoints]
786,315.789473684211,4,2,2,30,1,0
786,-133.333333333333,4,2,2,30,0,0
11618,315.789473684211,4,2,1,60,1,0
12249,-90.9090909090909,4,2,1,75,0,0
12881,-90.9090909090909,4,2,1,85,0,0
22986,-90.9090909090909,4,2,1,75,0,0
57091,-90.9090909090909,4,2,2,80,0,0
57407,-90.9090909090909,4,2,1,75,0,0
63407,-133.333333333333,4,2,1,45,0,0
63723,-133.333333333333,4,2,1,85,0,0
70354,-133.333333333333,4,2,1,70,0,0
70986,-90.9090909090909,4,2,1,75,0,0
72565,-133.333333333333,4,2,1,100,0,0
73512,-90.9090909090909,4,2,1,85,0,0
86144,-83.3333333333333,4,2,1,90,0,1
106986,-90.9090909090909,4,2,1,90,0,1
113933,-90.9090909090909,4,2,1,40,0,1
114249,-90.9090909090909,4,2,1,90,0,1
116460,-90.9090909090909,4,2,1,70,0,1
121196,-133.333333333333,4,2,1,60,0,0
125618,-90.9090909090909,4,2,1,75,0,0
134144,-90.9090909090909,4,2,1,50,0,0
134460,-90.9090909090909,4,2,1,75,0,0
140460,-90.9090909090909,4,2,2,80,0,0
140775,-90.9090909090909,4,2,1,75,0,0
147407,-133.333333333333,4,2,1,85,0,0
153723,-133.333333333333,4,2,1,70,0,0
154354,-90.9090909090909,4,2,1,75,0,0
156881,-90.9090909090909,4,2,1,85,0,0
169512,-83.3333333333333,4,2,1,90,0,1
199848,315.789473684211,4,2,1,85,1,0
199848,-83.3333333333333,4,2,1,85,0,1
202374,-83.3333333333333,4,2,1,40,0,1
202532,-83.3333333333333,4,2,1,85,0,1
204900,-83.3333333333333,4,2,1,40,0,0
205058,-83.3333333333333,4,2,1,80,0,0
209933,315.789473684211,4,2,1,85,1,0
209933,-83.3333333333333,4,2,1,85,0,0
216564,-111.111111111111,4,2,1,85,0,0
216880,-83.3333333333333,4,2,1,85,0,0
217196,-83.3333333333333,4,2,1,85,0,0
219090,-133.333333333333,4,2,1,60,0,0
220039,319.148936170213,4,2,2,60,1,0
221315,315.789473684211,4,2,2,60,1,0
225104,322.58064516129,4,2,2,60,1,0
226394,312.5,4,2,2,60,1,0
227644,315.789473684211,4,2,2,60,1,0
239012,-133.333333333333,4,2,2,10,0,0
240117,-133.333333333333,4,2,2,60,0,0
242801,335.195530726257,4,2,2,60,1,0
243974,326.975476839237,4,2,2,10,1,0
245608,315.789473684211,4,2,1,90,1,0
245608,-83.3333333333333,4,2,1,90,0,1
254450,-83.3333333333333,4,2,1,60,0,1
254608,-83.3333333333333,4,2,1,90,0,1
280976,-83.3333333333333,4,2,1,85,0,1
285081,-133.333333333333,4,2,1,70,0,1
286029,-133.333333333333,4,2,1,70,0,0
290134,-90.9090909090909,4,2,1,75,0,0
291081,-90.9090909090909,4,2,1,85,0,0
302292,-90.9090909090909,4,2,1,50,0,0
306397,-90.9090909090909,4,2,1,5,0,0

[Colours]
Combo1 : 128,128,255
Combo2 : 255,0,0
Combo3 : 18,124,255
Combo4 : 255,128,64
Combo5 : 0,145,72

[HitObjects]
152,156,786,6,0,L|168:88,1,60.0000022888184
188,24,1101,1,2,0:0:0:0:
236,168,1417,2,0,L|249:109,1,60.0000022888184
96,228,1891,1,2,0:0:0:0:
96,228,2207,6,0,L|124:288,1,60.0000022888184
80,132,2680,2,0,L|80:68,1,60.0000022888184,2|0,0:0|0:0,0:0:0:0:
96,228,2996,1,0,0:0:0:0:
96,228,3312,6,0,L|112:304,1,60.0000022888184,2|0,0:0|0:0,0:0:0:0:
220,244,3628,2,0,L|277:225,1,60.0000022888184
188,144,3943,2,0,L|130:92,1,60.0000022888184,2|0,0:0|0:0,0:0:0:0:
108,276,4259,1,0,0:0:0:0:
276,224,4417,1,2,0:0:0:0:
276,224,4891,5,0,0:0:0:0:
276,224,5838,6,0,L|344:192,1,60.0000022888184
400,164,6153,1,2,0:0:0:0:
272,140,6470,2,0,L|340:108,1,60.0000022888184
216,296,6943,1,2,0:0:0:0:
216,296,7259,6,0,L|144:284,1,60.0000022888184
320,320,7733,2,0,L|404:332,1,60.0000022888184,2|0,0:0|0:0,0:0:0:0:
292,224,8048,1,0,0:0:0:0:
292,224,8364,6,0,L|244:168,1,60.0000022888184,2|0,0:0|0:0,0:0:0:0:
216,296,8680,1,0,0:0:0:0:
320,320,8838,1,0,0:0:0:0:
292,224,8996,6,0,L|267:153,1,60.0000022888184,2|0,0:0|0:0,0:0:0:0:
192,260,9312,1,0,0:0:0:0:
280,322,9470,1,2,0:0:0:0:
384,156,9943,5,2,0:0:0:0:
4,252,12249,5,8,0:0:0:0:
2,218,12327,1,8,0:0:0:0:
11,185,12406,1,8,0:0:0:0:
31,157,12485,1,8,0:0:0:0:
59,140,12564,1,8,0:0:0:0:
92,132,12643,1,8,0:0:0:0:
127,137,12722,1,8,0:0:0:0:
157,154,12801,1,8,0:0:0:0:
172,184,12881,6,0,P|225:250|310:261,1,176.000005371094,4|8,0:0|0:0,0:0:0:0:
484,144,13512,1,0,0:0:0:0:
416,240,13670,2,0,P|404:201|367:149,1,88.000002685547,0|8,0:0|0:0,0:0:0:0:
312,236,13986,1,0,0:0:0:0:
312,236,14302,5,0,0:0:0:0:
380,160,14460,2,0,P|356:77|272:48,1,176.000005371094,8|0,0:0|0:0,0:0:0:0:
192,48,14933,1,0,0:0:0:0:
232,124,15091,2,0,P|232:176|204:212,1,88.000002685547,8|0,0:0|0:0,0:0:0:0:
151,273,15407,6,0,P|192:288|236:286,1,88.000002685547
396,244,15723,2,0,P|351:230|296:240,1,88.000002685547,8|0,0:0|0:0,0:0:0:0:
172,343,16039,2,0,P|210:321|236:286,1,88.000002685547
268,136,16354,1,8,0:0:0:0:
236,286,16512,1,4,0:0:0:0:
236,286,16828,5,0,0:0:0:0:
236,286,16986,2,0,B|308:260|308:260|345:149,1,176.000005371094,8|0,0:0|0:0,0:0:0:0:
339,165,17460,1,0,0:0:0:0:
232,200,17618,1,8,0:0:0:0:
472,280,17933,5,4,0:0:0:0:
472,280,18091,1,0,0:0:0:0:
407,208,18249,2,0,P|379:291|432:368,1,176.000005371094,8|0,0:0|0:0,0:0:0:0:
472,280,18723,2,0,P|416:288|360:280,1,88.000002685547,0|8,0:0|0:0,0:0:0:0:
288,272,19039,1,0,0:0:0:0:
288,272,19354,5,0,0:0:0:0:
288,272,19512,2,0,P|310:189|271:112,1,176.000005371094,8|0,0:0|0:0,0:0:0:0:
164,64,19986,1,0,0:0:0:0:
224,184,20144,2,0,P|306:206|383:167,1,176.000005371094,8|0,0:0|0:0,0:0:0:0:
420,48,20618,5,10,0:0:0:0:
300,120,20775,1,0,0:0:0:0:
300,120,20933,1,0,0:0:0:0:
164,64,21091,5,10,0:0:0:0:
300,120,21249,1,0,0:0:0:0:
300,120,21407,1,0,0:0:0:0:
328,260,21565,1,8,0:0:0:0:
328,260,21881,5,0,0:0:0:0:
328,260,22039,2,0,P|244:284|168:232,1,176.000005371094,8|0,0:0|0:0,0:0:0:0:
258,192,22512,1,8,0:0:0:0:
172,340,22670,1,8,0:0:0:0:
104,184,22828,1,8,0:0:0:0:
56,324,22986,6,0,B|28:352|28:352|48:272|8:192,1,176.000005371094,4|8,0:0|0:0,0:0:0:0:
240,252,23618,2,0,L|336:272,1,88.000002685547
140,280,23933,1,8,0:0:0:0:
140,280,24091,1,0,0:0:0:0:
108,188,24249,6,0,L|84:104,1,88.000002685547
204,160,24565,1,8,0:0:0:0:
204,160,24723,1,0,0:0:0:0:
268,88,24881,2,0,L|360:40,1,88.000002685547
316,200,25196,1,8,0:0:0:0:
316,200,25512,6,0,P|305:241|304:288,1,88.000002685547
432,200,25828,2,0,P|425:156|402:115,1,88.000002685547,8|0,0:0|0:0,0:0:0:0:
268,88,26144,2,0,P|232:116|204:160,1,88.000002685547
148,336,26460,2,0,P|183:308|212:264,1,88.000002685547,8|0,0:0|0:0,0:0:0:0:
316,200,26775,6,0,L|404:168,1,88.000002685547
220,272,27091,1,8,0:0:0:0:
332,200,27249,6,0,L|424:188,1,88.000002685547
360,344,27565,1,0,0:0:0:0:
220,272,27723,1,8,0:0:0:0:
216,272,28039,6,8,P|148:216|156:116,1,176.000005371094,0|8,0:0|0:0,0:0:0:0:
236,175,28512,2,0,P|304:231|296:331,1,176.000005371094
212,368,28986,1,8,0:0:0:0:
120,300,29144,1,0,0:0:0:0:
136,200,29302,6,0,L|172:112,1,88.000002685547
48,220,29618,2,0,L|40:124,1,88.000002685547,8|0,0:0|0:0,0:0:0:0:
36,324,29933,1,0,0:0:0:0:
36,324,30091,1,0,0:0:0:0:
192,276,30249,2,0,P|240:260|304:268,1,88.000002685547,8|0,0:0|0:0,0:0:0:0:
157,355,30565,6,0,P|108:292|155:196,1,176.000005371094,4|8,0:0|0:0,0:0:0:0:
294,41,31196,2,0,P|332:61|368:104,1,88.000002685547
269,166,31512,1,8,0:0:0:0:
160,132,31670,6,0,P|74:131|11:190,1,176.000005371094
132,320,32144,2,0,P|175:325|213:305,1,88.000002685547,8|0,0:0|0:0,0:0:0:0:
332,172,32460,1,0,0:0:0:0:
128,224,32618,1,8,0:0:0:0:
304,264,32775,1,8,0:0:0:0:
160,132,32933,1,8,0:0:0:0:
324,76,33091,6,0,P|400:108|411:223,1,176.000005371094,4|8,0:0|0:0,0:0:0:0:
406,306,33565,1,0,0:0:0:0:
304,264,33723,2,0,P|256:252|196:264,1,88.000002685547
100,292,34039,1,8,0:0:0:0:
200,364,34196,1,0,0:0:0:0:
304,264,34354,6,0,P|311:215|294:156,1,88.000002685547
200,284,34670,1,8,0:0:0:0:
356,356,34828,6,0,P|390:320|410:262,1,88.000002685547
400,172,35144,1,0,0:0:0:0:
304,264,35302,1,8,0:0:0:0:
304,264,35618,6,8,P|244:288|136:224,1,176.000005371094,0|8,0:0|0:0,0:0:0:0:
85,176,36091,1,0,0:0:0:0:
234,181,36249,2,0,P|234:228|232:291,1,88.000002685547
124,86,36565,2,0,P|156:56|196:37,1,88.000002685547,8|0,0:0|0:0,0:0:0:0:
333,24,36881,6,0,P|353:63|383:94,1,88.000002685547
508,160,37196,1,8,0:0:0:0:
392,260,37354,2,0,P|402:218|424:180,1,88.000002685547
476,64,37670,1,0,0:0:0:0:
476,64,37828,1,8,0:0:0:0:
475,63,38144,6,0,P|398:28|318:59,1,176.000005371094,0|8,0:0|0:0,0:0:0:0:
395,141,38618,2,0,P|316:173|237:139,1,176.000005371094
136,84,39091,2,0,L|56:32,1,88.000002685547,8|0,0:0|0:0,0:0:0:0:
224,40,39407,6,0,P|217:127|146:177,1,176.000005371094,0|8,0:0|0:0,0:0:0:0:
46,133,39881,1,0,0:0:0:0:
58,244,40039,2,0,P|72:284|104:315,1,88.000002685547
248,352,40354,2,0,P|287:334|316:301,1,88.000002685547,8|0,0:0|0:0,0:0:0:0:
190,244,40670,6,0,P|157:215|138:175,2,88.000002685547,0|10|0,0:0|0:0|0:0,0:0:0:0:
190,244,41144,1,0,0:0:0:0:
248,352,41302,2,0,P|287:334|316:301,2,88.000002685547,2|0|0,0:0|0:0|0:0,0:0:0:0:
248,352,41736,1,10,0:0:0:0:
416,148,42091,5,0,0:0:0:0:
412,244,42249,2,0,P|497:184|478:74,1,176.000005371094,4|0,0:0|0:0,0:0:0:0:
380,64,42723,1,10,0:0:0:0:
332,184,42881,1,10,0:0:0:0:
332,200,43196,6,0,B|316:288|316:288|244:352,1,176.000005371094,4|8,0:0|0:0,0:0:0:0:
136,328,43670,1,0,0:0:0:0:
112,216,43828,5,0,0:0:0:0:
112,216,43986,1,0,0:0:0:0:
236,160,44144,2,0,L|208:256,1,88.000002685547,8|0,0:0|0:0,0:0:0:0:
112,120,44460,5,0,0:0:0:0:
112,120,44618,1,0,0:0:0:0:
286,87,44776,2,0,L|236:160,1,88.000002685547,8|0,0:0|0:0,0:0:0:0:
168,36,45091,5,0,0:0:0:0:
168,36,45249,1,0,0:0:0:0:
368,56,45407,2,0,L|286:87,1,88.000002685547,8|0,0:0|0:0,0:0:0:0:
108,220,45723,2,0,B|153:177|217:245|275:198,2,176.000005371094,0|8|0,0:0|0:0|0:0,0:0:0:0:
112,120,46512,1,0,0:0:0:0:
168,36,46670,2,0,L|256:32,1,88.000002685547,8|0,0:0|0:0,0:0:0:0:
388,72,46986,6,0,L|308:109,1,88.000002685547
360,228,47302,2,0,L|277:198,1,88.000002685547,8|0,0:0|0:0,0:0:0:0:
208,336,47618,2,0,L|191:249,1,88.000002685547
172,136,47933,1,8,0:0:0:0:
172,136,48249,6,0,B|232:172|280:108|348:136,2,176.000005371094,0|8|0,0:0|0:0|0:0,0:0:0:0:
80,88,49039,2,0,L|8:8,1,88.000002685547,0|8,0:0|0:0,0:0:0:0:
172,136,49354,1,0,0:0:0:0:
64,200,49512,6,0,P|32:236|40:300,2,88.000002685547,0|0|8,0:0|0:0|0:0,0:0:0:0:
172,136,49986,1,0,0:0:0:0:
180,264,50144,2,0,L|188:380,1,88.000002685547
276,176,50460,2,0,L|292:60,1,88.000002685547,8|0,0:0|0:0,0:0:0:0:
180,264,50775,6,0,P|248:308|352:292,1,176.000005371094,4|8,0:0|0:0,0:0:0:0:
172,136,51407,2,0,P|126:164|101:219,1,88.000002685547
104,332,51723,1,8,0:0:0:0:
252,331,51881,6,0,P|295:258|276:174,1,176.000005371094
380,300,52354,2,0,L|464:368,1,88.000002685547,8|0,0:0|0:0,0:0:0:0:
276,175,52670,1,0,0:0:0:0:
252,332,52828,1,8,0:0:0:0:
292,152,52986,1,8,0:0:0:0:
256,352,53144,1,8,0:0:0:0:
176,208,53302,6,0,B|160:164|176:136|176:136|144:112|192:44,1,176.000005371094,4|8,0:0|0:0,0:0:0:0:
396,216,53933,2,0,P|408:168|384:128,1,88.000002685547
332,48,54249,1,8,0:0:0:0:
292,152,54407,1,0,0:0:0:0:
148,104,54565,6,0,L|60:57,1,88.000002685547
273,178,54881,1,8,0:0:0:0:
168,88,55039,6,0,L|102:31,1,88.000002685547
252,196,55354,1,0,0:3:0:0:
344,68,55512,2,0,P|380:56|440:32,1,88.000002685547,8|0,0:0|0:0,0:0:0:0:
252,196,55828,6,0,P|164:224|76:200,1,176.000005371094,0|8,0:0|0:0,0:0:0:0:
92,80,56302,1,0,0:0:0:0:
208,32,56460,2,0,P|250:51|304:92,1,88.000002685547
408,128,56775,2,0,P|452:133|504:128,1,88.000002685547,8|0,0:0|0:0,0:0:0:0:
348,20,57091,6,0,P|310:42|283:77,1,88.000002685547,2|0,0:0|0:0,0:0:0:0:
344,184,57407,2,0,P|381:161|408:126,1,88.000002685547,8|0,0:0|0:0,0:0:0:0:
332,12,57723,6,0,P|294:34|267:69,1,88.000002685547
352,196,58039,2,0,P|389:173|416:138,1,88.000002685547,8|0,0:0|0:0,0:0:0:0:
240,260,58354,6,0,P|160:260|100:188,1,176.000005371094,0|8,0:0|0:0,0:0:0:0:
64,88,58828,1,0,0:0:0:0:
180,132,58986,2,0,P|227:152|289:159,1,88.000002685547
458,100,59302,2,0,P|406:106|349:131,1,88.000002685547,8|0,0:0|0:0,0:0:0:0:
248,264,59618,6,0,P|328:280|408:200,1,176.000005371094,0|8,0:0|0:0,0:0:0:0:
356,0,60249,2,0,P|305:10|251:42,2,88.000002685547,0|0|8,0:0|0:0|0:0,0:0:0:0:
176,200,60881,6,0,P|90:193|39:125,1,176.000005371094,4|0,0:0|0:0,0:0:0:0:
20,16,61354,1,0,0:0:0:0:
144,92,61512,2,0,P|229:97|308:56,1,176.000005371094,8|0,0:0|0:0,0:0:0:0:
424,12,61986,1,0,0:0:0:0:
384,128,62144,6,0,L|352:220,2,88.000002685547,0|2|0,0:0|0:0|0:0,0:0:0:0:
424,12,62618,1,0,0:0:0:0:
308,56,62775,1,0,0:0:0:0:
488,100,62933,1,0,0:0:0:0:
356,212,63091,1,0,0:0:0:0:
424,12,63249,1,0,0:0:0:0:
468,204,63407,5,4,0:0:0:0:
468,204,63723,2,0,L|444:332,1,120.000004577637,0|2,0:0|0:0,0:0:0:0:
445,321,64354,1,0,0:0:0:0:
325,320,64670,2,0,P|291:272|285:213,2,120.000004577637,0|0|2,0:0|0:0|0:0,0:0:0:0:
320,104,65933,6,0,P|208:132|176:248,1,240.000009155274,0|2,0:0|0:0,0:0:0:0:
448,108,67196,2,0,P|455:167|439:224,2,120.000004577637,0|0|2,0:0|0:0|0:0,0:0:0:0:
328,316,68460,6,0,P|218:281|190:170,1,240.000009155274,0|2,0:0|0:0,0:0:0:0:
412,64,69723,1,0,0:0:0:0:
320,204,70039,1,0,0:0:0:0:
320,204,70354,5,10,0:0:0:0:
233,178,70512,1,10,0:0:0:0:
147,153,70669,1,10,0:0:0:0:
60,127,70827,1,10,0:0:0:0:
68,216,70986,6,0,L|80:324,1,88.000002685547,14|0,0:0|0:0,0:0:0:0:
147,153,71302,1,0,0:0:0:0:
155,242,71461,6,0,L|167:350,1,88.000002685547,14|0,0:0|0:0,0:0:0:0:
233,178,71775,1,0,0:0:0:0:
242,268,71934,6,0,L|254:376,1,88.000002685547,14|0,0:0|0:0,0:0:0:0:
233,178,72249,2,0,L|245:70,1,88.000002685547
320,204,72565,6,0,L|337:343,2,120.000004577637
191,47,73512,6,0,P|101:59|63:164,1,176.000005371094,4|8,0:0|0:0,0:0:0:0:
62,242,73986,1,0,0:0:0:0:
172,254,74144,2,0,P|214:243|249:217,1,88.000002685547
164,151,74460,1,8,0:0:0:0:
279,108,74618,6,0,P|348:157|352:242,1,176.000005371094,4|0,0:0|0:0,0:0:0:0:
253,317,75091,2,0,P|293:332|337:332,1,88.000002685547,8|0,0:0|0:0,0:0:0:0:
448,303,75407,2,0,P|467:264|473:221,1,88.000002685547
352,240,75723,1,8,0:0:0:0:
279,108,75881,1,0,0:0:0:0:
164,152,76039,6,0,P|157:207|253:211,1,176.000005371094,4|8,0:0|0:0,0:0:0:0:
372,116,76512,2,0,P|449:102|456:180,1,176.000005371094,4|0,0:0|0:0,0:0:0:0:
392,320,76986,2,0,L|344:228,1,88.000002685547,8|0,0:0|0:0,0:0:0:0:
280,108,77302,6,0,L|272:16,1,88.000002685547
160,164,77618,2,0,P|72:188|28:104,1,176.000005371094,8|0,0:0|0:0,0:0:0:0:
36,264,78091,2,0,L|44:360,1,88.000002685547,0|8,0:0|0:0,0:0:0:0:
241,276,78407,6,0,P|237:192|160:164,1,176.000005371094,4|0,0:0|0:0,0:0:0:0:
36,264,78881,2,0,L|44:360,1,88.000002685547,8|0,0:0|0:0,0:0:0:0:
164,332,79196,2,0,L|153:244,1,88.000002685547
96,144,79512,2,0,P|80:112|68:56,2,88.000002685547,8|0|0,0:0|0:0|0:0,0:0:0:0:
152,248,79986,5,0,0:0:0:0:
220,126,80144,2,0,P|302:138|324:218,1,176.000005371094,8|0,0:0|0:0,0:0:0:0:
396,108,80618,2,0,L|456:20,1,88.000002685547,0|8,0:0|0:0,0:0:0:0:
325,218,80933,6,0,P|350:297|433:304,1,176.000005371094,4|0,0:0|0:0,0:0:0:0:
436,188,81407,2,0,L|396:108,1,88.000002685547,8|0,0:0|0:0,0:0:0:0:
325,219,81723,1,0,0:0:0:0:
325,219,81881,1,0,0:0:0:0:
200,176,82039,2,0,L|100:144,1,88.000002685547,8|0,0:0|0:0,0:0:0:0:
308,120,82354,6,0,L|396:112,1,88.000002685547
224,272,82670,2,0,L|160:368,1,88.000002685547,8|0,0:0|0:0,0:0:0:0:
324,220,82986,2,0,L|436:208,1,88.000002685547
200,176,83302,2,0,L|100:144,1,88.000002685547,8|0,0:0|0:0,0:0:0:0:
308,120,83618,5,0,0:0:0:0:
224,272,83775,1,0,0:0:0:0:
324,220,83933,1,10,0:0:0:0:
200,176,84091,1,0,0:0:0:0:
318,105,84249,5,0,0:0:0:0:
217,288,84406,1,10,0:0:0:0:
188,172,84565,1,10,0:0:0:0:
337,225,84723,1,10,0:0:0:0:
258,95,84881,5,10,0:0:0:0:
217,288,85039,1,0,0:0:0:0:
358,132,85197,1,10,0:0:0:0:
188,172,85355,1,10,0:0:0:0:
343,232,85512,1,0,0:0:0:0:
343,232,86144,6,0,P|431:166|423:85,1,191.999994140625,4|8,0:0|0:0,0:0:0:0:
320,104,86618,1,0,0:0:0:0:
320,104,86696,1,0,0:0:0:0:
320,104,86775,2,0,P|273:95|236:65,1,95.9999970703126
192,176,87091,1,8,0:0:0:0:
112,96,87249,1,0,0:0:0:0:
72,236,87407,6,0,P|81:282|110:320,1,95.9999970703126
230,260,87723,2,0,P|221:213|192:176,1,95.9999970703126,8|0,0:0|0:0,0:0:0:0:
112,96,88039,2,0,P|152:71|200:68,1,95.9999970703126
392,132,88354,2,0,P|354:160|307:168,1,95.9999970703126,8|0,0:0|0:0,0:0:0:0:
72,236,88670,6,0,P|152:292|232:260,1,191.999994140625,0|8,0:0|0:0,0:0:0:0:
392,132,89144,1,0,0:0:0:0:
392,132,89223,1,0,0:0:0:0:
392,132,89302,2,0,P|381:78|344:44,1,95.9999970703126
336,252,89618,1,8,0:0:0:0:
268,124,89775,1,0,0:0:0:0:
184,216,89933,6,0,P|98:248|29:188,1,191.999994140625,0|8,0:0|0:0,0:0:0:0:
112,96,90407,2,0,P|159:89|196:60,1,95.9999970703126
348,48,90723,2,0,P|324:89|284:114,1,95.9999970703126,0|8,0:0|0:0,0:0:0:0:
267,124,90960,1,0,0:0:0:0:
260,140,91039,1,0,0:0:0:0:
232,292,91196,6,0,P|304:332|392:248,1,191.999994140625,4|8,0:0|0:0,0:0:0:0:
392,132,91670,1,0,0:0:0:0:
392,132,91828,2,0,P|340:128|280:132,1,95.9999970703126
96,196,92144,2,0,P|141:206|189:212,1,95.9999970703126,8|0,0:0|0:0,0:0:0:0:
304,220,92460,5,0,0:0:0:0:
232,120,92618,1,0,0:0:0:0:
136,280,92775,2,0,L|184:288|232:292,1,95.9999970703126,8|0,0:0|0:0,0:0:0:0:
356,284,93091,5,0,0:0:0:0:
308,140,93249,1,0,0:0:0:0:
190,212,93407,2,0,P|142:206|96:196,1,95.9999970703126,8|0,0:0|0:0,0:0:0:0:
140,36,93723,6,0,P|188:42|234:52,1,95.9999970703126
408,176,94039,2,0,P|448:112|428:48,1,143.999995605469,8|0,0:0|1:0,0:0:0:0:
383,62,94354,2,0,P|315:79|272:56,1,95.9999970703126
218,69,94670,2,0,B|204:108|228:140|228:140|204:172|220:204,1,143.999995605469,8|0,0:0|1:0,0:0:0:0:
264,228,94986,6,0,P|305:252|350:267,1,95.9999970703126
491,222,95302,2,0,P|451:194|407:175,1,95.9999970703126,8|0,0:0|0:0,0:0:0:0:
296,64,95618,1,0,0:0:0:0:
300,258,95775,1,0,0:0:0:0:
424,96,95933,1,8,0:0:0:0:
232,176,96091,1,0,0:0:0:0:
232,176,96170,1,0,0:0:0:0:
232,176,96249,6,0,P|180:182|124:168,1,95.9999970703126,4|0,0:0|0:0,0:0:0:0:
296,64,96565,2,0,P|343:59|383:84,1,95.9999970703126,8|0,0:0|0:0,0:0:0:0:
408,236,96881,1,0,0:0:0:0:
232,176,97039,1,0,0:0:0:0:
232,319,97196,2,0,P|277:302|304:264,1,95.9999970703126,8|0,0:0|0:0,0:0:0:0:
296,64,97512,6,0,P|244:52|192:68,1,95.9999970703126
92,144,97828,1,8,0:0:0:0:
232,176,97986,1,0,0:0:0:0:
232,176,98065,1,0,0:0:0:0:
232,176,98144,2,0,P|279:175|322:154,1,95.9999970703126
408,68,98460,1,8,0:0:0:0:
460,212,98618,1,0,0:0:0:0:
324,152,98775,6,0,P|233:165|196:250,1,191.999994140625,0|8,0:0|0:0,0:0:0:0:
148,148,99249,1,0,0:0:0:0:
288,240,99407,2,0,P|329:263|381:270,1,95.9999970703126
352,152,99723,1,8,0:0:0:0:
304,52,99881,1,0,0:0:0:0:
276,48,99960,1,0,0:0:0:0:
248,44,100039,6,0,L|120:24,1,95.9999970703126
152,196,100354,1,8,0:0:0:0:
288,240,100512,1,0,0:0:0:0:
316,239,100591,1,0,0:0:0:0:
344,240,100670,2,0,L|473:244,1,95.9999970703126
384,108,100986,1,8,0:0:0:0:
288,240,101144,1,0,0:0:0:0:
384,108,101302,6,0,P|468:176|420:256,1,191.999994140625,4|8,0:0|0:0,0:0:0:0:
340,344,101775,1,0,0:0:0:0:
200,304,101933,2,0,L|173:211,1,95.9999970703126
288,152,102249,2,0,L|316:248,1,95.9999970703126,8|0,0:0|0:0,0:0:0:0:
80,224,102565,6,0,P|112:140|216:132,1,191.999994140625,0|8,0:0|0:0,0:0:0:0:
199,303,103039,1,0,0:0:0:0:
199,303,103118,1,0,0:0:0:0:
200,304,103196,2,0,P|246:294|281:262,1,95.9999970703126
408,208,103512,1,8,0:0:0:0:
372,60,103670,1,0,0:0:0:0:
288,152,103828,6,0,B|225:185|161:109|101:141,2,191.999994140625,0|8|0,0:0|0:0|0:0,0:0:0:0:
408,208,104618,1,0,0:0:0:0:
372,60,104775,2,0,P|304:36|220:36,1,143.999995605469,8|0,0:0|1:0,0:0:0:0:
196,44,105091,6,0,L|175:137,1,95.9999970703126,2|0,0:0|0:0,0:0:0:0:
40,88,105407,1,2,0:0:0:0:
68,228,105565,1,2,0:0:0:0:
176,138,105723,1,10,0:0:0:0:
232,276,105881,1,10,0:0:0:0:
304,112,106039,1,10,0:0:0:0:
140,292,106196,1,10,0:0:0:0:
312,188,106354,6,0,B|352:220|352:220|296:304|196:264,1,191.999994140625,4|8,0:0|0:0,0:0:0:0:
224,284,106986,2,0,L|304:346,1,88.000002685547
388,248,107302,1,0,0:0:0:0:
304,112,107460,6,0,P|212:88|136:156,1,176.000005371094,4|0,0:0|0:0,0:0:0:0:
236,196,107933,1,8,0:0:0:0:
308,284,108091,2,0,L|316:376,2,88.000002685547
304,112,108565,2,0,P|335:75|381:59,1,88.000002685547,8|0,0:0|0:0,0:0:0:0:
404,216,108881,6,0,B|384:240|384:240|324:180|244:224,1,176.000005371094,0|8,0:0|0:0,0:0:0:0:
164,304,109354,1,0,0:0:0:0:
84,196,109512,2,0,P|61:155|40:96,1,88.000002685547
192,104,109828,1,8,0:0:0:0:
252,220,109986,6,0,B|288:251|286:302|286:302|336:293|372:324,1,176.000005371094,4|0,0:0|0:0,0:0:0:0:
404,216,110460,1,8,0:0:0:0:
342,104,110618,2,0,B|304:104|272:143|272:143|240:103|192:104,1,176.000005371094,4|0,0:0|0:0,0:0:0:0:
88,192,111091,1,8,0:0:0:0:
88,192,111407,6,0,P|99:234|120:272,2,88.000002685547,4|0|8,0:0|0:0|0:0,0:0:0:0:
100,60,111881,1,0,0:0:0:0:
224,104,112039,2,0,P|255:128|290:172,1,88.000002685547
184,196,112354,1,8,0:0:0:0:
348,84,112512,6,0,P|395:174|362:261,1,176.000005371094,4|0,0:0|0:0,0:0:0:0:
184,308,112986,2,0,P|227:312|271:308,1,88.000002685547,8|0,0:0|0:0,0:0:0:0:
228,184,113302,2,0,P|218:143|194:93,1,88.000002685547
264,300,113618,1,8,0:0:0:0:
340,96,113775,1,0,0:0:0:0:
332,252,113933,6,0,P|264:312|160:288,1,176.000005371094,4|8,0:0|0:0,0:0:0:0:
64,276,114407,1,0,0:0:0:0:
76,152,114565,2,0,L|52:60,1,88.000002685547
64,276,114881,1,8,0:0:0:0:
64,276,115039,1,0,0:0:0:0:
170,229,115196,6,0,P|195:195|198:151,1,88.000002685547
198,151,115433,1,0,0:0:0:0:
198,151,115512,1,0,0:0:0:0:
368,112,115670,1,10,0:0:0:0:
312,240,115828,1,10,0:0:0:0:
308,40,115986,1,8,0:0:0:0:
416,216,116144,1,8,0:0:0:0:
420,32,116302,1,8,0:0:0:0:
292,156,116460,6,0,P|216:196|116:168,1,176.000005371094,4|0,0:0|0:0,0:0:0:0:
95,188,117091,2,0,L|95:280,2,88.000002685547
131,91,117565,2,0,P|221:105|297:61,1,176.000005371094
207,28,118039,6,0,P|219:114|266:188,1,176.000005371094
374,150,118512,1,0,0:0:0:0:
480,192,118670,2,0,P|467:278|456:300,1,88.000002685547,2|0,0:0|0:0,0:0:0:0:
466,278,118986,5,0,0:0:0:0:
352,320,119144,1,0,0:0:0:0:
252,268,119302,2,0,L|228:164,1,88.000002685547
152,344,119618,2,0,L|132:258,1,88.000002685547
104,144,119933,1,0,0:0:0:0:
208,56,120091,6,0,L|384:0,1,176.000005371094
368,112,120565,2,0,B|352:144|352:144|320:144|320:144|304:176|304:176|272:176|272:176|256:208|256:208|224:208|224:208|208:240|208:240|152:236|128:192|116:148,1,352.000010742188,0|8,0:0|0:0,0:0:0:0:
104,144,121512,6,0,P|80:101|51:29,1,120.000004577637,4|0,0:0|0:0,0:0:0:0:
212,56,122144,2,0,L|296:60,1,60.0000022888184
360,84,122460,1,0,0:0:0:0:
256,148,122618,6,0,P|227:200|209:257,1,120.000004577637
300,292,123091,2,0,P|328:239|346:182,1,120.000004577637,2|0,0:0|0:0,0:0:0:0:
372,88,123565,1,0,0:0:0:0:
444,160,123723,2,0,P|433:219|424:236,1,60.0000022888184,2|2,0:0|0:0,0:0:0:0:
404,312,124039,5,0,0:0:0:0:
300,292,124196,2,0,L|256:232,2,60.0000022888184,0|2|0,0:0|0:0|0:0,0:0:0:0:
356,184,124670,2,0,L|364:108,2,60.0000022888184,0|0|2,0:0|0:0|0:0,0:0:0:0:
300,292,125144,1,0,0:0:0:0:
288,312,125460,5,0,0:0:0:0:
164,336,125618,2,0,P|100:256|116:168,1,176.000005371094,8|0,0:0|0:0,0:0:0:0:
212,232,126091,1,8,0:0:0:0:
260,128,126249,1,10,0:0:0:0:
356,184,126407,1,8,0:0:0:0:
396,76,126565,6,0,P|384:32|360:-8,1,88.000002685547,4|0,0:0|0:0,0:0:0:0:
226,47,126881,2,0,P|238:89|260:128,1,88.000002685547,8|0,0:0|0:0,0:0:0:0:
356,184,127196,5,0,0:0:0:0:
356,184,127354,1,0,0:0:0:0:
154,166,127512,2,0,P|178:203|212:232,1,88.000002685547,8|0,0:0|0:0,0:0:0:0:
356,184,127828,5,0,0:0:0:0:
356,184,127986,1,0,0:0:0:0:
216,328,128144,2,0,P|256:345|299:352,1,88.000002685547,8|0,0:0|0:0,0:0:0:0:
356,184,128460,5,0,0:0:0:0:
356,184,128618,1,0,0:0:0:0:
312,52,128775,2,0,P|268:43|225:46,1,88.000002685547,8|0,0:0|0:0,0:0:0:0:
156,168,129091,6,0,P|199:170|242:162,1,88.000002685547
423,128,129407,2,0,P|393:160|356:184,1,88.000002685547,8|0,0:0|0:0,0:0:0:0:
216,328,129723,5,0,0:0:0:0:
360,296,129881,1,0,0:0:0:0:
240,161,130039,2,0,P|221:114|218:74,1,88.000002685547,8|0,0:0|0:0,0:0:0:0:
424,128,130354,5,0,0:0:0:0:
360,296,130512,1,0,0:0:0:0:
208,236,130670,2,0,P|171:200|153:164,1,88.000002685547,8|0,0:0|0:0,0:0:0:0:
356,184,130986,5,0,0:0:0:0:
360,296,131144,1,0,0:0:0:0:
216,328,131302,2,0,P|168:309|137:283,1,88.000002685547,8|0,0:0|0:0,0:0:0:0:
240,160,131618,6,0,B|272:156|272:156|304:72|388:72,1,176.000005371094,0|8,0:0|0:0,0:0:0:0:
448,184,132091,2,0,P|449:235|441:276,1,88.000002685547
264,332,132407,2,0,P|262:280|270:239,1,88.000002685547,0|8,0:0|0:0,0:0:0:0:
376,72,132723,6,0,P|368:148|360:248,1,176.000005371094
288,332,133196,1,8,0:0:0:0:
240,160,133354,1,0,0:0:0:0:
240,160,133433,1,0,0:0:0:0:
240,160,133512,2,0,L|136:168,1,88.000002685547
72,292,133828,2,0,L|159:285,1,88.000002685547,8|0,0:0|0:0,0:0:0:0:
360,247,134144,6,0,P|366:159|376:72,1,176.000005371094,4|8,0:0|0:0,0:0:0:0:
240,160,134618,1,0,0:0:0:0:
240,160,134697,1,0,0:0:0:0:
240,160,134775,2,0,L|152:164,2,88.000002685547,0|0|8,0:0|0:0|0:0,0:0:0:0:
144,72,135249,6,0,P|64:136|84:220,1,176.000005371094
160,284,135723,2,0,L|247:287,1,88.000002685547,8|0,0:0|0:0,0:0:0:0:
360,248,136039,1,0,0:0:0:0:
240,160,136196,1,8,0:0:0:0:
248,288,136354,1,8,0:0:0:0:
352,112,136512,1,8,0:0:0:0:
460,248,136670,6,0,L|508:336,1,88.000002685547,4|0,0:0|0:0,0:0:0:0:
352,112,136986,2,0,L|336:20,1,88.000002685547,8|0,0:0|0:0,0:0:0:0:
240,160,137302,1,0,0:0:0:0:
360,248,137460,1,0,0:0:0:0:
464,140,137618,2,0,L|500:52,1,88.000002685547,8|0,0:0|0:0,0:0:0:0:
360,248,137933,6,0,L|360:336,1,88.000002685547
240,160,138249,2,0,L|204:56,1,88.000002685547,8|0,0:0|0:0,0:0:0:0:
352,112,138565,1,0,0:0:0:0:
352,112,138723,1,0,0:0:0:0:
360,248,138881,2,0,P|321:268|273:283,1,88.000002685547,8|0,0:0|0:0,0:0:0:0:
129,171,139196,6,0,P|152:87|239:41,1,176.000005371094,0|8,0:0|0:0,0:0:0:0:
352,112,139670,1,0,0:0:0:0:
240,160,139828,1,0,0:0:0:0:
348,228,139986,1,0,0:0:0:0:
444,172,140144,2,0,P|468:127|466:92,1,88.000002685547,8|0,0:0|0:0,0:0:0:0:
328,28,140460,5,2,0:0:0:0:
292,108,140617,1,0,0:0:0:0:
256,188,140775,1,8,0:0:0:0:
220,269,140933,1,0,0:0:0:0:
160,134,141091,2,0,L|120:46,1,88.000002685547
256,188,141407,1,8,0:0:0:0:
256,188,141723,6,0,B|328:208|328:208|400:132,1,176.000005371094,0|8,0:0|0:0,0:0:0:0:
332,28,142196,2,0,P|280:24|232:32,1,88.000002685547
168,152,142512,2,0,P|144:189|113:220,1,88.000002685547,0|8,0:0|0:0,0:0:0:0:
68,44,142828,2,0,P|117:49|165:70,1,88.000002685547
256,188,143144,5,0,0:0:0:0:
140,328,143302,1,8,0:0:0:0:
116,220,143460,1,0,0:0:0:0:
244,296,143618,2,0,P|288:296|340:284,1,88.000002685547
440,244,143933,1,8,0:0:0:0:
399,133,144091,1,0,0:0:0:0:
399,133,144170,1,0,0:0:0:0:
399,133,144249,6,0,P|335:197|244:180,1,176.000005371094,4|0,0:0|0:0,0:0:0:0:
160,168,144723,1,0,0:0:0:0:
301,120,144881,2,0,P|334:198|293:273,1,176.000005371094,8|0,0:0|0:0,0:0:0:0:
248,368,145354,1,0,0:0:0:0:
388,316,145512,6,0,P|413:280|431:240,1,88.000002685547,0|10,0:0|0:0,2:0:0:0:
232,196,145828,2,0,P|206:231|188:271,1,88.000002685547,10|10,0:0|0:0,0:0:0:0:
304,272,146144,6,0,L|336:216,1,44.0000013427735
344,132,146302,2,0,L|300:120,1,44.0000013427735
192,112,146460,2,0,L|192:68,1,44.0000013427735
304,24,146618,2,0,L|352:24,1,44.0000013427735
440,92,146775,6,0,P|448:156|364:236,1,176.000005371094,4|0,0:0|0:0,0:0:0:0:
232,196,147407,2,0,P|180:232|168:292,1,120.000004577637,2|0,0:0|0:0,0:0:0:0:
310,320,148039,2,0,P|360:288|376:232,1,120.000004577637
280,124,148670,2,0,P|222:110|171:138,1,120.000004577637,2|0,0:0|0:0,0:0:0:0:
200,280,149302,6,0,B|224:304|224:304|376:144,1,240.000009155274,0|2,0:0|0:0,0:0:0:0:
152,48,150565,2,0,P|93:51|51:92,2,120.000004577637,0|0|2,0:0|0:0|0:0,0:0:0:0:
456,112,151828,6,0,P|414:153|355:156,1,120.000004577637
256,72,152460,1,2,0:0:0:0:
256,304,153091,1,0,0:0:0:0:
152,192,153407,1,0,0:0:0:0:
152,192,153723,5,10,0:0:0:0:
231,191,153880,1,10,0:0:0:0:
311,191,154038,1,10,0:0:0:0:
393,192,154196,1,10,0:0:0:0:
376,112,154354,6,0,L|351:16,1,88.000002685547,14|0,0:0|0:0,0:0:0:0:
311,191,154670,1,0,0:0:0:0:
295,111,154828,6,0,L|270:15,1,88.000002685547,14|0,0:0|0:0,0:0:0:0:
231,191,155144,1,0,0:0:0:0:
214,111,155302,6,0,L|189:15,1,88.000002685547,14|0,0:0|0:0,0:0:0:0:
152,192,155618,1,0,0:0:0:0:
311,191,155775,5,10,0:0:0:0:
248,272,155933,1,10,0:0:0:0:
295,111,156091,1,10,0:0:0:0:
248,272,156249,1,0,0:0:0:0:
264,352,156881,6,0,P|356:348|436:304,1,176.000005371094,4|8,0:0|0:0,0:0:0:0:
496,192,157354,1,0,0:0:0:0:
368,236,157512,2,0,P|328:248|283:257,1,88.000002685547
496,192,157828,1,8,0:0:0:0:
387,139,157986,6,0,P|300:142|222:182,1,176.000005371094,4|0,0:0|0:0,0:0:0:0:
92,264,158460,2,0,P|87:296|96:368,1,88.000002685547,8|0,0:0|0:0,0:0:0:0:
223,182,158775,2,0,P|227:149|219:78,1,88.000002685547
92,180,159091,1,8,0:0:0:0:
253,258,159249,1,0,0:0:0:0:
387,140,159407,6,0,P|391:107|383:36,1,88.000002685547,4|0,0:0|0:0,0:0:0:0:
223,182,159723,1,8,0:0:0:0:
404,216,159881,6,0,P|436:220|508:212,1,88.000002685547,4|0,0:0|0:0,0:0:0:0:
292,328,160196,1,0,0:0:0:0:
300,132,160354,6,0,P|224:88|144:132,1,176.000005371094,8|0,0:0|0:0,0:0:0:0:
92,264,160828,1,0,0:0:0:0:
224,268,160986,2,0,P|230:222|223:180,1,88.000002685547,8|0,0:0|0:0,0:0:0:0:
336,36,161302,2,0,P|376:57|406:88,1,88.000002685547
408,216,161618,1,8,0:0:0:0:
256,96,161775,6,0,P|169:109|134:194,1,176.000005371094,4|0,0:0|0:0,0:0:0:0:
296,300,162249,2,0,P|340:304|388:300,1,88.000002685547,8|0,0:0|0:0,0:0:0:0:
196,256,162565,5,0,0:0:0:0:
196,256,162723,1,0,0:0:0:0:
408,216,162881,2,0,P|438:183|464:143,1,88.000002685547,8|0,0:0|0:0,0:0:0:0:
280,208,163196,5,0,0:0:0:0:
280,208,163354,1,0,0:0:0:0:
428,72,163512,2,0,P|384:24|276:32,1,176.000005371094,8|0,0:0|0:0,0:0:0:0:
336,120,163986,1,0,0:0:0:0:
192,100,164144,1,8,0:0:0:0:
196,256,164302,6,0,P|272:304|352:272,1,176.000005371094,4|0,0:0|0:0,0:0:0:0:
460,152,164775,2,0,P|447:109|425:66,1,88.000002685547,8|0,0:0|0:0,0:0:0:0:
464,264,165091,5,0,0:0:0:0:
464,264,165249,1,0,0:0:0:0:
336,120,165407,2,0,P|303:90|266:66,1,88.000002685547,8|0,0:0|0:0,0:0:0:0:
400,220,165723,5,0,0:0:0:0:
400,220,165881,1,0,0:0:0:0:
232,156,166039,2,0,P|188:148|140:147,1,88.000002685547,8|0,0:0|0:0,0:0:0:0:
324,208,166354,5,0,0:0:0:0:
324,208,166512,1,0,0:0:0:0:
144,236,166670,2,0,P|104:255|65:284,1,88.000002685547,8|0,0:0|0:0,0:0:0:0:
208,340,166986,6,0,P|256:347|304:340,1,88.000002685547
410,210,167302,2,0,P|367:202|324:208,1,88.000002685547,8|0,0:0|0:0,0:0:0:0:
144,236,167618,6,0,L|138:192,1,44.0000013427735,8|0,0:0|0:0,0:0:0:0:
128,68,167775,2,0,L|171:62,1,44.0000013427735
300,48,167933,2,0,L|305:91,1,44.0000013427735,8|0,0:0|0:0,0:0:0:0:
324,208,168091,2,0,L|256:192,1,44.0000013427735
100,136,168249,5,8,0:0:0:0:
352,132,168407,1,8,0:0:0:0:
216,232,168565,1,8,0:0:0:0:
228,20,168723,1,8,0:0:0:0:
216,232,168881,1,0,0:0:0:0:
100,136,169512,6,0,B|56:160|56:160|89:244|120:320,1,191.999994140625,4|8,0:0|0:0,0:0:0:0:
212,364,169986,1,0,0:0:0:0:
336,336,170144,2,0,P|348:288|347:241,1,95.9999970703126
356,132,170460,1,8,0:0:0:0:
216,232,170618,1,0,0:0:0:0:
216,232,170696,1,0,0:0:0:0:
216,232,170775,6,0,P|215:184|227:137,1,95.9999970703126
312,48,171091,2,0,P|377:40|468:48,1,143.999995605469,8|0,0:0|1:0,0:0:0:0:
484,132,171407,2,0,P|484:196|476:244,1,95.9999970703126
436,340,171723,2,0,P|364:347|292:342,1,143.999995605469,8|0,0:0|1:0,0:0:0:0:
220,288,172039,6,0,P|212:216|220:92,1,191.999994140625,0|8,0:0|0:0,0:0:0:0:
348,144,172512,1,0,0:0:0:0:
348,144,172591,1,0,0:0:0:0:
348,144,172670,2,0,P|351:191|348:239,1,95.9999970703126
296,352,172986,1,8,0:0:0:0:
440,352,173144,1,0,0:0:0:0:
432,196,173302,6,0,P|356:144|260:208,1,191.999994140625,0|8,0:0|0:0,0:0:0:0:
212,288,173775,1,0,0:0:0:0:
96,272,173933,2,0,P|72:230|61:183,1,95.9999970703126
160,108,174249,2,0,P|206:96|248:73,1,95.9999970703126,8|0,0:0|0:0,0:0:0:0:
348,240,174565,6,0,P|428:288|528:228,1,191.999994140625,4|8,0:0|0:0,0:0:0:0:
440,112,175039,1,0,0:0:0:0:
440,112,175118,1,0,0:0:0:0:
440,112,175196,1,0,0:0:0:0:
348,240,175354,1,0,0:0:0:0:
204,180,175512,2,0,P|156:184|111:200,1,95.9999970703126,8|0,0:0|0:0,0:0:0:0:
150,347,175828,6,0,P|208:273|204:180,1,191.999994140625,0|8,0:0|0:0,0:0:0:0:
148,40,176302,1,0,0:0:0:0:
148,40,176381,1,0,0:0:0:0:
148,40,176460,1,0,0:0:0:0:
204,180,176618,1,0,0:0:0:0:
392,172,176775,2,0,P|407:126|412:79,1,95.9999970703126,8|0,0:0|0:0,0:0:0:0:
296,196,177091,6,0,P|361:262|457:246,1,191.999994140625,0|8,0:0|0:0,0:0:0:0:
412,80,177565,1,0,0:0:0:0:
232,80,177723,2,0,P|181:68|144:36,1,95.9999970703126
296,196,178039,2,0,P|284:246|252:284,1,95.9999970703126,8|0,0:0|0:0,0:0:0:0:
148,348,178354,5,0,0:0:0:0:
52,240,178512,1,0,0:0:0:0:
192,164,178670,2,0,P|221:126|232:80,1,95.9999970703126,8|0,0:0|0:0,0:0:0:0:
69,123,178986,5,0,0:0:0:0:
160,248,179144,1,0,0:0:0:0:
232,80,179302,2,0,P|216:33|184:-1,1,95.9999970703126,8|0,0:0|0:0,0:0:0:0:
192,164,179618,6,0,B|262:164|262:164|310:132|310:132|374:132,2,191.999994140625,4|8|0,0:0|0:0|0:0,0:0:0:0:
69,123,180407,1,0,0:0:0:0:
52,240,180565,2,0,P|44:288|44:344,1,95.9999970703126,8|0,0:0|0:0,0:0:0:0:
183,259,180881,6,0,P|191:211|192:164,1,95.9999970703126
168,32,181196,1,8,0:0:0:0:
312,132,181354,1,0,0:0:0:0:
312,132,181433,1,0,0:0:0:0:
312,132,181512,2,0,P|359:139|407:140,1,95.9999970703126
348,228,181828,1,8,0:0:0:0:
464,80,181986,1,0,0:0:0:0:
308,40,182144,6,0,P|232:80|232:188,1,191.999994140625,0|8,0:0|0:0,0:0:0:0:
268,296,182618,1,0,0:0:0:0:
312,132,182775,1,0,0:0:0:0:
424,288,182933,1,0,0:0:0:0:
268,296,183091,2,0,P|212:293|144:271,1,95.9999970703126,8|0,0:0|0:0,0:0:0:0:
312,132,183407,6,0,P|400:120|484:176,1,191.999994140625,0|8,0:0|0:0,0:0:0:0:
424,288,183881,1,0,0:0:0:0:
424,288,183960,1,0,0:0:0:0:
424,288,184039,1,0,0:0:0:0:
268,296,184196,1,0,0:0:0:0:
140,172,184354,2,0,P|186:164|231:182,1,95.9999970703126,8|0,0:0|0:0,0:0:0:0:
388,208,184670,6,0,P|416:116|368:40,1,191.999994140625,4|8,0:0|0:0,0:0:0:0:
312,132,185144,1,0,0:0:0:0:
216,72,185302,2,0,P|176:46|128:45,2,95.9999970703126,0|0|8,0:0|0:0|0:0,0:0:0:0:
312,132,185775,1,0,0:0:0:0:
187,250,185933,6,0,P|152:217|140:172,1,95.9999970703126
128,44,186249,1,8,0:0:0:0:
304,36,186407,1,0,0:0:0:0:
340,36,186486,1,0,0:0:0:0:
376,36,186565,2,0,L|456:112,1,95.9999970703126
412,208,186881,1,8,0:0:0:0:
312,132,187039,1,0,0:0:0:0:
308,248,187196,6,0,P|377:310|469:298,1,191.999994140625,4|8,0:0|0:0,0:0:0:0:
512,176,187670,1,0,0:0:0:0:
402,117,187828,2,0,P|394:164|412:208,1,95.9999970703126
440,32,188144,2,0,P|393:23|349:41,1,95.9999970703126,8|0,0:0|0:0,0:0:0:0:
308,248,188460,6,0,P|238:310|146:298,1,191.999994140625,0|8,0:0|0:0,0:0:0:0:
88,188,188933,1,2,0:0:0:0:
296,136,189091,1,2,0:0:0:0:
140,32,189249,1,8,0:0:0:0:
208,208,189407,1,8,0:0:0:0:
236,52,189565,1,8,0:0:0:0:
36,88,189723,6,0,P|-16:176|8:268,1,191.999994140625,4|8,0:0|0:0,0:0:0:0:
416,265,190354,2,0,P|371:281|324:284,1,95.9999970703126
512,204,190670,1,8,0:0:0:0:
400,172,190828,6,0,P|416:280|488:320,1,191.999994140625,4|0,0:0|0:0,0:0:0:0:
512,204,191302,1,8,0:0:0:0:
464,84,191460,2,0,P|355:75|299:136,1,191.999994140625
308,248,191933,2,0,L|336:344,1,95.9999970703126,8|0,0:0|0:0,0:0:0:0:
180,192,192249,6,0,L|144:44,1,143.999995605469,8|0,0:0|1:0,0:0:0:0:
168,16,192565,2,0,L|216:208,1,191.999994140625,8|0,0:0|0:0,0:0:0:0:
228,344,193039,1,0,0:0:0:0:
72,296,193196,1,8,0:0:0:0:
97,141,193354,6,0,P|170:84|259:107,1,191.999994140625,4|0,0:0|0:0,0:0:0:0:
97,142,193828,1,8,0:0:0:0:
304,20,193986,2,0,P|352:96|312:188,1,191.999994140625,4|0,0:0|0:0,0:0:0:0:
252,300,194460,1,8,0:0:0:0:
252,300,194775,6,0,L|376:304,2,95.9999970703126,0|0|8,0:0|0:0|0:0,0:0:0:0:
128,288,195249,1,0,0:0:0:0:
152,144,195407,2,0,L|247:147,1,95.9999970703126
128,288,195723,1,8,0:0:0:0:
228,67,195881,6,0,P|312:101|313:192,1,191.999994140625,4|0,0:0|0:0,0:0:0:0:
172,216,196354,2,0,L|64:212,1,95.9999970703126,8|0,0:0|0:0,0:0:0:0:
313,192,196670,2,0,L|408:195,1,95.9999970703126
172,216,196986,1,8,0:0:0:0:
372,176,197144,1,0,0:0:0:0:
272,88,197302,6,0,B|232:64|204:96|222:158|222:158|252:240,1,191.999994140625,4|8,0:0|0:0,0:0:0:0:
296,340,197775,1,0,0:0:0:0:
424,336,197933,2,0,P|464:304|492:264,1,95.9999970703126
488,112,198249,1,8,0:0:0:0:
408,196,198407,1,0,0:0:0:0:
408,196,198486,1,0,0:0:0:0:
408,196,198565,5,0,0:0:0:0:
392,108,198723,1,10,0:0:0:0:
308,192,198881,1,10,0:0:0:0:
488,268,199039,1,8,0:0:0:0:
488,112,199196,1,8,0:0:0:0:
352,276,199354,1,8,0:0:0:0:
300,104,199512,1,8,0:0:0:0:
424,336,199670,1,8,0:0:0:0:
392,108,199848,6,0,P|308:16|244:32,1,191.999994140625,4|0,0:0|0:0,0:0:0:0:
104,264,200480,2,0,P|100:210|104:160,1,95.9999970703126
160,76,200795,1,0,0:0:0:0:
244,171,200953,2,4,P|336:180|392:108,1,191.999994140625,0|0,0:0|0:0,0:0:0:0:
392,107,201427,5,0,0:0:0:0:
354,18,201585,1,0,0:0:0:0:
284,84,201743,1,0,0:0:0:0:
244,171,201901,1,0,0:0:0:0:
236,266,202059,1,0,0:0:0:0:
236,266,202374,6,0,L|328:300,2,95.9999970703126,4|0|0,0:0|0:0|0:0,0:0:0:0:
132,260,202848,1,0,0:0:0:0:
244,171,203006,2,0,L|283:83,2,95.9999970703126,0|0|2,0:0|0:0|0:0,0:0:0:0:
136,156,203480,2,0,P|156:64|228:4,1,191.999994140625
376,64,203953,6,0,P|381:158|327:235,1,191.999994140625,10|0,0:0|0:0,0:0:0:0:
476,104,204427,1,10,0:0:0:0:
476,104,204506,1,10,0:0:0:0:
476,104,204585,1,10,0:0:0:0:
283,84,204901,6,0,P|264:120|244:172,1,95.9999970703126,4|0,0:0|0:0,0:0:0:0:
200,292,205216,1,2,0:0:0:0:
144,48,205848,1,2,0:0:0:0:
368,96,206321,6,0,L|340:136,2,47.9999985351563
470,103,206638,1,0,0:0:0:0:
505,190,206795,1,0,0:0:0:0:
465,274,206953,1,0,0:0:0:0:
382,323,207111,2,0,L|286:333,1,95.9999970703126
193,248,207427,5,14,0:0:0:0:
284,84,207743,1,0,0:0:0:0:
468,104,208059,1,0,0:0:0:0:
465,274,208374,1,0,0:0:0:0:
292,328,208690,5,8,0:0:0:0:
216,152,209006,1,4,0:0:0:0:
386,48,209322,5,8,0:0:0:0:
424,63,209400,1,8,0:0:0:0:
457,88,209479,1,8,0:0:0:0:
480,121,209558,1,8,0:0:0:0:
494,159,209637,1,8,0:0:0:0:
496,201,209716,1,8,0:0:0:0:
485,240,209795,1,8,0:0:0:0:
464,275,209874,1,8,0:0:0:0:
428,296,209933,6,0,P|324:296|300:224,1,191.999994140625,4|8,0:0|0:0,0:0:0:0:
152,84,210565,1,0,0:0:0:0:
280,92,210723,2,0,P|248:48|212:20,1,95.9999970703126,0|8,0:0|0:0,0:0:0:0:
236,164,211039,1,0,0:0:0:0:
236,164,211354,5,0,0:0:0:0:
112,156,211512,2,0,P|144:200|180:228,1,95.9999970703126,8|0,0:0|0:0,0:0:0:0:
312,272,211828,2,0,L|248:376,1,95.9999970703126
460,248,212144,2,0,L|524:144,1,95.9999970703126,8|0,0:0|0:0,0:0:0:0:
345,50,212460,6,0,P|257:75|236:164,1,191.999994140625,0|8,0:0|0:0,0:0:0:0:
312,272,212933,1,0,0:0:0:0:
168,272,213091,2,0,L|56:272,1,95.9999970703126
312,272,213407,1,8,0:0:0:0:
136,152,213565,6,0,B|112:136|112:136|200:100|280:144,1,191.999994140625,4|0,0:0|0:0,0:0:0:0:
416,216,214039,2,0,L|395:309,1,95.9999970703126,8|0,0:0|0:0,0:0:0:0:
212,316,214354,2,0,L|232:222,1,95.9999970703126
264,72,214670,1,8,0:0:0:0:
328,188,214828,1,0,0:0:0:0:
136,152,214986,6,0,B|88:152|88:152|140:224|84:300,1,191.999994140625,4|8,0:0|0:0,0:0:0:0:
232,224,215460,1,0,0:0:0:0:
354,85,215618,2,0,P|311:66|264:72,1,95.9999970703126
448,152,215933,1,8,0:0:0:0:
328,187,216091,2,0,P|332:280|405:338,1,191.999994140625
416,239,216565,6,0,L|312:279,1,107.999996704102,8|0,0:0|0:0,0:0:0:0:
249,318,216881,6,0,B|244:308|232:224,1,95.9999970703126
128,48,217196,2,0,B|145:142,1,95.9999970703126,8|0,0:0|0:0,0:0:0:0:
160,220,217511,5,0,0:0:0:0:
396,196,217670,2,0,L|300:196,1,95.9999970703126,8|0,0:0|0:0,0:0:0:0:
160,220,217986,5,0,0:0:0:0:
404,220,218143,2,0,L|307:210,1,95.9999970703126,2|0,0:0|0:0,0:0:0:0:
156,220,218459,5,0,0:0:0:0:
404,260,218617,2,0,L|312:225,1,95.9999970703126,8|0,0:0|0:0,0:0:0:0:
128,48,219091,6,0,B|160:88|224:108|296:72|296:72|320:56|336:28|384:28|412:64|404:104|360:128|332:96,1,360.000013732911,4|0,0:0|0:0,0:0:0:0:
256,196,221315,5,0,0:0:0:0:
248,204,222578,5,0,0:0:0:0:
240,212,223841,5,0,0:0:0:0:
232,220,225104,5,2,0:0:0:0:
224,228,226394,5,0,0:0:0:0:
216,236,227644,5,2,0:0:0:0:
175,58,228117,1,0,0:0:0:0:
345,113,228591,1,0,0:0:0:0:
392,248,230170,5,2,0:0:0:0:
345,113,231275,1,2,0:0:0:0:
160,280,232696,5,0,0:0:0:0:
140,84,233170,1,0,0:0:0:0:
316,180,233644,1,0,0:0:0:0:
60,48,234275,5,2,0:0:0:0:
49,122,234433,1,0,0:0:0:0:
99,179,234591,1,0,0:0:0:0:
175,178,234749,1,0,0:0:0:0:
224,120,234907,1,0,0:0:0:0:
211,45,235065,1,0,0:0:0:0:
256,192,235222,12,0,239012,0:0:0:0:
256,192,240117,5,2,0:0:0:0:
256,192,240275,12,2,243974,0:0:0:0:
116,344,245608,6,0,B|84:348|84:348|32:268|72:176,1,191.999994140625,4|8,0:0|0:0,0:0:0:0:
180,256,246081,1,0,0:0:0:0:
180,256,246160,1,0,0:0:0:0:
180,256,246239,2,0,P|224:268|276:268,1,95.9999970703126
156,128,246555,2,0,P|116:104|88:48,1,95.9999970703126,8|0,0:0|0:0,0:0:0:0:
371,152,246871,6,0,P|324:152|277:139,1,95.9999970703126
420,56,247186,1,8,0:0:0:0:
312,8,247344,1,0,0:0:0:0:
277,139,247502,6,0,P|269:186|253:231,1,95.9999970703126
208,28,247818,1,8,0:0:0:0:
332,40,247976,1,0,0:0:0:0:
156,128,248134,6,0,P|144:216|164:336,1,191.999994140625,0|8,0:0|0:0,0:0:0:0:
256,232,248608,1,0,0:0:0:0:
256,232,248686,1,0,0:0:0:0:
256,232,248765,2,0,P|303:218|360:236,1,95.9999970703126
272,140,249081,2,0,P|258:92|276:36,1,95.9999970703126,8|0,0:0|0:0,0:0:0:0:
432,40,249397,6,0,P|468:128|420:212,1,191.999994140625,0|8,0:0|0:0,0:0:0:0:
188,96,249871,2,0,P|269:52|354:89,1,191.999994140625
252,168,250344,1,8,0:0:0:0:
148,32,250502,1,0,0:0:0:0:
140,24,250581,1,0,0:0:0:0:
132,16,250660,6,0,P|94:100|144:184,1,191.999994140625,4|8,0:0|0:0,0:0:0:0:
188,96,251134,1,0,0:0:0:0:
304,172,251292,2,0,L|408:220,1,95.9999970703126
332,80,251608,1,8,0:0:0:0:
264,256,251765,1,0,0:0:0:0:
144,148,251923,6,0,L|64:76,1,95.9999970703126
240,188,252239,1,8,0:0:0:0:
240,188,252397,1,0,0:0:0:0:
408,96,252555,6,0,L|376:196,1,95.9999970703126
276,40,252871,1,8,0:0:0:0:
276,40,253029,1,0,0:0:0:0:
144,148,253186,6,0,B|128:188|128:188|136:244,1,95.9999970703126
296,272,253502,1,8,0:0:0:0:
200,328,253660,1,0,0:0:0:0:
268,176,253818,2,0,P|276:132|276:80,1,95.9999970703126
408,192,254134,2,0,P|408:240|401:287,1,95.9999970703126,8|0,0:0|0:0,0:0:0:0:
276,56,254450,6,0,P|323:56|369:71,1,95.9999970703126,4|0,0:0|0:0,0:0:0:0:
228,172,254765,1,8,0:0:0:0:
152,48,254923,1,0,0:0:0:0:
84,168,255081,2,0,P|87:222|106:270,1,95.9999970703126
228,172,255397,1,8,0:0:0:0:
240,126,255475,1,0,0:0:0:0:
223,82,255554,1,0,0:0:0:0:
184,55,255633,1,0,0:0:0:0:
136,40,255713,6,0,P|232:52|328:44,1,191.999994140625,4|8,0:0|0:0,0:0:0:0:
440,36,256186,1,0,0:0:0:0:
444,144,256344,2,0,P|444:168|440:248,1,95.9999970703126
248,288,256660,2,0,P|248:240|251:192,1,95.9999970703126,8|0,0:0|0:0,0:0:0:0:
352,196,256976,5,0,0:0:0:0:
352,196,257134,1,0,0:0:0:0:
180,127,257292,2,0,P|145:104|114:57,1,95.9999970703126,8|0,0:0|0:0,0:0:0:0:
112,252,257608,5,0,0:0:0:0:
112,252,257766,1,0,0:0:0:0:
260,132,257924,2,0,P|284:90|300:45,1,95.9999970703126,8|0,0:0|0:0,0:0:0:0:
352,184,258239,6,0,P|344:276|232:312,1,191.999994140625,0|8,0:0|0:0,0:0:0:0:
88,276,258713,1,0,0:0:0:0:
224,220,258871,2,0,P|248:168|260:108,1,95.9999970703126
384,88,259186,2,0,P|428:106|467:133,1,95.9999970703126,8|0,0:0|0:0,0:0:0:0:
284,28,259502,6,0,P|184:52|148:156,1,191.999994140625,0|8,0:0|0:0,0:0:0:0:
76,56,259976,1,0,0:0:0:0:
76,56,260055,1,0,0:0:0:0:
76,56,260134,1,0,0:0:0:0:
64,220,260292,1,0,0:0:0:0:
172,136,260450,1,8,0:0:0:0:
12,132,260608,1,0,0:0:0:0:
160,240,260765,6,0,B|232:296|232:296|356:296,1,191.999994140625,4|8,0:0|0:0,0:0:0:0:
440,256,261239,1,0,0:0:0:0:
324,204,261397,2,0,B|260:204|260:204|236:184,1,95.9999970703126
388,128,261713,2,8,B|452:128|452:128|476:148,1,95.9999970703126,8|0,0:0|0:0,0:0:0:0:
292,92,262029,6,0,P|192:84|128:172,1,191.999994140625,0|8,0:0|0:0,0:0:0:0:
235,183,262502,1,0,0:0:0:0:
248,284,262660,2,0,B|184:284|184:284|160:264,1,95.9999970703126
319,221,262976,1,8,0:0:0:0:
366,215,263054,1,0,0:0:0:0:
414,211,263133,1,0,0:0:0:0:
462,207,263212,1,0,0:0:0:0:
512,200,263292,6,0,B|416:212|416:212|372:128,1,191.999994140625,4|8,0:0|0:0,0:0:0:0:
332,40,263765,1,0,0:0:0:0:
272,224,263923,2,0,P|280:276|304:340,1,95.9999970703126
296,140,264239,2,0,P|244:148|180:172,1,95.9999970703126,8|0,0:0|0:0,0:0:0:0:
104,288,264555,6,0,P|104:240|112:192,1,95.9999970703126,0|8,0:0|0:0,0:0:0:0:
192,248,264871,1,8,0:0:0:0:
296,140,265029,1,8,0:0:0:0:
276,304,265186,1,8,0:0:0:0:
112,192,265344,1,8,0:0:0:0:
176,360,265502,1,8,0:0:0:0:
272,224,265660,1,8,0:0:0:0:
120,96,265818,6,0,P|32:136|24:224,1,191.999994140625,4|8,0:0|0:0,0:0:0:0:
391,149,266450,2,0,L|296:140,1,95.9999970703126
368,64,266765,1,8,0:0:0:0:
300,236,266923,6,0,P|217:196|209:104,1,191.999994140625,4|0,0:0|0:0,0:0:0:0:
64,32,267397,2,0,P|40:88|32:144,1,95.9999970703126,8|0,0:0|0:0,0:0:0:0:
32,232,267713,1,0,0:0:0:0:
164,112,267871,1,0,0:0:0:0:
160,256,268029,2,0,L|180:372,1,95.9999970703126,8|0,0:0|0:0,0:0:0:0:
416,212,268344,6,0,P|344:218|273:220,1,143.999995605469,12|0,0:0|1:0,0:0:0:0:
313,132,268660,2,0,P|344:213|300:325,1,191.999994140625,8|0,0:0|0:0,0:0:0:0:
140,204,269134,6,0,L|72:316,1,95.9999970703126,0|8,0:0|0:0,0:0:0:0:
72,128,269450,2,0,L|16:32,1,95.9999970703126,4|0,0:0|0:0,0:0:0:0:
240,236,269765,2,0,L|349:238,1,95.9999970703126,4|8,0:0|0:0,0:0:0:0:
448,72,270081,2,8,B|468:95|488:27|456:-8|404:-8|356:12|308:107|268:119|216:131|176:99|184:36|232:52,1,383.99998828125,4|0,0:0|0:0,0:0:0:0:
360,148,270871,6,0,B|363:200|363:200|339:236,1,95.9999970703126,4|0,0:0|0:0,0:0:0:0:
460,240,271186,1,8,0:0:0:0:
336,348,271344,1,0,0:0:0:0:
228,236,271502,2,0,B|204:200|204:200|207:147,2,95.9999970703126,0|0|8,0:0|0:0|0:0,0:0:0:0:
100,128,271976,6,0,P|156:48|260:51,1,191.999994140625,4|0,0:0|0:0,0:0:0:0:
384,112,272450,1,8,0:0:0:0:
340,24,272608,1,0,0:0:0:0:
252,180,272766,1,0,0:0:0:0:
420,204,272923,1,10,0:0:0:0:
296,104,273081,1,10,0:0:0:0:
372,276,273239,1,8,0:0:0:0:
151,218,273397,6,0,B|112:200|112:200|156:152|256:180,1,191.999994140625,4|8,0:0|0:0,0:0:0:0:
280,268,273871,1,0,0:0:0:0:
196,88,274029,2,0,P|144:88|72:108,1,95.9999970703126
252,180,274344,1,8,0:0:0:0:
424,52,274502,6,0,P|474:130|483:255,1,191.999994140625,4|0,0:0|0:0,0:0:0:0:
387,259,274976,1,10,0:0:0:0:
445,323,275134,1,0,0:0:0:0:
356,176,275291,1,0,0:0:0:0:
288,260,275450,1,0,0:0:0:0:
248,84,275608,1,12,0:0:0:0:
252,180,275765,1,0,0:0:0:0:
136,144,275923,6,0,B|92:144|92:144|40:112,2,95.9999970703126,4|0|8,0:0|0:0|0:0,0:0:0:0:
252,180,276397,1,0,0:0:0:0:
364,120,276555,2,0,B|403:100|403:100|436:49,1,95.9999970703126
360,228,276871,1,8,0:0:0:0:
224,64,277029,6,0,P|140:120|136:216,1,191.999994140625,4|0,0:0|0:0,0:0:0:0:
184,284,277502,1,8,0:0:0:0:
252,180,277660,1,0,0:0:0:0:
252,180,277739,1,0,0:0:0:0:
252,180,277818,1,0,0:0:0:0:
360,228,277976,1,10,0:0:0:0:
368,120,278134,1,10,0:0:0:0:
280,304,278292,1,10,0:0:0:0:
131,204,278450,6,0,P|144:112|224:64,1,191.999994140625,4|8,0:0|0:0,0:0:0:0:
464,184,279081,2,0,P|467:136|466:88,1,95.9999970703126
360,280,279397,2,0,P|407:283|455:282,1,95.9999970703126,8|0,0:0|0:0,0:0:0:0:
212,348,279713,6,0,P|258:355|306:358,1,95.9999970703126,4|8,0:0|3:0,0:0:0:0:
325,341,279950,1,8,3:0:0:0:
339,322,280029,1,4,3:0:0:0:
354,303,280108,1,0,0:0:0:0:
360,280,280186,1,8,3:0:0:0:
352,188,280344,6,0,P|304:189|252:208,1,95.9999970703126,12|10,3:0|0:0,0:0:0:0:
240,220,280581,1,2,0:0:0:0:
222,236,280660,1,4,3:0:0:0:
207,255,280739,1,0,0:0:0:0:
195,275,280817,1,0,0:0:0:0:
187,298,280896,1,0,0:0:0:0:
176,320,280976,6,0,P|76:340|16:260,1,191.999994140625,4|0,0:0|0:0,0:0:0:0:
272,184,281608,2,0,L|304:88,2,95.9999970703126
159,179,282081,6,0,P|203:271|307:293,1,191.999994140625
372,240,282555,2,0,P|376:147|311:76,1,191.999994140625
272,184,283029,1,0,0:0:0:0:
208,92,283186,2,0,L|140:-4,1,95.9999970703126
88,108,283502,5,0,0:0:0:0:
160,180,283660,2,0,L|148:284,1,95.9999970703126
76,320,283976,1,0,0:0:0:0:
240,300,284134,2,0,L|342:322,1,95.9999970703126
372,240,284450,1,0,0:0:0:0:
272,184,284608,2,0,B|291:100|375:108|391:40,1,191.999994140625
424,172,285081,6,0,B|392:164|392:164|260:44|260:44|216:44,1,240.000009155274,0|8,0:0|0:0,0:0:0:0:
204,44,286029,6,0,L|80:44,1,120.000004577637,4|0,0:0|0:0,0:0:0:0:
272,208,286660,2,0,L|332:252,1,60.0000022888184
256,120,286976,1,0,0:0:0:0:
144,124,287134,6,0,P|115:176|97:233,1,120.000004577637
156,352,287607,2,0,P|184:299|202:242,1,120.000004577637
244,120,288081,1,0,0:0:0:0:
296,212,288239,2,0,L|312:296,1,60.0000022888184
388,168,288555,6,0,L|464:132,2,60.0000022888184
296,212,289029,1,0,0:0:0:0:
244,120,289186,6,0,L|240:60,2,60.0000022888184
296,212,289660,1,0,0:0:0:0:
296,212,289976,1,0,0:0:0:0:
304,332,290134,6,0,P|382:295|418:217,1,176.000005371094,8|8,0:0|0:0,0:0:0:0:
424,172,290529,1,8,0:0:0:0:
418,128,290607,1,8,0:0:0:0:
398,90,290686,1,8,0:0:0:0:
364,61,290765,1,8,0:0:0:0:
323,47,290844,1,8,0:0:0:0:
279,50,290923,1,8,0:0:0:0:
239,68,291002,1,8,0:0:0:0:
208,100,291081,6,0,P|220:188|316:208,1,176.000005371094,4|8,0:0|0:0,0:0:0:0:
96,72,291713,1,0,0:0:0:0:
92,172,291871,2,0,L|100:284,1,88.000002685547,0|8,0:0|0:0,0:0:0:0:
208,100,292186,1,0,0:0:0:0:
208,100,292502,5,0,0:0:0:0:
336,128,292660,2,0,B|392:156|409:124|424:92|504:124,1,176.000005371094,8|0,0:0|0:0,0:0:0:0:
488,236,293133,1,0,0:0:0:0:
376,252,293292,2,0,B|319:280|302:248|287:216|208:247,1,176.000005371094,8|0,0:0|0:0,0:0:0:0:
104,292,293765,5,0,0:0:0:0:
76,164,293923,2,8,P|76:120|80:72,1,88.000002685547,8|0,0:0|0:0,0:0:0:0:
202,131,294239,2,0,P|244:119|288:118,1,88.000002685547
208,248,294555,1,8,0:0:0:0:
353,178,294713,6,0,P|372:86|312:29,1,176.000005371094,4|0,0:0|0:0,0:0:0:0:
432,8,295186,2,0,P|464:72|456:188,1,176.000005371094,8|0,0:0|0:0,0:0:0:0:
353,178,295660,1,0,0:0:0:0:
404,264,295818,2,0,P|438:290|479:307,1,88.000002685547,8|0,0:0|0:0,0:0:0:0:
372,88,296134,6,0,P|287:65|203:84,1,176.000005371094,4|8,0:0|0:0,0:0:0:0:
404,264,296765,1,0,0:0:0:0:
472,172,296923,2,0,L|496:72,1,88.000002685547,0|8,0:0|0:0,0:0:0:0:
352,176,297239,1,0,0:0:0:0:
352,176,297555,5,0,0:0:0:0:
276,312,297713,2,0,P|191:331|107:308,1,176.000005371094,8|0,0:0|0:0,0:0:0:0:
76,188,298186,1,0,0:0:0:0:
196,216,298344,2,0,P|200:132|160:52,1,176.000005371094,8|0,0:0|0:0,0:0:0:0:
312,44,298818,5,10,0:0:0:0:
408,140,298976,2,0,L|460:236,1,88.000002685547
416,40,299292,1,2,0:0:0:0:
320,136,299450,2,0,L|268:232,1,88.000002685547
160,52,299765,1,10,0:0:0:0:
160,52,300081,5,0,0:0:0:0:
72,160,300239,2,0,P|60:248|72:352,1,176.000005371094,4|0,0:0|0:0,0:0:0:0:
172,228,300713,1,8,0:0:0:0:
256,304,300871,1,8,0:0:0:0:
340,228,301029,1,8,0:0:0:0:
212,152,301186,6,0,L|112:80,1,88.000002685547,4|0,0:0|0:0,0:0:0:0:
256,228,301502,1,0,0:0:0:0:
300,152,301660,2,0,L|371:100,1,88.000002685547,4|0,0:0|0:0,0:0:0:0:
256,228,301976,1,0,0:0:0:0:
256,76,302134,1,0,0:0:0:0:
256,304,302292,1,4,0:0:0:0:
256,192,302450,12,0,306397,0:0:0:0:
