osu file format v11

[General]
AudioFilename: AO OP.mp3
AudioLeadIn: 1500
PreviewTime: 88636
Countdown: 0
SampleSet: Normal
StackLeniency: 0.4
Mode: 0
LetterboxInBreaks: 0

[Editor]
DistanceSpacing: 1.5
BeatDivisor: 4
GridSize: 4

[Metadata]
Title:Aoi Kiseki -Opening size-
TitleUnicode:碧い軌跡 Aoi Kiseki -Opening size-
Artist:Kotera Kanako
ArtistUnicode:小寺可南子
Creator:jonathanlfj
Version:Nightmare
Source:THE LEGEND OF HEROES: AO NO KISEKI
Tags:Falcom Sound Team jdk Game Opening Kurosanyan
BeatmapID:188339
BeatmapSetID:39735

[Difficulty]
HPDrainRate:7
CircleSize:4
OverallDifficulty:7
ApproachRate:8
SliderMultiplier:2
SliderTickRate:1

[Events]
//Background and Video events
Video,-843,"AO OP1.flv"
0,0,"BG4.jpg"
//Break Periods
2,6357,10800
2,17143,20744
//Storyboard Layer 0 (Background)
//Storyboard Layer 1 (Fail)
//Storyboard Layer 2 (Pass)
//Storyboard Layer 3 (Foreground)
//Storyboard Sound Samples
//Background Colour Transformations
3,100,163,162,255

[TimingPoints]
764,337.078651685393,4,2,1,15,1,0
764,-200,4,2,1,15,0,0
11550,-200,4,2,1,15,0,0
21494,-200,4,2,1,15,0,0
27730,337.078651685393,4,2,1,15,1,8
27962,337.078651685393,4,1,1,50,1,0
38074,-133.333333333333,4,2,1,50,0,0
38748,-100,4,1,1,50,0,0
44647,-133.333333333333,4,2,1,75,0,0
46838,-133.333333333333,4,1,1,50,0,0
47006,-133.333333333333,4,2,1,75,0,0
49535,-133.333333333333,4,1,1,50,0,0
49703,-133.333333333333,4,2,1,75,0,0
52231,-133.333333333333,4,1,1,50,0,0
52400,-133.333333333333,4,2,1,75,0,0
54928,-100,4,1,1,50,0,0
66051,-133.333333333333,4,2,1,75,0,0
71108,-133.333333333333,4,1,1,50,0,0
71276,-133.333333333333,4,2,1,75,0,0
75153,-133.333333333333,4,2,1,55,0,0
75658,-133.333333333333,4,2,1,75,0,0
76501,-133.333333333333,4,1,1,50,0,0
76669,-133.333333333333,4,2,1,75,0,0
80883,-100,4,2,1,75,0,0
81894,-100,4,1,1,50,0,0
86613,-100,4,2,1,75,0,0
87119,-100,4,1,1,50,0,0
87203,-100,4,2,1,40,0,0
88299,-100,4,1,1,50,0,0
88636,-100,4,1,1,50,0,1
111557,-100,4,1,1,20,0,0
112063,-100,4,1,1,50,0,0

[Colours]
Combo1 : 255,60,60
Combo2 : 47,242,56
Combo3 : 199,197,197
Combo4 : 154,252,252
SliderBorder : 255,255,255

[HitObjects]
104,240,764,54,0,B|112:152|208:136,1,150,2|0,0:0|0:0,0:0:0
296,140,1438,1,2,0:0:0
376,200,1606,1,0,0:0:0
296,140,1775,1,0,0:0:0
376,200,1943,1,2,0:0:0
376,200,2280,6,0,B|428:160,2,50,0|0|0,0:0|0:0|0:0,0:0:0
220,328,2955,1,2,0:0:0
220,328,3123,1,0,0:0:0
220,328,3292,2,0,B|164:320|144:252,1,100,0|0,0:0|0:0,0:0:0
152,164,3797,1,2,0:0:0
232,104,3966,1,0,0:0:0
232,104,4303,5,0,0:0:0
332,120,4471,1,2,0:0:0
256,32,4640,1,0,0:0:0
308,192,4808,1,0,0:0:0
308,192,5146,5,2,0:0:0
256,276,5314,1,0,0:0:0
204,192,5483,1,0,0:0:0
256,300,5651,1,0,0:0:0
308,192,5820,1,2,0:0:0
256,324,5988,1,0,0:0:0
204,192,6157,1,2,0:0:0
472,168,11550,6,0,B|476:260|388:288,1,150,2|0,0:0|0:0,0:0:0
296,288,12224,1,2,0:0:0
196,288,12393,1,0,0:0:0
248,368,12561,1,0,0:0:0
244,204,12730,1,2,0:0:0
244,204,13067,2,0,B|192:184|136:212,1,100
300,120,13741,5,2,0:0:0
300,120,13910,1,0,0:0:0
300,120,14078,2,0,B|352:104|400:128,1,100,0|0,0:0|0:0,0:0:0
344,212,14584,1,2,0:0:0
244,204,14752,1,0,0:0:0
244,204,15089,5,0,0:0:0
196,116,15258,1,2,0:0:0
176,276,15426,1,0,0:0:0
100,132,15595,1,0,0:0:0
100,132,15932,6,0,P|132:184,1,50,2|0,0:0|0:0,0:0:0
385,174,16269,2,0,P|412:132,1,50,0|0,0:0|0:0,0:0:0
256,192,16606,2,0,P|256:252,2,50,2|0|2,0:0|0:0|0:0,0:0:0
256,144,21494,5,0,0:0:0
256,240,21662,1,2,0:0:0
208,160,21831,1,0,0:0:0
304,224,21999,1,2,0:0:0
176,192,22168,1,0,0:0:0
336,192,22337,1,2,0:0:0
160,240,22505,1,2,0:0:0
352,160,22674,1,2,0:0:0
256,192,22842,12,0,27688,0:0:0
320,72,27962,5,4,0:0:0
236,128,28130,1,0,0:0:0
236,128,28214,1,0,0:0:0
236,128,28299,2,0,B|212:176|236:236,1,100,8|0,0:0|0:0,0:0:0
296,304,28636,2,0,B|184:356|92:272,1,200,0|8,0:0|0:0,0:0:0
68,196,29141,5,0,0:0:0
132,60,29310,1,0,0:0:0
8,144,29478,1,0,0:0:0
144,208,29647,2,0,B|248:252,2,100,8|0|0,0:0|0:0|0:0,0:0:0
132,60,30153,1,0,0:0:0
132,60,30321,1,8,0:0:0
132,60,30490,6,0,B|248:40|336:124,1,200
384,184,30995,2,0,B|428:148|420:80,2,100,8|0|0,0:0|0:0|0:0,0:0:0
284,204,31501,1,0,0:0:0
284,204,31585,1,0,0:0:0
284,204,31669,2,0,B|180:224,1,100,8|0,0:0|0:0,0:0:0
40,252,32006,5,0,0:0:0
144,144,32175,1,0,0:0:0
120,292,32344,1,8,0:0:0
52,160,32512,1,0,0:0:0
144,144,32681,2,0,B|252:124,1,100
340,12,33018,2,0,B|220:36,1,100,8|0,0:0|0:0,0:0:0
144,144,33355,5,4,0:0:0
244,224,33523,1,0,0:0:0
244,224,33608,1,0,0:0:0
244,224,33692,2,0,B|256:280|304:300,1,100,8|0,0:0|0:0,0:0:0
344,208,34029,2,0,B|392:232|404:288|404:288|432:240|484:232,1,200,0|8,0:0|0:0,0:0:0
496,332,34535,1,0,0:0:0
304,300,34703,6,0,B|248:312|224:356,2,100,0|0|8,0:0|0:0|0:0,0:0:0
404,288,35209,1,0,0:0:0
444,196,35377,1,0,0:0:0
344,208,35546,1,0,0:0:0
344,208,35714,1,8,0:0:0
344,208,35883,6,0,B|216:232|192:120,1,200
292,120,36388,2,0,B|396:120,2,100,8|0|0,0:0|0:0|0:0,0:0:0
92,120,36894,1,0,0:0:0
92,120,36978,1,0,0:0:0
92,120,37063,2,0,B|64:164|88:216,1,100,8|0,0:0|0:0,0:0:0
176,268,37400,6,0,B|204:220|176:172,1,100
176,171,37653,1,0,0:0:0
176,169,37737,2,0,B|200:124|264:124,1,100,8|0,0:0|0:0,0:0:0
360,140,38074,5,0,1:0:0
392,148,38158,1,0,0:0:0
420,168,38242,1,0,0:0:0
436,200,38327,1,0,0:0:0
436,236,38411,1,8,1:0:0
424,268,38495,1,0,0:0:0
396,292,38579,1,0,0:0:0
360,300,38664,1,0,0:0:0
324,292,38748,6,0,B|236:236|128:284,1,200,4|8,0:0|0:0,0:0:0
44,332,39254,1,0,0:0:0
44,332,39422,2,0,B|24:284|44:232,1,100
140,72,39759,2,0,B|160:124|140:172,1,100,8|0,0:0|0:0,0:0:0
228,124,40096,5,0,0:0:0
328,124,40265,1,0,0:0:0
228,172,40433,1,8,0:0:0
328,80,40602,1,0,0:0:0
372,208,40770,2,0,B|396:264|360:312,2,100,0|0|8,0:0|0:0|0:0,0:0:0
284,248,41276,5,0,0:0:0
284,248,41360,1,0,0:0:0
284,248,41445,2,0,B|224:248|196:300,1,100
64,264,41782,2,0,B|124:260|148:212,1,100,8|0,0:0|0:0,0:0:0
184,120,42119,2,0,B|108:44,2,100,0|0|8,0:0|0:0|0:0,0:0:0
256,192,42624,1,0,0:0:0
356,192,42793,5,0,0:0:0
256,292,42961,1,0,0:0:0
156,192,43130,1,8,0:0:0
256,92,43299,1,0,0:0:0
184,264,43467,5,0,0:0:0
328,264,43636,1,0,0:0:0
328,120,43804,1,8,0:0:0
184,120,43973,1,0,0:0:0
256,192,44141,5,4,0:0:0
256,192,44647,6,0,B|240:152|268:104,1,74.9999977648259,2|0,0:0|0:0,0:0:0
424,24,44984,2,0,B|396:52|356:56,1,75.0000028610231,0|0,0:0|0:0,0:0:0
424,148,45321,2,0,B|480:216,2,74.9999977648259,2|0|0,0:0|0:0|0:0,0:0:0
376,252,45827,1,0,0:0:0
376,252,45995,2,0,B|432:324,1,75.0000028610231
316,352,46332,2,0,B|232:364|176:300,1,149.999995529652,2|0,0:0|0:0,0:0:0
136,200,46838,1,4,0:0:0
136,200,47344,6,0,B|192:144,1,75.0000028610231,2|0,0:0|0:0,0:0:0
100,76,47681,2,0,B|46:129,1,75.0000028610231,0|0,0:0|0:0,0:0:0
40,240,48018,2,0,B|44:280|88:296,1,74.9999977648259,2|0,0:0|0:0,0:0:0
196,296,48355,1,0,0:0:0
196,296,48523,2,0,B|236:272|248:224,2,74.9999977648259
136,200,49029,2,0,B|172:120|272:128,1,149.999995529652,2|0,0:0|0:0,0:0:0
364,160,49535,5,4,0:0:0
452,88,49703,1,0,0:0:0
348,48,49872,1,0,0:0:0
364,160,50040,1,0,0:0:0
380,272,50209,2,0,B|392:360,1,74.9999977648259,2|0,0:0|0:0,0:0:0
260,284,50546,2,0,B|248:188,1,74.9999977648259
236,96,50883,6,0,B|208:64|152:72,2,74.9999977648259,2|0|0,0:0|0:0|0:0,0:0:0
108,120,51388,1,0,0:0:0
108,120,51473,1,0,0:0:0
108,120,51557,2,0,B|80:88|96:40,1,74.9999977648259,2|0,0:0|0:0,0:0:0
180,148,51894,2,0,B|168:192|108:196,1,74.9999977648259
12,192,52231,5,4,0:0:0
256,328,52568,1,0,0:0:0
256,328,52737,1,2,0:0:0
500,192,53074,1,0,0:0:0
256,56,53411,6,0,B|199:124|256:192|256:192|313:260|256:328,1,299.999991059304,2|0,0:0|0:0,0:0:0
208,260,54254,1,2,0:0:0
304,124,54422,1,0,0:0:0
152,124,54591,1,2,0:0:0
360,260,54759,1,0,0:0:0
152,124,54928,5,4,0:0:0
84,52,55096,2,0,B|48:92|56:148,2,100,0|8|0,0:0|0:0|0:0,0:0:0
180,28,55602,1,0,0:0:0
256,92,55770,1,0,0:0:0
256,92,55855,1,0,0:0:0
256,92,55939,1,8,0:0:0
340,148,56108,6,0,B|436:212,1,100
304,232,56445,2,0,B|344:328,1,100,0|8,0:0|0:0,0:0:0
208,232,56782,2,0,B|168:328,1,100
172,148,57119,2,0,B|76:212,2,100,0|8|0,0:0|0:0|0:0,0:0:0
256,92,57624,5,4,0:0:0
356,76,57793,2,0,B|416:72|452:116,1,100,0|8,0:0|0:0,0:0:0
436,208,58130,2,0,B|380:192|344:252,1,100
328,276,58383,1,0,0:0:0
292,288,58467,2,0,B|236:292|212:232,1,100,0|8,0:0|0:0,0:0:0
216,156,58804,6,0,B|316:156,1,100
132,156,59141,2,0,B|132:48,1,100,0|8,0:0|0:0,0:0:0
132,236,59478,2,0,B|32:236,1,100
132,320,59815,2,0,B|208:308|216:236|216:236|288:236,1,200
436,236,60321,5,4,0:0:0
488,96,60490,1,0,0:0:0
364,176,60658,1,8,0:0:0
488,96,60827,1,0,0:0:0
364,176,60995,5,0,0:0:0
328,28,61164,1,0,0:0:0
268,164,61332,1,8,0:0:0
396,88,61501,1,0,0:0:0
248,76,61669,6,0,B|200:88|180:140|180:140|136:172|80:140,1,200,0|8,0:0|0:0,0:0:0
16,216,62175,2,0,B|72:256|152:252|152:252|208:284,1,200
202,280,62681,1,8,0:0:0
380,372,63018,5,0,0:0:0
380,272,63186,1,0,0:0:0
132,12,63523,1,0,0:0:0
132,112,63692,1,0,0:0:0
436,68,64029,1,0,0:0:0
336,68,64197,1,0,0:0:0
76,316,64535,1,0,0:0:0
176,316,64703,1,0,0:0:0
436,68,65040,6,0,B|332:68,1,100
236,172,65377,2,0,P|348:172,1,100
436,172,65714,1,4,0:0:0
436,324,66051,6,0,B|388:252|304:260,1,150.000005722046,2|0,0:0|0:0,0:0:0
148,264,66557,1,0,0:0:0
232,340,66726,1,0,0:0:0
220,180,66894,2,0,B|212:88|120:68,1,149.999995529652,2|0,0:0|0:0,0:0:0
108,180,67400,1,0,0:0:0
108,180,67568,2,0,B|44:232,2,74.9999977648259,2|0|0,0:0|0:0|0:0,0:0:0
220,180,68074,2,0,B|312:180,1,74.9999977648259,0|0,0:0|0:0,0:0:0
408,180,68411,5,2,0:0:0
400,216,68495,1,0,0:0:0
384,248,68579,1,0,0:0:0
356,276,68664,1,0,0:0:0
320,292,68748,2,0,B|236:292,2,74.9999977648259
132,292,69254,1,0,0:0:0
108,180,69422,5,2,0:0:0
116,144,69506,1,0,0:0:0
132,112,69591,1,0,0:0:0
160,84,69675,1,0,0:0:0
196,68,69759,2,0,B|280:68,2,74.9999977648259
384,68,70265,1,0,0:0:0
384,68,70433,6,0,B|372:152|288:176,1,149.999995529652,2|0,0:0|0:0,0:0:0
291,174,70939,1,0,0:0:0
292,288,71108,1,4,0:0:0
292,288,71613,6,0,B|208:288,2,74.9999977648259,2|0|0,0:0|0:0|0:0,0:0:0
404,288,72119,1,0,0:0:0
404,288,72203,1,0,0:0:0
404,288,72287,2,0,B|460:224|424:128,1,149.999995529652,2|0,0:0|0:0,0:0:0
368,52,72793,2,0,B|332:72|316:124,1,74.9999977648259
172,148,73130,2,0,B|212:124|228:72,1,74.9999977648259,2|0,0:0|0:0,0:0:0
116,52,73467,1,0,0:0:0
64,152,73636,5,0,0:0:0
72,188,73720,1,0,0:0:0
92,220,73804,2,0,B|136:256|192:252|192:252|220:296,1,149.999995529652,2|0,0:0|0:0,0:0:0
420,316,74310,2,0,B|376:280|320:284|320:284|292:240,1,149.999995529652,2|0,0:0|0:0,0:0:0
240,152,74815,1,0,0:0:0
240,152,74984,1,0,0:0:0
352,152,75153,5,2,0:0:0
364,188,75237,1,0,0:0:0
396,208,75321,1,2,0:0:0
432,208,75405,1,0,0:0:0
464,184,75490,1,0,0:0:0
472,148,75574,1,0,0:0:0
456,112,75658,2,0,B|432:84|432:36,1,74.9999977648259,2|0,0:0|0:0,0:0:0
320,28,75995,2,0,B|296:64|256:88,1,74.9999977648259
156,68,76332,5,0,0:0:0
156,68,76417,1,0,0:0:0
156,68,76501,2,0,B|152:128|196:164|196:164|164:204,1,149.999995529652,4|0,0:0|0:0,0:0:0
104,288,77006,1,0,0:0:0
104,288,77175,2,0,B|48:216,2,74.9999977648259,2|0|0,0:0|0:0|0:0,0:0:0
216,296,77681,6,0,B|252:248|252:248|304:248|340:216,1,149.999995529652,2|0,0:0|0:0,0:0:0
264,132,78186,1,0,0:0:0
376,116,78355,2,0,B|372:76|336:48,2,74.9999977648259,2|0|0,0:0|0:0|0:0,0:0:0
264,132,78860,1,0,0:0:0
228,132,78945,1,0,0:0:0
192,132,79029,1,0,0:0:0
156,132,79113,1,0,0:0:0
120,132,79197,6,0,B|120:216,2,74.9999977648259,2|0|0,0:0|0:0|0:0,0:0:0
120,20,79703,1,2,0:0:0
392,20,80040,1,2,0:0:0
256,228,80377,2,0,B|256:316,2,74.9999977648259,2|0|0,0:0|0:0|0:0,0:0:0
256,192,80799,1,0,0:0:0
256,144,80883,2,0,B|252:132|252:132|260:120|260:120|252:108|252:108|260:96|260:96|252:84|252:84|260:72|260:72|256:56,1,100
160,96,81220,5,2,0:0:0
352,160,81388,1,0,0:0:0
160,224,81557,1,2,0:0:0
352,288,81726,1,0,0:0:0
352,288,81894,6,0,B|456:248,1,100,4|0,0:0|0:0,0:0:0
352,160,82231,2,0,B|256:192,1,100,8|0,0:0|0:0,0:0:0
160,224,82568,1,0,0:0:0
184,128,82737,1,0,0:0:0
136,232,82905,1,8,0:0:0
166,112,83074,1,0,0:0:0
116,240,83242,6,0,B|136:296|188:316,1,100
148,96,83579,2,0,B|96:84|44:112,1,100,8|0,0:0|0:0,0:0:0
256,192,83917,2,0,B|292:156|288:100,2,100,0|0|8,0:0|0:0|0:0,0:0:0
324,264,84422,5,0,0:0:0
324,264,84506,1,0,0:0:0
324,264,84591,2,0,B|372:236|436:256,1,100,0|0,0:0|0:0,0:0:0
452,156,84928,2,0,B|404:136|388:84,1,100,8|0,0:0|0:0,0:0:0
288,100,85265,1,0,0:0:0
188,116,85433,1,0,0:0:0
280,156,85602,1,8,0:0:0
196,60,85770,1,0,0:0:0
244,200,85939,1,0,0:0:0
232,16,86108,1,0,0:0:0
192,216,86276,2,0,B|132:216|100:168,1,100,8|0,0:0|0:0,0:0:0
188,116,86613,5,2,0:0:0
188,116,86697,1,0,0:0:0
188,116,86782,1,0,0:0:0
188,116,86866,1,0,0:0:0
188,116,86950,2,0,B|280:156,1,100,0|4,0:0|0:0,0:0:0
316,172,87203,1,0,0:0:0
333,200,87287,1,0,0:0:0
333,236,87372,1,0,0:0:0
316,268,87456,1,0,0:0:0
286,287,87540,1,0,0:0:0
248,287,87624,5,0,0:0:0
218,269,87709,1,0,0:0:0
200,239,87793,1,0,0:0:0
168,222,87877,1,0,0:0:0
132,222,87961,1,0,0:0:0
102,242,88046,1,0,0:0:0
88,277,88130,1,0,0:0:0
95,313,88214,1,0,0:0:0
121,341,88299,2,0,B|172:332|172:332|200:376,1,100,4|0,0:0|0:0,0:0:0
268,224,88636,6,0,B|220:136,1,100
80,48,88973,2,0,B|140:160,1,100,8|0,0:0|0:0,0:0:0
316,128,89310,1,0,0:0:0
416,128,89478,1,0,0:0:0
316,128,89647,1,8,0:0:0
416,128,89815,6,0,B|404:212|316:228|316:228|316:288,2,200,0|0|0,0:0|0:0|0:0,0:0:0
364,44,90658,2,0,B|320:72|316:140,1,100
180,168,90995,2,0,B|224:140|228:72,1,100,8|0,0:0|0:0,0:0:0
128,88,91332,2,0,B|60:144|104:228,1,150
144,252,91669,5,8,0:0:0
256,192,91838,1,0,0:0:0
368,252,92006,1,0,0:0:0
256,312,92175,1,0,0:0:0
144,132,92344,1,8,0:0:0
256,72,92512,1,0,0:0:0
368,132,92681,1,0,0:0:0
144,252,93018,1,8,0:0:0
52,96,93186,5,0,0:0:0
52,96,93270,1,0,0:0:0
52,96,93355,2,0,B|72:40|136:36,2,100,0|0|8,0:0|0:0|0:0,0:0:0
56,196,93860,2,0,B|124:180|140:128|140:128|232:128,1,200
328,128,94366,5,8,0:0:0
328,128,94535,2,0,B|432:128,1,100
328,228,94872,2,0,B|328:332,1,100,0|8,0:0|0:0,0:0:0
228,128,95209,2,0,B|228:16,1,100
228,228,95546,2,0,B|120:228,2,100,0|8|0,0:0|0:0|0:0,0:0:0
328,228,96051,5,0,0:0:0
480,228,96220,1,0,0:0:0
356,140,96388,1,8,0:0:0
404,284,96557,1,0,0:0:0
452,140,96726,6,0,B|444:52|344:36,1,150
308,44,97063,1,8,0:0:0
240,116,97231,2,0,B|212:160|144:160,1,100
12,284,97568,2,0,B|44:236|116:244,1,100,0|8,0:0|0:0,0:0:0
200,248,97905,5,0,0:0:0
420,340,98242,1,0,0:0:0
400,100,98579,1,0,0:0:0
400,100,98748,2,0,B|360:136|304:136,1,100
260,136,99001,1,0,0:0:0
212,124,99085,1,8,0:0:0
212,124,99422,6,0,B|160:208,1,100,4|0,0:0|0:0,0:0:0
16,128,99759,2,0,B|68:42,1,100,8|0,0:0|0:0,0:0:0
112,128,100096,1,0,0:0:0
164,44,100265,1,0,0:0:0
64,212,100433,1,8,0:0:0
64,212,100602,6,0,B|68:284|136:308|136:308|220:308,2,200
164,212,101445,2,0,B|268:212,1,100
416,124,101782,2,0,B|304:124,1,100,8|0,0:0|0:0,0:0:0
364,212,102119,2,0,B|352:300|264:308,1,150
216,308,102456,5,8,0:0:0
76,256,102624,1,0,0:0:0
224,244,102793,1,0,0:0:0
96,320,102961,1,0,0:0:0
180,196,103130,1,8,0:0:0
160,344,103299,1,0,0:0:0
112,200,103467,1,0,0:0:0
380,68,103804,1,8,0:0:0
464,192,103973,5,0,0:0:0
464,192,104057,1,0,0:0:0
464,192,104141,2,0,B|456:252|400:272,2,100,0|0|8,0:0|0:0|0:0,0:0:0
364,180,104647,2,0,B|280:124|168:160,1,200
92,220,105153,1,8,0:0:0
184,256,105321,2,0,B|160:304|108:320,1,100
72,124,105658,2,0,B|96:76|148:60,1,100,0|8,0:0|0:0,0:0:0
244,52,105995,5,0,0:0:0
292,348,106332,1,0,0:0:0
476,112,106669,1,0,0:0:0
476,112,106754,1,0,0:0:0
476,112,106838,1,0,0:0:0
332,160,107006,1,0,0:0:0
476,208,107175,1,8,0:0:0
332,256,107344,1,0,0:0:0
332,160,107512,6,0,B|280:96|192:112,1,150
152,128,107849,1,8,0:0:0
120,224,108018,2,0,B|88:320,1,100
208,292,108355,2,0,B|240:196,1,100,0|8,0:0|0:0,0:0:0
300,32,108692,2,0,B|364:52|404:104|404:104|476:112,2,200
200,32,109535,1,0,0:0:0
256,192,109872,12,0,111557,0:0:0
156,208,112063,6,0,B|256:160|352:208,1,200
304,296,112568,2,0,B|248:316|196:292,1,100,0|0,0:0|0:0,0:0:0
108,120,112905,1,4,0:0:0
172,44,113074,1,0,0:0:0
256,100,113242,1,8,0:0:0
340,44,113411,1,0,0:0:0
404,120,113579,2,0,B|472:200,2,100,0|0|8,0:0|0:0|0:0,0:0:0
364,212,114085,6,0,B|432:288|432:288|400:332|328:316,1,200
256,276,114591,1,8,0:0:0
148,212,114759,2,0,B|80:288|80:288|112:332|184:316,2,200
304,68,115602,5,0,0:0:0
256,212,115770,1,0,0:0:0
208,68,115939,1,8,0:0:0
328,156,116108,1,0,0:0:0
180,156,116276,1,0,0:0:0
304,68,116445,2,0,B|360:60|404:100,2,100,0|8|0,0:0|0:0|0:0,0:0:0
208,68,116950,2,0,B|152:60|108:100,2,100,0|0|8,0:0|0:0|0:0,0:0:0
76,192,117456,5,0,0:0:0
436,192,117793,1,0,0:0:0
76,192,118130,5,0,0:0:0
76,192,118214,1,0,0:0:0
76,192,118299,2,0,B|180:192,1,100,0|0,0:0|0:0,0:0:0
436,192,118636,2,0,B|332:192,1,100,8|0,0:0|0:0,0:0:0
128,64,118973,2,0,B|200:136,1,100
383,319,119310,2,0,B|312:248,1,100,8|0,0:0|0:0,0:0:0
256,12,119647,6,0,B|256:116,1,100
256,372,119984,2,0,B|256:268,1,100,8|0,0:0|0:0,0:0:0
383,64,120321,2,0,B|312:136,1,100
128,319,120658,2,0,B|200:248,1,100,8|0,0:0|0:0,0:0:0
256,192,120995,5,0,0:0:0
200,136,121164,1,0,0:0:0
312,248,121332,1,8,0:0:0
312,136,121501,1,0,0:0:0
200,248,121669,1,0,0:0:0
256,80,121838,1,0,0:0:0
368,192,122006,1,8,0:0:0
256,304,122175,1,0,0:0:0
144,192,122344,5,0,0:0:0
368,192,122512,1,0,0:0:0
124,268,122681,1,8,0:0:0
388,116,122849,1,0,0:0:0
256,192,123018,2,0,B|276:156|256:120|256:120|236:84|256:48,2,150
256,336,123692,5,0,0:0:0
256,336,123860,1,0,0:0:0
256,336,124029,1,8,0:0:0
400,192,124197,1,0,0:0:0
400,192,124366,1,0,0:0:0
400,192,124535,1,8,0:0:0
256,48,124703,5,0,0:0:0
256,48,124872,1,0,0:0:0
256,48,125040,1,8,0:0:0
112,192,125209,1,0,0:0:0
112,192,125377,1,0,0:0:0
112,192,125546,1,8,0:0:0
128,64,125714,6,0,B|208:144,1,100
384,320,126051,2,0,B|304:240,1,100,8|0,0:0|0:0,0:0:0
256,192,126388,1,0,0:0:0
256,192,126557,1,0,0:0:0
384,64,126894,5,0,0:0:0
128,320,127231,1,0,0:0:0
256,192,127568,1,4,0:0:0
