osu file format v11

[General]
AudioFilename: AO OP.mp3
AudioLeadIn: 1500
PreviewTime: 88636
Countdown: 0
SampleSet: Soft
StackLeniency: 0.4
Mode: 0
LetterboxInBreaks: 0

[Editor]
DistanceSpacing: 1
BeatDivisor: 2
GridSize: 4

[Metadata]
Title:Aoi Kiseki -Opening size-
TitleUnicode:碧い軌跡 Aoi Kiseki -Opening size-
Artist:Kotera Kanako
ArtistUnicode:小寺可南子
Creator:jonathanlfj
Version:Easy
Source:THE LEGEND OF HEROES: AO NO KISEKI
Tags:Falcom Sound Team jdk Game Opening Kurosanyan
BeatmapID:126453
BeatmapSetID:39735

[Difficulty]
HPDrainRate:2
CircleSize:3
OverallDifficulty:1
ApproachRate:3
SliderMultiplier:1
SliderTickRate:1

[Events]
//Background and Video events
Video,-843,"AO OP1.flv"
0,0,"BG1.jpg"
//Break Periods
2,6357,10110
2,17143,20054
//Storyboard Layer 0 (Background)
//Storyboard Layer 1 (Fail)
//Storyboard Layer 2 (Pass)
//Storyboard Layer 3 (Foreground)
//Storyboard Sound Samples
//Background Colour Transformations
3,100,163,162,255

[TimingPoints]
764,337.078651685393,4,2,1,15,1,0
764,-133.333333333333,4,2,1,15,0,0
4808,-133.333333333333,4,2,1,13,0,0
5483,-133.333333333333,4,2,1,11,0,0
11550,-133.333333333333,4,2,1,15,0,0
15595,-133.333333333333,4,2,1,13,0,0
16269,-133.333333333333,4,2,1,11,0,0
21494,-133.333333333333,4,2,1,15,0,0
27730,337.078651685393,4,2,1,15,1,8
27962,337.078651685393,4,1,1,50,1,0
44647,-100,4,2,1,75,0,0
46838,-100,4,1,1,50,0,0
47006,-100,4,2,1,75,0,0
49535,-100,4,1,1,50,0,0
49703,-100,4,2,1,75,0,0
52231,-100,4,1,1,50,0,0
52400,-100,4,2,1,75,0,0
54928,-100,4,1,1,50,0,0
66051,-100,4,2,1,75,0,0
71108,-100,4,1,1,50,0,0
71276,-100,4,2,1,75,0,0
75153,-100,4,2,1,55,0,0
75658,-100,4,2,1,75,0,0
76501,-100,4,1,1,50,0,0
76669,-100,4,2,1,75,0,0
80883,-100,4,2,1,75,0,0
81894,-100,4,1,1,50,0,0
86613,-100,4,2,1,75,0,0
87119,-100,4,1,1,50,0,0
88299,-100,4,1,1,50,0,0
88636,-100,4,1,1,50,0,1
111557,-100,4,1,1,20,0,0
112905,-100,4,1,1,50,0,0

[Colours]
Combo1 : 255,60,60
Combo2 : 47,242,56
Combo3 : 199,197,197
Combo4 : 154,252,252
SliderBorder : 255,255,255

[HitObjects]
256,128,763,5,2,0:0:0
392,192,1438,2,0,B|432:120|392:48,2,150.000005722046,0|2|0,0:0|0:0|0:0,0:0:0
256,256,3460,5,2,0:0:0
120,192,4134,2,0,B|80:264|120:336,2,150.000005722046,0|2|0,0:0|0:0|0:0,0:0:0
256,128,6157,1,2,0:0:0
256,256,11550,5,2,0:0:0
392,192,12224,2,0,B|432:264|392:336,2,150.000005722046,0|2|0,0:0|0:0|0:0,0:0:0
256,128,14247,5,2,0:0:0
120,192,14921,2,0,B|80:120|120:48,2,150.000005722046,0|2|0,0:0|0:0|0:0,0:0:0
256,256,16943,1,2,0:0:0
144,204,21494,6,0,B|176:184|176:184|208:204|208:204|240:184|240:184|272:204|272:204|304:184|304:184|336:204|336:204|368:184,1,262.500010013581,2|2,0:0|0:0,0:0:0
256,192,22842,12,2,25033,0:0:0
328,104,27962,5,4,0:0:0
404,172,28299,1,8,0:0:0
308,204,28636,2,0,B|244:184|228:124|228:124|144:144,2,200
308,304,30321,1,8,0:0:0
216,340,30658,5,0,0:0:0
148,268,30995,1,8,0:0:0
60,312,31332,2,0,B|32:248|76:200|76:200|20:140,2,200
148,268,33018,1,8,0:0:0
236,224,33355,5,4,0:0:0
324,180,33692,1,8,0:0:0
412,136,34029,2,0,B|376:76|288:68|240:124,2,200
460,224,35714,6,8,B|416:332|292:336,1,200,8|8,0:0|0:0,0:0:0
256,248,36726,1,0,0:0:0
204,335,37063,2,8,B|96:332|52:224,1,200,8|8,0:0|0:0,0:0:0
44,124,38074,1,0,0:0:0
244,124,38748,5,4,0:0:0
412,20,39422,1,0,0:0:0
212,28,40096,2,0,B|144:60|144:60|144:140,2,150,0|0|8,0:0|0:0|0:0,0:0:0
244,124,41445,6,0,B|304:164|304:164|304:240,2,150,0|0|8,0:0|0:0|0:0,0:0:0
208,216,42793,2,0,B|140:248|140:248|140:328,2,150,0|0|8,0:0|0:0|0:0,0:0:0
240,312,44141,5,4,0:0:0
392,308,44647,2,0,P|384:256|356:216,1,100,2|0,0:0|0:0,0:0:0
268,172,45321,2,0,B|159:178|103:274,1,200,2|0,0:0|0:0,0:0:0
185,327,46332,2,0,B|223:316|256:338|256:338|249:299|276:270,1,150,2|4,0:0|0:0,0:0:0
404,188,47344,6,0,P|364:160|344:112,1,100,2|0,0:0|0:0,0:0:0
256,68,48018,2,0,B|204:52|160:88,2,100,2|0|2,0:0|0:0|0:0,0:0:0
228,164,49029,1,0,0:0:0
184,308,49535,5,4,0:0:0
384,324,50209,2,0,B|472:252|448:144,1,200,2|2,0:0|0:0,0:0:0
280,40,51557,1,2,0:0:0
108,140,52231,6,0,B|136:216|224:232|224:232|224:336,1,250,4|2,0:0|0:0,0:0:0
324,328,53411,2,0,P|324:224,1,100
276,84,54254,2,0,B|324:64|376:84,2,100,2|2|4,0:0|0:0|0:0,0:0:0
156,176,55433,2,0,P|104:192|72:224,1,100
156,276,56108,1,0,0:0:0
240,224,56445,1,0,0:0:0
324,172,56782,2,0,B|348:220|400:236|400:236|400:288,1,150,0|8,0:0|0:0,0:0:0
320,344,57624,5,4,0:0:0
168,344,58130,2,0,P|112:324|84:288,1,100
172,244,58804,1,0,0:0:0
88,192,59141,1,0,0:0:0
172,140,59478,2,0,B|256:108|256:24,1,150,0|8,0:0|0:0,0:0:0
156,40,60321,5,4,0:0:0
316,160,60995,2,0,B|356:120|364:56|364:56|448:72,1,200
416,204,62175,2,0,B|368:276|284:264,1,150,0|8,0:0|0:0,0:0:0
192,240,63018,6,0,P|136:240|136:240|100:228|100:228|40:228,2,150
124,108,64535,1,0,0:0:0
248,24,65040,2,0,B|300:24|300:24|332:60,2,100,0|0|4,0:0|0:0|0:0,0:0:0
248,124,66051,6,0,B|244:212|152:236,1,150,2|0,0:0|0:0,0:0:0
148,132,66894,2,0,B|64:156|60:244,2,150,2|0|0,0:0|0:0|0:0,0:0:0
300,132,68411,6,0,P|376:124|376:124|436:72,1,150,2|0,0:0|0:0,0:0:0
288,28,69422,2,0,P|224:60|196:132,1,150,2|0,0:0|0:0,0:0:0
240,272,70433,2,0,B|188:288|136:264,2,100,2|0|4,0:0|0:0|0:0,0:0:0
392,264,71613,6,0,P|444:276|492:260,1,100,2|0,0:0|0:0,0:0:0
436,176,72287,2,0,B|412:96|312:72,1,150,2|0,0:0|0:0,0:0:0
244,32,73130,2,0,B|220:80|248:128,1,100,2|0,0:0|0:0,0:0:0
320,196,73804,2,0,P|284:256|284:256|208:288,1,150,2|2,0:0|0:0,0:0:0
40,104,75153,6,0,B|88:40|172:44,2,150,2|2|0,0:0|0:0|0:0,0:0:0
16,200,76501,2,0,B|72:212|120:168,1,100,4|0,0:0|0:0,0:0:0
208,176,77175,1,0,0:0:0
360,176,77681,2,0,B|444:212|452:292,2,150,2|0|0,0:0|0:0|0:0,0:0:0
308,316,79197,5,2,0:0:0
180,236,79703,2,0,B|280:204,2,100,2|2|2,0:0|0:0|0:0,0:0:0
380,84,81220,1,2,0:0:0
460,140,81557,1,0,0:0:0
432,236,81894,6,0,B|304:317|304:317|180:236,1,300,4|8,0:0|0:0,0:0:0
100,172,83242,2,0,B|228:91|228:91|352:172,1,300,0|8,0:0|0:0,0:0:0
432,236,84591,6,0,B|456:284|432:336,2,100,0|8|0,0:0|0:0|0:0,0:0:0
344,288,85602,1,8,0:0:0
254,332,85939,2,0,B|232:284|256:236,1,100,0|8,0:0|0:0,0:0:0
344,184,86613,2,0,P|344:28,1,150,2|4,0:0|0:0,0:0:0
68,248,88299,5,4,0:0:0
32,156,88636,6,0,B|88:136|136:172,1,100,0|8,0:0|0:0,0:0:0
168,256,89310,1,0,0:0:0
308,304,89815,2,0,B|360:280|372:216,2,100,0|0|0,0:0|0:0|0:0,0:0:0
268,212,90827,2,0,B|280:160|328:136|328:136|328:68,1,150
228,88,91669,6,0,P|150:26|42:76|18:174|71:274|175:265,1,400,8|8,0:0|0:0,0:0:0
162,166,93355,2,0,B|213:161|257:201,2,100,0|8|0,0:0|0:0|0:0,0:0:0
175,265,94366,5,8,0:0:0
316,320,94872,2,0,B|368:300|384:252,2,100
252,184,96051,1,0,0:0:0
348,160,96388,1,8,0:0:0
444,136,96726,6,0,B|416:56|328:64|328:64|228:92,1,250,0|8,0:0|0:0,0:0:0
136,124,97905,1,0,0:0:0
124,224,98242,2,0,B|144:304|232:328,1,150
324,308,99085,1,8,0:0:0
304,208,99422,6,0,B|364:200|404:244,1,100,4|8,0:0|0:0,0:0:0
460,312,100096,1,0,0:0:0
460,160,100602,2,0,B|460:48,2,100,0|0|0,0:0|0:0|0:0,0:0:0
360,160,101613,2,0,B|288:116|216:160,1,150
288,232,102456,6,0,P|236:280|148:260|124:192|124:192|52:192|4:112|32:48,1,400,8|8,0:0|0:0,0:0:0
124,92,104141,2,0,B|152:44|208:40,2,100,0|8|0,0:0|0:0|0:0,0:0:0
212,140,105153,5,8,0:0:0
360,140,105658,2,0,B|428:56,2,100
332,288,106838,1,0,0:0:0
244,332,107175,1,8,0:0:0
248,232,107512,6,0,B|244:144|168:108,1,150,0|0,0:0|0:0,0:0:0
76,96,108355,1,0,0:0:0
44,192,108692,2,0,B|84:228|148:212,2,100
256,192,109872,12,0,111557,0:0:0
112,88,112905,6,0,B|192:128|256:88|256:88|320:48|400:88,1,300,4|8,0:0|0:0,0:0:0
404,188,114254,2,0,B|260:188|260:188|100:188,1,300,0|8,0:0|0:0,0:0:0
112,288,115602,2,0,B|192:248|256:288|256:288|320:328|400:288,2,300,0|8|0,0:0|0:0|0:0,0:0:0
112,188,117961,1,8,0:0:0
112,88,118299,6,0,B|164:92|200:136,1,100,0|8,0:0|0:0,0:0:0
268,60,118973,2,0,B|308:96|296:160,1,100,0|8,0:0|0:0,0:0:0
232,228,119647,2,0,B|222:284|262:320,1,100,0|8,0:0|0:0,0:0:0
332,248,120321,2,0,B|366:290|418:294,1,100,0|8,0:0|0:0,0:0:0
416,192,120995,5,0,0:0:0
256,72,121669,1,0,0:0:0
96,192,122344,1,0,0:0:0
256,316,123018,1,0,0:0:0
256,116,123692,6,0,B|344:116|380:184,1,150
256,268,124703,2,0,B|168:268|132:200,1,150
256,116,125714,2,0,B|256:12,2,100,0|8|0,0:0|0:0|0:0,0:0:0
160,232,126894,5,0,0:0:0
256,252,127231,1,0,0:0:0
352,232,127568,1,4,0:0:0
