osu file format v9

[General]
AudioFilename: BGM.mp3
AudioLeadIn: 0
PreviewTime: 87988
Countdown: 0
SampleSet: Soft
StackLeniency: 0.8
Mode: 0
LetterboxInBreaks: 1

[Editor]
DistanceSpacing: 0.8
BeatDivisor: 4
GridSize: 8

[Metadata]
Title:Aoi Kiseki
Artist:Kotera Kanako
Creator:PSPDS Eddie
Version:Normal
Source:The Legend of Heroes VII: Ao no Kiseki
Tags:falcom

[Difficulty]
HPDrainRate:3
CircleSize:3
OverallDifficulty:3
ApproachRate:3
SliderMultiplier:0.8
SliderTickRate:1

[Events]
//Background and Video events
0,0,"calw1108.jpg"
//Break Periods
2,128698,132957
2,202855,221777
2,244484,245710
//Storyboard Layer 0 (Background)
//Storyboard Layer 1 (Fail)
//Storyboard Layer 2 (Pass)
//Storyboard Layer 3 (Foreground)
//Storyboard Sound Samples
//Background Colour Transformations
3,100,163,162,255

[TimingPoints]
27375,337.078651685393,4,2,0,60,1,0
43568,-133.333333333333,4,2,0,60,0,0
54206,-100,4,2,0,60,0,0
88033,-100,4,2,0,60,0,0
112508,-133.333333333333,4,2,0,45,0,0
144523,-100,4,2,0,60,0,0
177634,-100,4,2,0,60,0,0
202581,-100,4,2,0,5,0,0
222551,-133.333333333333,4,2,0,45,0,0
232747,-133.333333333333,4,2,0,60,0,0
238306,-100,4,2,0,60,0,0
247068,-100,4,2,0,60,0,0

[HitObjects]
256,288,44060,2,0,B|384:288,2,119.999996423721
256,288,45745,1,2
256,216,46251,6,0,B|256:96,1,119.999996423721
328,96,47431,2,0,B|400:96,3,59.9999982118607,0|0|0|2
440,144,48948,6,0,B|480:216|432:264,1,119.999996423721
384,336,50296,2,0,B|328:376|264:352,1,119.999996423721
176,336,51644,2,0,B|80:336|64:248,1,149.999995529652
64,208,52824,2,0,B|56:120|112:72,1,149.999995529652
256,88,54341,5,4
376,56,55015,2,0,B|424:136,1,80,0|2
368,168,55689,2,0,B|416:240,1,80,0|2
392,296,56363,2,0,B|320:240,1,80,0|2
256,264,57037,5,4
128,272,57712,2,0,B|184:192,1,80,0|2
120,176,58386,2,0,B|48:128,1,80,0|2
40,72,59060,2,0,B|128:72,1,80,0|2
184,72,59734,2,0,B|280:64|336:120,2,160,2|2|2
256,184,61757,6,0,B|272:224|320:240,1,80,0|2
368,208,62431,1,2
448,264,62936,1,2
368,320,63442,1,2
288,264,63948,1,2
192,264,64453,2,0,B|160:288|104:280,2,80,4|4|0
192,200,65464,6,0,B|200:160|240:136,2,80,2|0|2
192,264,66476,2,0,B|160:232|112:216,1,80,0|2
120,288,67150,2,0,B|80:312|40:288,1,80,0|2
48,224,67824,2,0,B|32:160|72:96,2,120,2|2|2
48,288,69172,2,0,B|72:328|56:368,2,80,0|2|0
96,248,70183,2,0,B|144:248|176:224,1,80,2|6
256,128,71195,5,0
256,192,71532,2,0,B|344:192,2,80,2|0|2
256,256,72543,2,0,B|216:232|168:240,1,80,0|2
120,264,73217,2,0,B|80:208|112:136,1,120,4|4
168,72,74228,1,4
232,80,74566,2,0,B|288:80|312:48,3,80,2|2|2|2
368,40,75914,6,0,B|424:56|440:96,1,80,0|2
472,136,76588,2,0,B|480:184|448:216,1,80,0|2
408,256,77262,2,0,B|304:336|168:304,1,240
128,272,78610,6,4,B|80:224|96:152,1,120
104,96,79453,2,4,B|152:104|200:88,1,80
344,80,80633,6,0,B|416:128,1,80,0|2
376,176,81307,2,0,B|296:208|208:160,1,160,0|2
96,200,82655,2,0,B|88:304|176:344,1,160,0|2
224,352,83667,1,2
288,344,84004,6,0,B|376:320|408:232,2,160,0|2|0
256,288,85689,1,2
256,224,86026,2,0,B|256:168,3,40,2|2|2|6
256,88,87037,1,0
216,40,87374,2,2,B|176:56|144:88,1,80,0|6
104,144,88049,6,0,B|96:192|120:224,1,80,0|2
176,248,88723,2,0,B|208:200|232:176,1,80,0|2
288,168,89397,1,0
344,144,89734,1,2
408,144,90071,2,0,B|424:184|408:232,1,80,0|2
352,256,90745,2,0,B|328:352|240:360,1,160
184,360,91757,1,2
120,360,92094,2,0,B|40:304|40:208,1,160,0|2
120,128,93442,6,0,B|208:128,2,80,0|2|0
88,72,94453,1,2
136,32,94790,2,0,B|176:56|224:56,1,80,0|2
264,88,95464,2,0,B|280:136|272:168,1,80,0|2
272,232,96139,5,2
192,320,96813,1,2
64,312,97487,2,0,B|32:272|48:232,1,80,0|2
56,176,98161,1,4
184,192,98835,6,0,B|168:136|144:120,1,80,0|2
128,64,99509,2,0,B|208:24|288:48,1,160,0|2
336,160,100858,2,0,B|424:160|480:224,1,160,0|2
400,320,102206,2,0,B|328:360|240:336,1,160,2|2
256,208,103554,6,0,B|344:208,1,80,0|2
336,144,104228,2,0,B|256:144,2,80,0|2|0
336,80,105240,1,2
288,40,105577,2,0,B|240:40|208:56,1,80,0|2
176,112,106251,2,0,B|128:136|88:112,1,80,0|2
96,56,106925,5,0
40,88,107262,1,2
40,144,107599,1,0
96,176,107936,1,2
160,176,108273,2,0,B|184:216|176:256,1,80,0|2
176,320,108948,1,4
256,192,109285,12,0,112318
256,192,112992,5,2
160,192,113667,2,0,B|176:256|240:280,1,119.999996423721,0|2
336,280,115015,2,0,B|464:280,2,119.999996423721,0|2|0
376,192,117037,1,2
376,96,117712,2,0,B|256:40|136:104,1,239.999992847443,0|2
72,160,119734,2,0,B|72:232,1,59.9999982118607,0|2
72,264,120408,2,0,B|120:296|192:296,2,119.999996423721,2|2|2
72,216,122094,2,0,B|72:152,2,59.9999982118607,0|2|0
120,216,123105,6,0,B|240:216,2,119.999996423721,0|2|0
160,128,125127,1,2
240,72,125801,2,0,B|304:56|360:72,1,119.999996423721,0|2
408,88,126813,1,2
448,112,127150,2,0,B|504:176|496:224,1,119.999996423721,2|2
488,264,128161,1,2
464,304,128498,1,4
256,192,134397,6,0,B|128:192,2,119.999996423721
256,144,136082,1,2
328,144,136588,6,0,B|328:240,1,89.9999973177911
328,280,137431,1,0
328,328,137768,2,0,B|256:328,3,59.9999982118607,0|0|0|2
200,328,139285,6,0,B|160:256|208:208,1,119.999996423721
104,215,140633,2,0,B|144:159|120:95,1,119.999996423721
192,40,141981,2,0,B|224:80|280:80,1,89.9999973177911
360,48,143161,2,0,B|368:136|312:184,1,149.999995529652
256,296,144678,5,4
128,328,145352,2,0,B|40:328,1,80
48,264,146026,2,0,B|48:184,1,80,0|2
48,120,146700,2,0,B|128:120,1,80,0|2
192,120,147374,5,4
296,48,148049,2,0,B|392:48,1,80,0|2
376,112,148723,2,0,B|448:160,1,80,0|2
442,220,149397,2,0,B|354:220,1,80,0|2
360,280,150071,2,0,B|264:288|208:232,2,160,2|2|2
280,184,152094,6,0,B|264:144|216:128,1,80,0|2
168,160,152768,2,2,B|168:208,1,40
104,192,153273,2,2,B|104:240,1,40
40,232,153779,2,2,B|40:192,1,40
40,128,154285,2,2,B|40:88,1,40
96,56,154790,2,0,B|128:32|184:40,2,80,4|4|0
104,120,155801,6,0,B|112:160|152:184,2,80,2|0|2
168,104,156813,2,0,B|200:136|248:152,1,80,0|2
256,88,157487,2,0,B|296:64|336:88,1,80,0|2
392,104,158161,2,0,B|408:168|368:232,2,120,2|2|2
456,96,159509,2,0,B|432:56|448:16,2,80,0|2|0
392,104,160521,2,0,B|344:104|312:128,1,80,2|6
256,240,161532,5,0
192,240,161869,2,0,B|104:240,2,80,2|0|2
256,240,162880,2,0,B|296:264|344:256,1,80,0|2
392,264,163554,2,0,B|432:208|400:136,1,120,4|4
336,88,164566,1,4
296,40,164903,2,0,B|240:40|216:72,3,80,2|2|2|2
216,128,166251,6,0,B|160:112|144:72,1,80,0|2
96,112,166925,2,0,B|88:160|120:192,1,80,0|2
152,240,167599,2,0,B|264:184|392:200,1,240
448,208,168948,6,4,B|496:256|480:328,1,120
416,328,169790,2,4,B|368:320|320:336,1,80
176,312,170970,6,0,B|104:264,1,80,0|2
112,200,171644,2,0,B|192:168|280:216,1,160,0|2
392,192,172992,2,0,B|400:88|312:48,1,160,0|2
272,32,174004,1,2
216,56,174341,6,0,B|128:80|96:168,2,160,0|2|0
272,32,176026,1,2
272,96,176363,2,0,B|272:152,3,40,2|2|2|6
272,232,177374,1,0
272,296,177712,2,2,B|320:288|352:248,1,80,0|6
384,208,178386,6,0,B|392:160|368:128,1,80,0|2
336,72,179060,2,0,B|304:112|264:128,1,80,0|2
248,184,179734,2,0,B|224:216|176:232,1,80,0|2
128,192,180408,1,0
64,192,180745,1,2
40,136,181082,2,0,B|64:40|152:32,1,160
208,32,182094,1,2
272,32,182431,2,0,B|352:88|440:64,1,160,0|2
448,192,183779,6,0,B|360:192,2,80,0|2|0
448,256,184790,1,2
424,312,185127,2,0,B|384:288|336:288,1,80,0|2
288,304,185801,2,0,B|272:256|280:224,1,80,0|2
224,192,186476,5,2
152,88,187150,1,2
280,88,187824,2,0,B|312:128|360:120,1,80,0|2
416,112,188498,1,4
416,240,189172,6,0,B|432:296|456:312,1,80,0|2
392,320,189846,2,0,B|312:360|232:336,1,160,0|2
160,240,191195,2,0,B|72:240|16:176,1,160,0|2
104,88,192543,2,0,B|176:48|264:72,1,160,2|2
256,200,193891,6,0,B|168:200,1,80,0|2
176,136,194566,2,0,B|256:136,2,80,0|2|0
120,168,195577,1,2
176,136,195914,2,0,B|176:88|160:56,1,80,0|2
224,56,196588,2,0,B|272:32|312:56,1,80,0|2
360,64,197262,5,0
392,120,197599,1,2
424,176,197936,1,0
456,232,198273,1,2
480,288,198610,2,0,B|432:312|392:304,1,80,0|2
336,296,199285,1,4
256,192,199622,12,0,202655
264,216,223217,6,0,B|256:248|232:272,2,59.9999982118607,2|0|2
272,168,224228,2,0,B|304:184|328:184,1,59.9999982118607,0|2
344,136,224903,2,0,B|376:120|408:120,1,59.9999982118607,0|2
448,136,225577,2,0,B|464:184|432:224,2,89.9999973177911,2|2|2
448,88,226925,2,0,B|424:64|440:32,2,59.9999982118607,0|2|0
408,120,227936,2,0,B|368:120|344:136,1,59.9999982118607,2|6
336,224,228948,5,0
336,272,229285,2,0,B|272:272,2,59.9999982118607
336,224,230296,2,0,B|312:192|288:184,1,59.9999982118607,0|2
296,136,230970,2,0,B|264:104|208:104,1,89.9999973177911,4|4
144,120,231981,1,4
144,168,232318,2,0,B|144:240,3,59.9999982118607,2|2|2|2
144,272,233667,6,0,B|152:312|184:328,1,59.9999982118607,0|2
216,344,234341,2,0,B|256:360|280:360,1,59.9999982118607,0|2
320,336,235015,2,0,B|376:272|456:264,1,149.999995529652,0|4
432,192,236363,6,4,B|464:160|480:104,1,89.9999973177911
456,72,237206,2,4,B|432:64|392:72,1,59.9999982118607
296,192,238386,6,0,B|224:144,1,80,0|2
200,88,239060,2,0,B|120:56|32:104,1,160,0|2
136,192,240408,2,0,B|128:296|216:336,1,160,0|2
256,296,241419,1,2
312,328,241757,6,0,B|400:304|432:216,2,160,0|2|0
256,296,243442,1,2
256,232,243779,2,0,B|256:192,3,40,2|2|2|6
256,192,247150,6,0,B|256:104,1,80,0|2
192,112,247824,2,0,B|192:192,1,80,0|2
192,256,248498,1,0
128,256,248835,1,2
128,192,249172,2,0,B|128:104,1,80,0|2
64,112,249846,2,0,B|8:184|16:272,1,160,0|2
104,336,251195,2,0,B|192:320|272:360,1,160,0|2
256,224,252543,6,0,B|168:224,2,80,0|2|0
320,224,253554,1,2
320,288,253891,2,0,B|368:288|408:264,1,80,0|2
448,232,254566,2,0,B|472:192|472:152,1,80,0|2
472,96,255240,5,2
344,96,255914,1,2
216,96,256588,2,0,B|248:136|232:176,2,80,2|2|4
344,192,257936,6,0,B|360:248|384:264,1,80,0|2
392,328,258610,2,0,B|312:368|232:344,1,160,0|2
160,240,259959,2,0,B|72:240|16:176,2,160,2|2|2
93,349,261981,1,2
160,240,262655,6,0,B|160:144,1,80,0|2
160,96,263330,2,0,B|72:96,2,80,0|2|0
160,32,264341,1,2
160,96,264678,2,0,B|208:96|240:80,1,80,0|2
296,64,265352,2,0,B|344:40|384:64,1,80,0|2
432,80,266026,5,0
392,128,266363,1,2
432,176,266700,1,0
392,224,267037,1,2
328,224,267374,1,0
272,248,267712,1,2
216,224,268049,1,4
216,96,268723,6,0,B|216:16,1,80,0|2
160,40,269397,2,0,B|136:88|104:112,1,80,0|2
160,152,270071,1,0
120,200,270408,1,2
64,232,270745,2,0,B|48:272|64:320,1,80,0|2
128,312,271419,2,0,B|176:240|272:240,1,160,0|2
264,112,272768,2,0,B|344:168|424:128,1,160,0|2
328,32,274116,6,0,B|424:32,2,80,0|2|0
264,32,275127,1,2
208,64,275464,2,0,B|168:40|120:40,1,80,0|2
72,32,276139,2,0,B|56:80|64:112,1,80,0|2
64,176,276813,5,2
168,256,277487,1,2
264,176,278161,2,0,B|288:216|336:208,1,80,0|2
392,192,278835,1,4
440,72,279509,6,0,B|440:112|472:144,1,80,0|2
496,200,280183,2,0,B|488:288|400:328,1,160,0|2
280,344,281532,2,0,B|192:344|136:280,1,160,0|2
48,192,282880,2,0,B|8:120|32:32,1,160,2|2
136,104,284228,6,0,B|224:104,1,80,0|2
280,104,284903,2,0,B|360:104,2,80,0|2|0
216,104,285914,1,2
216,168,286251,2,0,B|264:168|296:216,1,80,0|2
232,240,286925,2,0,B|256:272|240:320,1,80,0|2
176,320,287599,5,0
88,240,288273,1,0
104,112,288948,2,0,B|112:64|152:32,2,80,2|2|4
256,192,289959,12,4,292992
