osu file format v6

[General]
AudioFilename: Rise.mp3
AudioLeadIn: 0
PreviewTime: 49509
Countdown: 0
SampleSet: Normal
StackLeniency: 0.7
Mode: 0
LetterboxInBreaks: 1

[Editor]
Bookmarks: 12699
DistanceSpacing: 1
BeatDivisor: 4
GridSize: 8

[Metadata]
Title:Rise
Artist:Koshimizu Ami
Creator:Mystearica
Version:Hard
Source:
Tags:Aika R-16 Anime J-Pop

[Difficulty]
HPDrainRate:7
CircleSize:5
OverallDifficulty:6
SliderMultiplier:1.4
SliderTickRate:0.5

[Events]
//Background and Video events
0,0,"Rise.jpg"
//Break Periods
2,76397,78091
//Storyboard Layer 0 (Background)
//Storyboard Layer 1 (Fail)
//Storyboard Layer 2 (Pass)
//Storyboard Layer 3 (Foreground)
//Storyboard Sound Samples
//Background Colour Transformations
3,100,0,0,0

[TimingPoints]
1105,368.098159509202,4,1,1,80,1,0
18405,-100,4,1,1,50,0,0
18589,-100,4,1,1,80,0,0
29724,-100,4,1,1,50,0,0
29908,-100,4,1,1,80,0,0
33405,-100,4,1,1,40,0,0
35062,-100,4,1,1,70,0,0
42884,-200,4,1,1,80,0,0
43804,-100,4,1,1,80,0,0
47485,-100,4,1,1,40,0,0
49325,-100,4,1,1,40,0,0
49417,-100,4,1,1,80,0,0
50890,-200,4,1,1,80,0,0
51810,-200,4,1,1,60,0,0
51994,-100,4,1,1,90,0,0
55123,-100,4,1,1,60,0,0
55399,-100,4,1,1,80,0,0
62853,-200,4,1,1,90,0,0
63773,-100,4,1,1,80,0,0
65062,-200,4,1,1,90,0,0
65982,-100,4,1,1,80,0,0
67638,-100,4,1,1,70,0,0
67914,-100,4,1,1,90,0,0
71687,-200,4,1,1,90,0,0
72424,-100,4,1,1,90,0,0
73344,-100,4,1,1,40,0,0
76289,-100,4,2,1,100,0,0
83466,-200,4,2,1,100,0,0
84203,-100,4,2,1,100,0,0
89908,-100,4,1,1,50,0,0
91657,-100,4,1,1,60,0,0
92945,-100,4,1,1,70,0,0
95246,-200,4,1,1,80,0,0
95890,-200,4,1,1,60,0,0
96166,-100,4,1,1,90,0,0
99847,-100,4,1,1,30,0,0
101319,-100,4,1,1,80,0,0
117147,-200,4,1,1,90,0,0
117976,-200,4,1,1,59,0,0
118252,-100,4,1,1,90,0,0
121381,-100,4,1,1,60,0,0
121657,-100,4,1,1,90,0,0
131319,-200,4,1,1,90,0,0
132055,-100,4,1,1,90,0,0
137945,-100,4,1,1,80,0,0
138405,-100,4,1,1,90,0,0
138957,-100,4,1,1,100,0,0
139325,-100,4,1,1,50,0,0
140614,-100,4,1,1,30,0,0
141718,-100,4,1,1,10,0,0
142822,-100,4,1,1,0,0,0
143098,-100,4,1,1,80,0,0
145307,-200,4,1,1,70,0,0
148068,-100,4,1,1,40,0,0
149080,-100,4,1,1,30,0,0
149816,-100,4,1,1,20,0,0
150552,-100,4,1,1,10,0,0
151104,-100,4,1,1,0,0,0

[Colours]
Combo1 : 120,105,146
Combo2 : 232,79,186
Combo3 : 130,222,103
Combo4 : 223,97,36

[HitObjects]
112,80,12884,5,0
152,136,13068,1,0
224,136,13252,1,0
256,80,13436,1,0
192,200,13804,1,0
192,272,13988,1,0
256,240,14172,1,0
256,240,14264,1,0
256,240,14356,2,0,B|320:256|400:240,1,140,0|0
408,104,15092,5,0
360,160,15276,1,0
360,160,15460,1,0
312,208,15644,1,0
240,216,15828,2,0,B|272:288|384:272,1,140
352,208,16381,2,0,B|304:128|224:120|152:168,1,210
288,240,17301,2,0,B|256:304|144:296,1,140
192,232,17853,1,0
128,200,18037,2,0,B|184:136|280:168,1,140,0|4
112,288,18773,6,0,B|184:328|256:264|344:312,1,210
304,232,19509,2,0,B|288:144|216:136,1,140
216,208,20062,1,0
152,240,20246,2,0,B|80:208|96:120,1,140
256,72,20982,5,0
232,136,21166,1,0
288,184,21350,1,0
240,232,21534,1,0
288,280,21718,2,0,B|368:352|488:336,1,210
464,272,22454,1,0
408,224,22638,1,0
464,184,22822,1,0
408,144,23006,1,0
344,168,23190,2,0,B|344:288|208:328,1,210
256,224,23927,5,0
256,224,24019,1,0
256,224,24111,1,0
256,224,24295,1,4
256,88,24663,6,0,B|176:104,1,70
256,88,25031,2,0,B|336:104,1,70
216,192,25583,5,0
288,192,25767,1,0
256,256,25951,1,0
256,328,26135,2,0,B|256:152,1,140
88,80,26871,5,0
152,48,27055,1,0
160,120,27239,1,0
96,152,27424,1,0
144,200,27608,2,0,B|224:272|368:232,1,210
256,192,28712,5,0
392,192,29080,1,0
320,192,29264,1,0
392,192,29448,1,0
320,192,29632,1,0
392,192,29816,1,4
256,192,30184,5,0
208,64,30552,2,0,B|152:152|88:184,1,140
184,144,31104,2,0,B|224:264|344:296,1,210
320,216,31841,1,0
280,160,32025,2,0,B|224:232|136:248,1,140
88,128,32761,5,0
160,128,32945,1,0
128,192,33129,1,0
200,192,33313,1,0
256,192,33497,12,4,34970
120,64,36442,5,0
72,112,36626,1,0
88,184,36810,1,0
152,216,36994,1,0
144,144,37178,2,0,B|224:112|312:144,1,140
248,192,37730,1,0
320,192,37914,2,0,B|336:232|288:272,1,70
232,256,38282,1,0
264,320,38466,5,0
264,320,38558,1,0
264,320,38651,1,0
264,320,38835,1,4
88,56,39387,6,0,B|120:144,1,70
152,88,39755,2,0,B|176:184,1,70
216,128,40123,2,0,B|256:296,1,140
304,224,40675,1,0
304,152,40859,1,0
304,88,41043,1,0
304,88,41227,1,0
384,120,41411,5,0
392,144,41503,1,0
392,168,41595,1,0
392,192,41687,1,0
384,216,41779,1,0
320,256,42147,5,0
320,256,42331,2,0,B|280:320|168:296,1,140
112,160,42884,2,0,B|176:96|280:120,1,175
320,256,43988,2,0,B|280:320|168:296,1,140
104,112,44908,5,0
72,176,45092,1,0
104,240,45276,1,0
144,184,45460,2,0,B|216:168|296:200,1,140
336,240,46012,2,0,B|320:272|256:280,1,70
216,248,46381,1,0
216,248,46565,1,0
216,248,46749,2,0,B|152:304|56:312,1,140
104,240,47301,1,0
256,192,47669,12,4,49325
88,104,49693,6,0,B|88:192|152:232,1,140
192,176,50246,1,0
160,112,50430,2,0,B|248:80|320:136,1,140
256,184,50982,6,0,B|312:216|368:152|448:192,1,175,0|4
416,256,52086,5,0
384,320,52270,1,0
352,256,52454,1,0
352,256,52638,2,0,B|288:280|208:240,1,140
256,184,53190,1,0
328,176,53374,2,0,B|304:104|224:64|128:80,1,210
192,144,54111,1,0
144,192,54295,1,0
144,192,54387,1,0
144,192,54479,1,0
208,216,54663,2,0,B|264:288|336:296|416:304,1,210,0|4
144,80,55583,5,0
80,136,55767,1,0
88,216,55951,1,0
408,96,56503,5,0
432,160,56687,1,0
408,224,56871,1,0
368,168,57055,2,0,B|288:200|200:184,1,140
88,272,57792,5,0
72,192,57976,1,0
104,112,58160,1,0
200,192,58528,6,0,B|272:160|272:336|408:256,1,210
400,120,59448,5,0
440,176,59632,1,0
440,176,59724,1,0
440,176,59816,1,0
368,184,60000,2,0,B|304:248|224:256,1,140
232,320,60552,1,0
176,272,60736,1,0
176,272,60828,1,0
176,272,60920,1,0
192,200,61104,1,4
248,248,61289,1,0
248,248,61381,1,0
248,248,61473,6,0,B|272:160|320:120,1,140
184,80,62209,2,0,B|160:176|72:200,1,140
152,240,62761,1,0
152,240,62945,2,0,B|208:304|304:296,1,140
320,240,63865,1,0
344,304,64049,1,0
408,328,64233,1,0
400,256,64417,2,0,B|448:192|416:88,1,140
384,64,64970,1,0
384,64,65154,2,0,B|344:136|264:152,1,140
136,192,66258,5,0
376,192,66626,1,0
272,104,66994,5,0
240,168,67178,1,0
280,224,67362,1,0
328,280,67546,1,0
280,328,67730,1,4
392,152,68282,5,0
376,80,68466,1,0
304,72,68651,1,0
312,144,68835,2,0,B|280:224|208:232,1,140
120,152,69755,5,0
136,80,69939,1,0
208,72,70123,1,0
200,144,70307,2,0,B|232:224|304:232,1,140
424,312,71227,5,0
456,248,71411,1,0
432,184,71595,1,0
432,184,71779,2,0,B|384:120|320:120,1,105
368,192,72516,2,0,B|352:264|232:264,1,140
272,192,73068,1,0
272,192,73160,1,0
272,192,73252,1,4
256,192,73436,12,0,76197
104,88,79141,5,0
160,128,79325,1,0
104,168,79509,1,2
160,208,79693,1,0
256,184,80062,6,0,B|344:136,1,70,2|0
256,184,80430,2,0,B|344:232,1,70,2|0
384,192,80798,1,0
384,192,80982,1,2
408,56,81350,5,2
408,128,81534,1,0
344,160,81718,1,2
280,136,81902,1,0
272,208,82086,2,0,B|168:208|208:336|112:336,1,210,2|2
104,264,82822,2,0,B|64:200|112:120,1,140,2|2
105,130,83374,1,2
168,168,83558,6,0,B|304:168,1,105
344,168,84295,1,2
416,168,84479,1,0
416,168,84571,1,0
416,168,84663,1,2
400,80,85031,6,0,B|312:112|264:32|184:64,1,210,2|0
136,96,85767,2,0,B|176:168|280:136,1,140,2|0
328,152,86319,2,0,B|304:240|208:248,1,140,2|0
216,176,86871,1,2
88,232,87239,5,2
152,288,87424,1,0
232,312,87608,1,2
312,312,87792,1,0
312,312,87884,1,0
312,312,87976,1,2
384,272,88160,1,0
456,120,88528,6,0,B|384:16|248:40,1,210,2|2
312,112,89264,1,0
384,152,89448,1,2
312,192,89632,1,0
312,192,89724,1,0
312,192,89816,1,2
312,192,90000,1,4
152,152,90368,5,0
152,152,90552,1,4
112,224,90736,1,0
112,224,90828,1,0
112,224,90920,6,0,B|192:256|272:192,1,140
312,192,91473,1,0
232,80,91841,1,0
160,64,92025,1,0
112,120,92209,1,0
176,144,92393,2,0,B|192:240|296:248,1,140
384,320,93129,5,0
448,288,93313,1,0
448,216,93497,1,0
392,168,93681,1,0
376,240,93865,2,0,B|272:256|152:176,1,210
128,240,94601,1,0
96,176,94785,1,0
112,104,94970,1,0
168,64,95154,1,0
192,128,95338,6,0,B|256:176|336:168,1,140,0|4
456,208,96442,6,0,B|440:288|328:312,1,140
352,232,96994,1,0
280,232,97178,1,0
216,208,97362,2,0,B|280:112|408:120,1,210
432,184,98098,1,0
432,256,98282,1,0
432,256,98374,1,0
432,256,98466,1,0
224,296,99019,5,0
152,312,99203,1,0
96,272,99387,1,0
160,240,99571,1,0
160,240,99663,1,0
160,240,99755,1,4
256,192,99939,12,0,101227
152,96,102700,6,0,B|112:168,1,70
184,152,103068,2,0,B|216:224,1,70
144,216,103436,2,0,B|168:296|264:304,1,140
264,232,103988,2,0,B|344:200,1,70
320,272,104356,2,0,B|360:336,1,70
400,272,104724,1,0
400,272,104816,1,0
400,272,104908,1,0
400,272,105092,1,4
280,96,105644,6,0,B|200:136,1,70
280,152,106012,2,0,B|256:248,1,70
200,192,106381,1,0
144,320,106749,2,0,B|72:256,1,70
160,256,107117,2,0,B|120:176,1,70
104,128,107485,1,0
152,80,107669,5,0
152,80,107761,1,0
152,80,107853,1,0
208,120,108037,1,4
200,192,108221,2,0,B|232:264|336:264,1,140
304,192,108773,2,0,B|384:192|448:256,1,140
384,296,109325,1,0
256,240,109693,1,0
128,296,110062,1,0
128,160,110430,1,0
256,104,110798,1,0
120,80,111166,5,0
120,80,111350,1,0
120,80,111534,2,0,B|192:64|272:144,1,140
192,160,112086,2,0,B|240:224|344:224,1,140
344,160,112638,1,0
344,160,112822,1,0
408,192,113006,1,0
416,216,113098,1,0
416,240,113190,1,0
408,264,113282,1,0
384,280,113374,1,0
312,288,113558,1,0
312,288,113743,1,0
312,288,113927,6,0,B|248:320|168:256,1,140
240,224,114479,1,0
240,224,114663,1,0
176,192,114847,1,0
176,192,114939,1,0
176,192,115031,1,0
176,192,115123,1,0
176,192,115215,1,0
232,144,115399,1,0
232,144,115583,1,4
256,64,115767,5,0
264,88,115859,1,0
288,96,115951,2,0,B|344:168|424:192,1,140
256,192,116687,1,0
328,192,116871,1,0
392,224,117239,6,0,B|336:296|256:320,1,140,0|4
232,232,118344,5,0
160,232,118528,1,0
184,168,118712,1,0
184,168,118896,2,0,B|208:96|288:64,1,140
272,208,119632,2,0,B|344:240|416:224,1,140
288,296,120368,2,0,B|248:352|136:336,1,140
112,288,120920,1,0
88,264,121012,1,0
80,232,121104,1,0
88,200,121197,1,0
112,176,121289,1,0
112,176,121473,1,4
240,64,121841,5,0
320,64,122025,1,0
368,136,122209,1,0
424,336,122761,5,0
472,280,122945,1,0
440,216,123129,1,0
392,272,123313,2,0,B|320:288|248:240,1,140
120,152,124049,5,0
168,88,124233,1,0
248,56,124417,1,0
392,232,124785,5,0
344,296,124970,1,0
264,328,125154,1,0
328,128,125706,5,0
344,200,125890,1,0
296,256,126074,1,0
272,192,126258,2,0,B|184:160|144:88,1,140
136,48,126810,1,0
64,48,126994,1,0
96,112,127178,5,0
104,136,127270,1,0
88,160,127362,1,0
72,184,127454,1,0
88,208,127546,1,0
104,232,127638,1,0
80,248,127730,6,0,B|144:304|232:288,1,140
296,176,128466,2,0,B|232:232|160:216,1,140
120,168,129019,1,0
80,112,129203,1,0
208,56,129571,1,0
280,64,129755,1,0
328,120,129939,1,0
280,176,130123,5,0
248,240,130307,1,0
288,296,130491,1,0
320,232,130675,2,0,B|408:224|440:144,1,140
376,120,131411,6,0,B|352:168|272:168,1,105
288,96,132147,1,0
240,48,132331,1,0
200,104,132516,2,0,B|136:168|192:256,1,140
312,192,133252,1,0
248,216,133436,1,0
312,248,133620,1,0
248,272,133804,1,0
312,304,133988,1,4
304,96,134540,5,0
248,56,134724,1,0
184,80,134908,1,0
232,128,135092,2,0,B|168:192|224:288,1,140
408,328,136012,5,0
440,264,136197,1,0
400,208,136381,1,0
368,272,136565,2,0,B|296:288|224:248,1,140
448,184,137485,5,0
408,112,137669,1,0
336,72,137853,1,0
256,64,138037,5,4
368,288,138589,5,4
120,288,139141,5,4
256,192,139509,12,0,142822
112,72,143190,5,0
256,152,143558,1,0
408,72,143927,1,0
256,152,144295,1,0
256,320,144663,1,0
216,248,144847,1,0
296,248,145031,1,0
424,80,145399,6,0,B|416:192|264:224,1,210,4|0
88,80,146871,2,0,B|96:192|248:224,1,210,4|0
256,192,148344,12,0,151104
