osu file format v12

[General]
AudioFilename: sora.mp3
AudioLeadIn: 2000
PreviewTime: 76334
Countdown: 0
SampleSet: Soft
StackLeniency: 0.7
Mode: 0
LetterboxInBreaks: 0

[Editor]
DistanceSpacing: 1
BeatDivisor: 2
GridSize: 32

[Metadata]
Title:Hari no Sora
TitleUnicode:玻璃の空
Artist:Koshimizu Ami
ArtistUnicode:小清水亞美
Creator:Gloria Guard
Version:Sora
Source:
Tags:C74 Queen Sound Online Tsukasa Bungaku shoujo book girl
BeatmapID:229682
BeatmapSetID:83121

[Difficulty]
HPDrainRate:6
CircleSize:4
OverallDifficulty:6
ApproachRate:7
SliderMultiplier:1.6
SliderTickRate:2

[Events]
//Background and Video events
0,0,"sora.png",1,1
Video,0,"Video.flv"
//Break Periods
//Storyboard Layer 0 (Background)
//Storyboard Layer 1 (Fail)
//Storyboard Layer 2 (Pass)
//Storyboard Layer 3 (Foreground)
//Storyboard Sound Samples
//Background Colour Transformations
3,100,163,162,255

[TimingPoints]
616,476.190476190476,4,2,1,35,1,0
13711,-100,4,2,11,40,0,0
13949,-100,4,2,1,40,0,0
15854,-100,4,2,2,40,0,0
16330,-100,4,2,1,42,0,0
31092,-100,4,2,2,43,0,0
31330,-100,4,2,1,45,0,0
38711,-100,4,2,0,40,0,0
38830,-100,4,2,1,45,0,0
39187,-100,4,2,6,45,0,0
39425,-100,4,2,1,45,0,0
40615,-100,4,2,0,45,0,0
40735,-100,4,2,1,45,0,0
41011,-100,4,2,1,45,0,0
41092,-100,4,2,6,45,0,0
41330,-100,4,2,1,45,0,0
41687,-100,4,2,7,50,0,0
41925,-100,4,2,1,45,0,0
42044,-100,4,2,6,50,0,0
42401,-100,4,2,0,40,0,0
42639,-100,4,2,1,45,0,0
43473,-100,4,2,0,50,0,0
43592,-100,4,2,2,50,0,0
44425,-100,4,2,6,50,0,0
44663,-100,4,2,6,48,0,0
44901,-100,4,2,6,46,0,0
45139,-100,4,2,6,44,0,0
45377,-100,4,2,6,50,0,0
46330,-100,4,2,0,60,0,0
46568,-100,4,2,1,40,0,0
49901,-100,4,2,1,40,0,0
50377,-100,4,2,2,40,0,0
52996,-100,4,2,1,40,0,0
53949,-100,4,2,6,50,0,0
54187,-100,4,2,1,40,0,0
57520,-100,4,2,6,45,0,0
57758,-100,4,2,6,50,0,0
57996,-100,4,2,2,40,0,0
59663,-100,4,2,1,50,0,0
59901,-100,4,2,6,50,0,0
60139,-100,4,2,1,43,0,0
60258,-100,4,2,6,50,0,0
60377,-100,4,2,1,50,0,0
60615,-100,4,2,1,43,0,0
60854,-100,4,2,1,47,0,0
61092,-100,4,2,1,50,0,0
61568,-100,4,2,1,60,0,0
65615,-100,4,2,3,60,0,0
65735,-100,4,2,1,60,0,0
69187,-100,4,2,0,60,0,0
69425,-100,4,2,1,43,0,0
69901,-100,4,2,1,47,0,0
70377,-100,4,2,1,50,0,0
70854,-100,4,2,6,40,0,0
71092,-100,4,2,0,50,0,0
71330,-100,4,2,1,45,0,0
71806,-100,4,2,1,50,0,0
72282,-100,4,2,8,50,0,0
72520,-100,4,2,1,50,0,0
72639,-100,4,2,8,45,0,0
72758,-100,4,2,1,50,0,0
72996,-100,4,2,0,54,0,0
73235,-100,4,2,1,50,0,0
73949,-100,4,2,0,48,0,0
74187,-100,4,2,1,57,0,0
74901,-100,4,2,0,47,0,0
75020,-100,4,2,1,57,0,0
75854,-100,4,2,1,54,0,0
76806,-100,4,2,2,63,0,1
77044,-100,4,2,1,62,0,1
77282,-100,4,2,9,62,0,1
77996,-100,4,2,10,62,0,1
78115,-100,4,2,9,62,0,1
80615,-100,4,2,9,56,0,1
83115,-100,4,2,10,57,0,1
83235,-100,4,2,9,62,0,1
83711,-100,4,2,9,46,0,1
83830,-100,4,2,9,62,0,1
84068,-100,4,2,9,46,0,1
84187,-100,4,2,9,62,0,1
84306,-100,4,2,9,46,0,1
84425,-100,4,2,2,46,0,1
84663,-100,4,2,9,62,0,1
92044,-100,4,2,2,62,0,1
92282,-100,4,2,10,62,0,1
92520,-100,4,2,9,62,0,1
97996,-100,4,2,10,62,0,1
98235,-100,4,2,9,62,0,1
99663,-100,4,2,2,62,0,1
99901,-100,4,2,9,62,0,1
102282,-100,4,2,10,62,0,1
102520,-100,4,2,9,62,0,1
105377,-100,4,2,9,63,0,1
107282,-100,4,2,2,70,0,0
107520,-100,4,2,3,70,0,0
107639,-100,4,2,9,57,0,0
108473,-100,4,2,10,57,0,0
108711,-100,4,2,9,57,0,0
116092,-100,4,2,10,57,0,0
116330,-100,4,2,9,57,0,0
122520,-100,4,2,2,57,0,0
122758,-100,4,2,9,52,0,0
124663,-100,4,2,10,52,0,0
124901,-100,4,2,9,52,0,0
125615,-100,4,2,10,57,0,0
125854,-100,4,2,9,57,0,0
127044,-100,4,2,10,57,0,0
127282,-100,4,2,9,57,0,0
130139,-100,4,2,2,57,0,0
130377,-100,4,2,9,57,0,0
135854,-100,4,2,9,52,0,0
137758,-100,4,2,1,52,0,0

[Colours]
Combo1 : 255,83,169
Combo2 : 255,172,255
Combo3 : 235,235,235

[HitObjects]
192,277,616,2,0,P|151:258|125:224,2,80,0|0|2,0:0|0:0|0:0,0:0:0:0:
272,248,1330,2,0,P|276:292|260:332,2,80,0|0|2,0:0|0:0|0:0,0:0:0:0:
204,189,2044,2,0,P|240:163|282:157,2,80,0|0|2,0:0|0:0|0:0,0:0:0:0:
272,248,2758,5,0,0:0:0:0:
280,328,2996,1,0,0:0:0:0:
204,356,3235,1,2,0:0:0:0:
128,332,3473,2,0,P|128:288|144:256,2,80,0|0|2,0:0|0:0|0:0,0:0:0:0:
331,211,4425,6,0,P|300:228|256:228,2,80,0|0|2,0:0|0:0|0:0,0:0:0:0:
369,139,5139,2,0,P|401:167|413:207,2,80,0|0|2,0:0|0:0|0:0,0:0:0:0:
287,142,5854,2,0,P|295:102|323:70,2,80,0|0|2,0:0|0:0|0:0,0:0:0:0:
369,139,6568,5,0,0:0:0:0:
331,212,6806,1,0,0:0:0:0:
249,216,7044,1,2,0:0:0:0:
204,148,7282,2,0,L|140:96,1,80,2|0,0:0|0:0,0:0:0:0:
108,172,7758,2,0,L|24:172,1,80,2|0,0:0|0:0,0:0:0:0:
32,292,8235,6,0,P|32:332|56:368,1,80,6|0,0:0|0:0,0:0:0:0:
52,365,8711,1,2,0:0:0:0:
128,272,8949,2,0,P|160:296|204:296,1,80
198,297,9425,1,2,0:0:0:0:
164,184,9663,2,0,P|208:184|240:168,1,80
400,38,10139,5,2,0:0:0:0:
400,168,10377,1,0,0:0:0:0:
323,63,10615,1,0,0:0:0:0:
447,103,10854,1,2,0:0:0:0:
323,143,11092,2,0,P|320:188|336:220,2,80,0|0|2,0:0|0:0|0:0,0:0:0:0:
476,252,12044,6,0,L|476:332,1,80
476,332,12520,1,2,0:0:0:0:
400,192,12758,2,0,L|400:272,1,80
400,272,13235,1,2,0:0:0:0:
400,352,13473,2,0,P|320:352|260:304,1,160,0|2,0:0|0:0,0:0:0:0:
256,192,14068,12,4,15377,0:0:0:0:
156,272,15854,6,0,P|236:272|280:212,1,160,4|2,0:0|0:0,0:0:0:0:
256,96,16568,2,0,P|336:96|384:156,1,160
444,256,17282,2,0,P|484:244|508:212,1,80,2|0,0:0|0:0,0:0:0:0:
348,236,17758,2,0,P|348:280|368:312,2,80,0|0|2,0:0|0:0|0:0,0:0:0:0:
416,136,18473,2,0,P|336:116|268:152,1,160
272,268,19187,1,2,0:0:0:0:
168,332,19425,1,0,0:0:0:0:
164,212,19663,6,0,L|252:352,1,160,0|2,0:0|0:0,0:0:0:0:
328,256,20377,2,0,P|404:284|480:268,1,160
448,152,21092,2,0,P|408:144|368:148,1,80,2|0,0:0|0:0,0:0:0:0:
200,280,21568,5,0,0:0:0:0:
256,96,21806,1,0,0:0:0:0:
312,280,22044,1,2,0:0:0:0:
160,168,22282,1,0,0:0:0:0:
352,168,22520,2,0,P|416:168|456:128,1,120
476,96,22996,2,0,L|480:56,3,40,2|0|0|2,0:0|0:0|0:0|0:0,0:0:0:0:
476,96,23473,6,0,P|392:84|340:32,1,160,0|2,0:0|0:0,0:0:0:0:
220,32,24187,2,0,P|160:92|172:160,1,160
324,144,24901,2,0,L|248:116,1,80,2|0,0:0|0:0,0:0:0:0:
297,244,25377,2,0,P|337:249|377:235,2,80,0|0|2,0:0|0:0|0:0,0:0:0:0:
240,336,26092,2,0,P|156:336|104:284,1,160
180,192,26806,1,2,0:0:0:0:
112,92,27044,1,0,0:0:0:0:
84,168,27282,6,0,P|164:152|192:84,1,160,0|2,0:0|0:0,0:0:0:0:
84,168,27996,2,0,P|84:248|140:300,1,160
256,268,28711,2,0,L|256:184,1,80,2|0,0:0|0:0,0:0:0:0:
256,68,29187,1,0,0:0:0:0:
336,156,29425,1,0,0:0:0:0:
256,68,29663,1,2,0:0:0:0:
176,156,29901,1,0,0:0:0:0:
252,296,30139,5,0,0:0:0:0:
266,309,30258,1,2,0:0:0:0:
283,320,30377,1,0,0:0:0:0:
301,328,30496,1,0,0:0:0:0:
320,336,30615,2,0,P|364:336|400:320,1,80,2|0,0:0|0:0,0:0:0:0:
488,192,31092,6,0,P|412:192|344:144,1,160,4|2,0:0|0:0,0:0:0:0:
368,68,31806,2,0,P|348:136|272:172,1,160
152,172,32520,1,2,0:0:0:0:
92,68,32758,2,0,P|36:134|37:210,1,160
152,172,33473,2,0,L|232:208,1,80,2|0,0:0|0:0,0:0:0:0:
240,128,33949,2,0,L|324:128,1,80
288,56,34425,2,0,L|368:28,1,80,2|0,0:0|0:0,0:0:0:0:
476,144,34901,5,0,0:0:0:0:
396,144,35139,1,0,0:0:0:0:
360,216,35377,1,2,0:0:0:0:
413,271,35615,2,0,P|476:216|476:144,1,160
388,64,36330,2,0,P|304:84|244:48,1,160,2|0,0:0|0:0,0:0:0:0:
152,124,37044,5,2,0:0:0:0:
152,124,37282,2,0,P|152:164|124:196,1,80,2|0,0:0|0:0,0:0:0:0:
104,228,37639,2,0,P|104:272|132:308,1,80,2|0,0:0|0:0,0:0:0:0:
140,336,37996,1,2,0:0:0:0:
256,244,38235,1,2,0:0:0:0:
372,336,38473,1,2,0:0:0:0:
256,356,38711,6,0,P|208:300|256:244,1,160,4|8,0:0|0:0,0:0:0:0:
364,300,39425,2,0,P|440:280|472:208,1,160
368,148,40139,2,0,P|332:168|312:204,1,80,2|0,0:0|0:0,0:0:0:0:
216,272,40615,2,0,P|244:304|280:316,1,80,4|0,0:0|0:0,0:0:0:0:
184,188,41092,2,0,P|136:240|144:324,2,160,8|0|8,0:0|0:0|0:0,0:0:0:0:
148,60,42520,5,4,0:0:0:0:
216,104,42758,1,0,0:0:0:0:
364,60,42996,1,2,0:0:0:0:
296,104,43235,1,0,0:0:0:0:
256,176,43473,2,0,L|256:256,1,80,4|0,0:0|0:0,0:0:0:0:
256,336,43949,1,2,0:0:0:0:
256,336,44187,1,0,0:0:0:0:
144,292,44425,5,2,0:0:0:0:
124,289,44544,1,10,0:0:0:0:
105,282,44663,1,2,0:0:0:0:
87,273,44782,1,2,0:0:0:0:
72,260,44901,1,10,0:0:0:0:
59,245,45020,1,2,0:0:0:0:
49,227,45139,1,2,0:0:0:0:
43,208,45258,1,10,0:0:0:0:
40,189,45377,2,0,L|56:144,3,40,8|8|8|8,0:0|0:0|0:0|0:0,0:0:0:0:
68,136,45854,2,0,P|104:116|144:116,1,80,8|4,0:0|0:0,0:0:0:0:
248,284,46330,6,0,P|171:283|131:219,1,160,6|2,0:0|0:0,0:0:0:0:
212,212,47044,2,0,L|252:140,2,80
172,280,47758,1,2,0:0:0:0:
132,348,47996,1,0,0:0:0:0:
18,234,48473,1,0,0:0:0:0:
131,120,48949,1,0,0:0:0:0:
244,233,49425,1,0,0:0:0:0:
244,233,49663,2,0,P|284:232|320:212,1,80,2|0,0:0|0:0,0:0:0:0:
160,184,50139,6,0,P|152:268|204:324,1,160,4|2,0:0|0:0,0:0:0:0:
268,280,50854,1,0,0:0:0:0:
348,268,51092,2,0,P|348:308|324:344,2,80,0|0|2,0:0|0:0|0:0,0:0:0:0:
272,248,51806,2,0,P|292:168|352:124,1,160
432,120,52521,2,0,P|468:148|484:188,1,80,2|0,0:0|0:0,0:0:0:0:
476,296,52997,2,0,P|436:296|404:320,1,80,2|0,0:0|0:0,0:0:0:0:
392,356,53354,2,0,P|352:356|316:336,1,80,2|0,0:0|0:0,0:0:0:0:
284,316,53711,1,2,0:0:0:0:
152,252,53949,6,0,P|168:172|240:140,1,160,4|2,0:0|0:0,0:0:0:0:
228,220,54663,1,0,0:0:0:0:
216,300,54901,2,0,P|184:328|148:332,2,80,0|0|2,0:0|0:0|0:0,0:0:0:0:
228,220,55616,2,0,P|264:232|292:264,1,80
348,316,56092,2,0,P|388:308|416:276,1,80,0|2,0:0|0:0,0:0:0:0:
480,232,56568,2,0,P|448:200|444:152,1,80,0|0,0:0|0:0,0:0:0:0:
484,100,57044,1,0,0:0:0:0:
432,40,57282,2,0,P|388:40|356:56,1,80,2|4,0:0|0:0,0:0:0:0:
360,264,57758,6,0,P|412:208|412:128,1,160,4|2,0:0|0:0,0:0:0:0:
300,168,58473,1,0,0:0:0:0:
260,280,58711,2,0,P|292:352|368:368,2,160,0|2|2,0:0|0:0|0:0,0:0:0:0:
300,168,59901,5,8,0:0:0:0:
204,96,60139,1,2,0:0:0:0:
164,96,60258,1,8,0:0:0:0:
132,120,60377,1,0,0:0:0:0:
26,187,60616,2,0,L|34:231,1,40,2|0,0:0|0:0,0:0:0:0:
74,236,60854,2,0,L|82:280,1,40,2|0,0:0|0:0,0:0:0:0:
117,298,61092,2,0,P|153:318|201:318,1,80,2|2,0:0|0:0,0:0:0:0:
256,224,61568,5,6,0:0:0:0:
172,136,61806,1,0,0:0:0:0:
172,136,61925,1,0,0:0:0:0:
172,136,62044,2,0,P|128:136|96:120,1,80,8|0,0:0|0:0,0:0:0:0:
240,84,62520,6,0,P|256:120|252:160,1,80,2|0,0:0|0:0,0:0:0:0:
180,192,62997,1,8,0:0:0:0:
116,240,63235,2,0,P|116:280|140:312,2,80,0|2|0,0:0|0:0|0:0,0:0:0:0:
216,172,63949,1,8,0:0:0:0:
216,172,64187,2,0,P|288:212|376:200,1,160,0|0,0:0|0:0,0:0:0:0:
428,160,64901,2,0,L|432:80,1,80,8|0,0:0|0:0,0:0:0:0:
256,48,65377,6,0,P|176:48|120:104,1,160,2|8,0:0|0:0,0:0:0:0:
200,192,66092,1,0,0:0:0:0:
200,192,66211,1,0,0:0:0:0:
200,192,66330,2,0,L|284:192,2,80,2|0|8,0:0|0:0|0:0,0:0:0:0:
156,124,67044,2,0,P|120:192|161:262,1,160
276,280,67758,2,0,L|228:348,1,80,8|0,0:0|0:0,0:0:0:0:
112,356,68235,5,2,0:0:0:0:
92,357,68354,1,8,0:0:0:0:
72,354,68473,1,0,0:0:0:0:
54,346,68592,1,0,0:0:0:0:
40,332,68711,2,0,P|36:296|60:256,1,80,8|0,0:0|0:0,0:0:0:0:
156,192,69187,5,4,0:0:0:0:
56,124,69425,2,0,L|84:96,2,40,0|0|2,0:0|0:0|0:0,0:0:0:0:
244,72,69901,2,0,L|216:100,2,40,0|2|0,0:0|0:0|0:0,0:0:0:0:
256,260,70377,2,0,L|256:348,1,80,2|8,0:0|0:0,0:0:0:0:
256,260,70854,1,4,0:0:0:0:
356,192,71092,5,4,0:0:0:0:
288,92,71330,2,0,L|316:64,2,40,2|0|0,0:0|0:0|0:0,0:0:0:0:
408,104,71806,1,2,0:0:0:0:
372,216,72044,2,0,P|368:276|404:320,2,120,0|0|0,0:0|0:0|0:0,0:0:0:0:
408,104,72996,5,4,0:0:0:0:
352,48,73235,1,0,0:0:0:0:
276,32,73473,2,0,P|240:52|220:84,1,80,8|0,0:0|0:0,0:0:0:0:
304,172,73949,5,4,0:0:0:0:
360,228,74187,1,0,0:0:0:0:
352,304,74425,2,0,P|316:328|280:336,1,80,8|0,0:0|0:0,0:0:0:0:
160,348,74901,6,0,L|120:320,3,40,4|0|8|0,0:0|0:0|0:0|0:0,0:0:0:0:
88,320,75377,2,8,L|72:280,3,40,8|0|0|8,0:0|0:0|0:0|0:0,0:0:0:0:
64,264,75854,1,2,0:0:0:0:
56,245,75973,1,10,0:0:0:0:
53,225,76092,1,8,0:0:0:0:
55,206,76211,1,2,0:0:0:0:
62,187,76330,1,2,0:0:0:0:
73,170,76449,1,10,0:0:0:0:
88,157,76568,1,10,0:0:0:0:
106,148,76687,1,10,0:0:0:0:
124,148,76806,6,0,P|167:156|203:180,1,80,6|0,0:0|0:0,0:0:0:0:
223,204,77163,2,0,L|211:248,1,40,0|8,0:0|2:2,0:0:0:0:
260,352,77520,1,2,0:0:0:0:
376,344,77758,1,0,0:0:0:0:
376,344,77877,2,0,P|416:332|444:308,1,80,0|0,2:2|0:0,0:0:0:0:
456,268,78235,1,8,2:2:0:0:
364,192,78473,1,0,0:0:0:0:
252,152,78711,6,0,P|240:192|252:228,2,80,6|0|8,0:0|0:0|2:2,0:0:0:0:
340,72,79425,2,0,P|264:40|188:56,1,160,2|2,0:0|0:0,0:0:0:0:
120,152,80139,2,0,P|120:192|148:232,1,80,8|0,2:2|0:0,0:0:0:0:
340,212,80615,6,0,P|276:168|196:168,1,160,4|8,0:0|2:2,0:0:0:0:
304,288,81330,2,0,P|404:264|424:216,1,160,0|2,0:0|0:0,0:0:0:0:
416,96,82044,1,8,2:2:0:0:
312,52,82282,1,0,0:0:0:0:
256,156,82520,2,0,P|216:156|180:136,1,80,4|2,0:0|0:0,0:0:0:0:
168,100,82877,1,0,0:0:0:0:
128,92,82997,2,0,P|84:100|60:124,1,80,8|0,2:2|0:0,0:0:0:0:
132,232,83473,6,0,L|160:260,3,40,2|0|4|2,0:0|0:0|0:0|0:0,0:0:0:0:
176,272,83949,1,8,2:2:0:0:
194,278,84068,1,4,0:0:0:0:
214,280,84187,1,2,0:0:0:0:
234,278,84306,1,4,0:0:0:0:
253,272,84425,6,0,P|284:236|292:200,1,80,6|0,0:0|0:0,0:0:0:0:
216,184,84901,1,8,2:2:0:0:
376,188,85139,2,0,P|368:100|312:60,1,160,2|2,0:0|0:0,0:0:0:0:
260,168,85854,2,0,L|188:208,1,80,8|0,2:2|0:0,0:0:0:0:
160,324,86330,6,0,L|232:284,2,80,4|2|8,0:0|0:0|2:2,0:0:0:0:
52,284,87044,2,0,P|16:216|52:148,1,160,0|2,0:0|0:0,0:0:0:0:
172,116,87758,2,0,P|152:76|124:56,1,80,8|0,2:2|0:0,0:0:0:0:
156,212,88235,6,0,P|232:188|268:120,1,160,4|8,0:0|0:0,0:0:0:0:
296,270,88949,2,0,P|304:200|267:120,1,160,2|2,0:0|0:0,0:0:0:0:
160,72,89663,2,0,P|120:80|88:104,1,80,8|0,0:0|0:0,0:0:0:0:
172,188,90139,5,4,0:0:0:0:
292,192,90377,1,2,0:0:0:0:
332,80,90616,1,0,2:2:0:0:
372,80,90735,1,8,0:0:0:0:
408,96,90854,1,0,0:0:0:0:
480,192,91092,2,0,P|480:232|456:272,1,80,4|2,0:0|0:0,2:2:0:0:
428,288,91449,1,4,0:0:0:0:
389,296,91568,2,0,P|349:296|313:316,1,80,8|4,2:2|0:0,0:0:0:0:
160,352,92044,6,0,P|92:300|96:232,1,160,4|8,0:0|2:2,0:0:0:0:
200,108,92758,2,0,P|268:160|264:228,1,160,0|2,0:0|0:0,0:0:0:0:
188,324,93473,1,8,0:0:0:0:
300,360,93711,2,0,P|380:360|436:308,1,160,2|2,0:0|0:0,0:0:0:0:
472,192,94425,6,0,L|392:168,1,80,8|0,2:0|0:0,0:0:0:0:
400,48,94901,2,0,L|316:76,1,80,0|2,0:0|0:0,0:0:0:0:
228,24,95377,2,0,L|184:92,1,80,8|0,0:0|0:0,0:0:0:0:
228,276,95854,5,4,0:0:0:0:
116,192,96092,1,2,0:0:0:0:
96,328,96330,1,8,0:0:0:0:
96,328,96568,2,0,L|196:204,1,160,0|2,0:0|0:0,0:0:0:0:
312,168,97282,6,0,P|276:100|200:84,2,160,8|4|8,0:0|0:0|0:0,0:0:0:0:
250,274,98473,1,2,0:0:0:0:
356,340,98711,1,4,0:0:0:0:
374,346,98830,1,8,0:0:0:0:
394,348,98949,1,0,0:0:0:0:
414,345,99068,1,0,0:0:0:0:
432,337,99187,2,0,P|464:304|472:272,1,80,8|0,0:0|0:0,0:0:0:0:
316,240,99663,6,0,L|400:276,1,80,4|2,0:0|0:0,0:0:0:0:
276,312,100139,1,8,0:0:0:0:
204,348,100377,2,0,P|124:348|52:304,1,160,0|2,0:0|0:0,0:0:0:0:
88,192,101092,2,0,L|168:192,1,80,8|0,0:0|0:0,0:0:0:0:
268,124,101568,2,0,P|304:192|268:260,2,160,4|8|0,0:0|0:0|0:0,0:0:0:0:
160,76,102758,1,2,0:0:0:0:
272,28,102997,2,0,P|312:28|348:48,1,80,8|0,0:0|0:0,0:0:0:0:
272,140,103473,5,4,0:0:0:0:
256,220,103711,1,4,0:0:0:0:
332,196,103949,2,0,L|412:212,1,80,8|0,0:0|0:0,0:0:0:0:
256,220,104425,5,2,0:0:0:0:
196,168,104663,1,4,0:0:0:0:
272,140,104901,2,0,L|288:60,1,80,8|0,0:0|0:0,0:0:0:0:
172,36,105377,6,0,L|128:36,3,40,6|2|2|2,0:0|0:0|0:0|0:0,0:0:0:0:
92,48,105854,2,0,L|64:80,3,40,10|6|2|2,0:0|0:0|0:0|0:0,0:0:0:0:
56,96,106330,1,2,0:0:0:0:
49,114,106449,1,2,0:0:0:0:
46,134,106568,1,6,0:0:0:0:
47,154,106687,1,2,0:0:0:0:
51,174,106806,1,10,0:0:0:0:
59,192,106925,1,6,0:0:0:0:
70,208,107044,1,2,0:0:0:0:
84,223,107163,1,6,0:0:0:0:
100,236,107282,6,0,P|156:236|204:192,1,120,4|0,0:0|0:0,0:0:0:0:
212,156,107758,2,0,P|252:144|292:148,1,80,8|2,2:2|0:0,0:0:0:0:
428,112,108235,1,0,0:0:0:0:
428,112,108354,2,0,P|440:152|432:196,1,80,0|0,2:2|0:0,0:0:0:0:
404,216,108711,2,0,P|412:256|440:288,1,80,8|0,2:2|0:0,0:0:0:0:
380,344,109187,6,0,P|308:312|232:340,1,160,0|8,0:0|2:2,0:0:0:0:
168,192,109901,2,0,P|96:240|80:312,1,160,2|2,0:0|0:0,0:0:0:0:
196,272,110615,2,0,P|232:248|248:216,1,80,8|0,0:0|0:0,0:0:0:0:
348,92,111092,6,0,P|288:64|228:64,1,120,0|0,0:0|0:0,0:0:0:0:
204,88,111568,2,0,P|160:88|128:68,1,80,8|0,2:2|0:0,0:0:0:0:
40,152,112044,1,0,0:0:0:0:
40,152,112163,2,0,P|56:188|56:232,2,80,2|2|2,0:0|0:0|0:0,0:0:0:0:
40,152,112758,1,0,0:0:0:0:
204,88,112996,5,0,0:0:0:0:
204,88,113235,1,2,0:0:0:0:
312,144,113473,2,0,P|352:144|388:124,1,80,8|2,2:2|0:0,0:0:0:0:
204,88,113949,2,0,P|188:128|192:172,1,80,2|0,0:0|0:0,0:0:0:0:
223,186,114306,1,0,0:0:0:0:
252,212,114425,2,0,P|253:248|237:288,1,80,8|0,2:2|0:0,0:0:0:0:
344,348,114901,6,0,P|400:348|452:312,1,120,2|0,0:0|0:0,0:0:0:0:
452,272,115377,2,0,P|452:232|476:188,1,80,8|2,2:2|0:0,0:0:0:0:
440,40,115854,1,0,0:0:0:0:
440,40,115973,2,0,P|400:40|364:64,1,80,0|0,2:2|0:0,0:0:0:0:
328,60,116330,2,0,P|312:100|312:136,1,80,8|2,2:2|0:0,0:0:0:0:
408,264,116806,6,0,P|352:316|272:316,1,160,0|8,0:0|2:0,0:0:0:0:
112,328,117520,2,0,P|120:248|184:196,1,160,2|2,0:0|0:0,0:0:0:0:
248,104,118235,2,0,P|280:132|292:168,1,80,8|0,2:0|0:0,0:0:0:0:
288,328,118711,6,0,P|364:352|444:328,1,160,0|8,0:0|2:0,0:0:0:0:
372,232,119425,2,0,P|432:172|436:96,1,160,0|2,0:0|0:0,0:0:0:0:
247,91,120139,2,0,L|320:124,2,80,8|0|0,0:0|0:0|0:0,0:0:0:0:
156,160,120854,5,2,0:0:0:0:
140,40,121092,1,8,0:0:0:0:
247,91,121330,1,2,0:0:0:0:
88,112,121568,1,0,0:0:0:0:
73,125,121687,1,0,0:0:0:0:
62,142,121806,1,2,0:0:0:0:
53,160,121925,1,0,0:0:0:0:
49,179,122044,2,0,L|60:228,3,40,8|2|0|0,0:0|0:0|0:0|0:0,0:0:0:0:
68,236,122520,6,0,P|132:280|224:280,1,160,4|8,0:0|0:0,0:0:0:0:
324,240,123235,1,0,0:0:0:0:
256,144,123473,2,0,L|216:144,1,40,0|2,0:0|0:0,0:0:0:0:
132,56,123830,2,0,L|100:88,1,40,0|8,0:0|0:0,0:0:0:0:
52,192,124187,1,0,0:0:0:0:
156,252,124425,6,0,P|236:252|288:312,1,160,0|8,0:0|0:0,0:0:0:0:
184,372,125139,1,2,0:0:0:0:
76,320,125377,2,0,P|56:244|88:168,1,160,0|8,0:0|0:0,0:0:0:0:
176,92,126092,1,0,0:0:0:0:
264,176,126330,6,0,P|344:176|404:124,2,160,0|8|0,0:0|0:0|0:0,0:0:0:0:
152,36,127639,1,2,0:0:0:0:
84,204,127996,1,2,0:0:0:0:
84,204,128235,6,0,P|84:248|116:288,1,80,0|2,0:0|0:0,0:0:0:0:
100,116,128711,2,0,P|60:116|24:136,1,80,8|2,0:0|0:0,0:0:0:0:
180,112,129187,1,0,0:0:0:0:
180,112,129306,2,0,P|220:112|256:96,1,80,2|0,0:0|0:0,0:0:0:0:
280,64,129663,2,0,P|328:72|360:96,1,80,8|0,0:0|0:0,0:0:0:0:
345,273,130139,6,0,P|292:220|292:140,1,160,4|2,0:0|0:0,0:0:0:0:
460,284,131092,2,0,P|416:360|348:380,1,160,0|2,0:0|0:0,0:0:0:0:
292,324,131806,1,4,0:0:0:0:
292,324,132044,6,0,P|216:284|200:216,1,160,4|2,0:0|0:0,0:0:0:0:
124,192,132758,2,0,P|184:140|260:164,1,160,0|0,0:0|0:0,0:0:0:0:
280,236,133473,2,0,P|256:160|308:108,1,160,2|4,0:0|0:0,0:0:0:0:
392,192,134425,1,2,0:0:0:0:
278,305,134901,1,4,0:0:0:0:
164,191,135377,1,2,0:0:0:0:
277,77,135854,6,0,L|232:64,3,40,2|2|4|2,0:0|0:0|0:0|0:0,0:0:0:0:
204,44,136330,2,0,L|160:60,3,40,2|4|2|2,0:0|0:0|0:0|0:0,0:0:0:0:
148,68,136806,1,0,0:0:0:0:
131,79,136925,1,4,0:0:0:0:
117,94,137044,1,0,0:0:0:0:
107,111,137163,1,4,0:0:0:0:
100,129,137282,1,0,0:0:0:0:
97,149,137401,1,0,0:0:0:0:
98,169,137520,1,4,0:0:0:0:
103,188,137639,1,0,0:0:0:0:
112,206,137758,5,4,0:0:0:0:
