osu file format v12

[General]
AudioFilename: sora.mp3
AudioLeadIn: 2000
PreviewTime: 76334
Countdown: 0
SampleSet: Soft
StackLeniency: 0.7
Mode: 0
LetterboxInBreaks: 0

[Editor]
DistanceSpacing: 1
BeatDivisor: 4
GridSize: 4

[Metadata]
Title:Hari no Sora
TitleUnicode:玻璃の空
Artist:Koshimizu Ami
ArtistUnicode:小清水亞美
Creator:Gloria Guard
Version:Normal
Source:
Tags:C74 Queen Sound Online Tsukasa Bungaku shoujo book girl
BeatmapID:229735
BeatmapSetID:83121

[Difficulty]
HPDrainRate:3
CircleSize:3
OverallDifficulty:3
ApproachRate:4
SliderMultiplier:1.1
SliderTickRate:2

[Events]
//Background and Video events
0,0,"sora.png",1,1
Video,0,"Video.flv"
//Break Periods
//Storyboard Layer 0 (Background)
//Storyboard Layer 1 (Fail)
//Storyboard Layer 2 (Pass)
//Storyboard Layer 3 (Foreground)
//Storyboard Sound Samples
//Background Colour Transformations
3,100,163,162,255

[TimingPoints]
616,476.190476190476,4,2,1,47,1,0
15854,-100,4,2,2,50,0,0
16092,-100,4,2,1,54,0,0
31092,-100,4,2,2,50,0,0
31330,-100,4,2,3,40,0,0
43473,-100,4,2,3,50,0,0
46330,-100,4,2,2,50,0,0
46568,-100,4,2,1,46,0,0
49901,-100,4,2,1,50,0,0
50139,-100,4,2,6,50,0,0
50377,-100,4,2,1,50,0,0
57758,-100,4,2,6,50,0,0
57996,-100,4,2,1,50,0,0
58235,-100,4,2,10,50,0,0
58473,-100,4,2,1,50,0,0
59187,-100,4,2,10,50,0,0
59425,-100,4,2,1,50,0,0
59663,-100,4,2,1,50,0,0
61568,-100,4,2,1,50,0,0
62045,-100,4,2,8,50,0,0
62282,-100,4,2,1,50,0,0
65854,-100,4,2,8,50,0,0
66092,-100,4,2,1,50,0,0
67758,-100,4,2,8,50,0,0
67996,-100,4,2,1,50,0,0
72282,-100,4,2,10,50,0,0
72520,-100,4,2,1,50,0,0
72996,-100,4,2,6,50,0,0
73473,-100,4,2,1,50,0,0
73949,-100,4,2,6,50,0,0
74425,-100,4,2,1,50,0,0
74901,-100,4,2,0,50,0,0
76806,-100,4,2,2,60,0,1
77282,-100,4,2,9,60,0,1
92044,-100,4,2,2,60,0,1
92282,-100,4,2,9,60,0,1
107282,-100,4,2,2,55,0,0
107520,-100,4,2,1,60,0,0
115973,-100,4,2,10,60,0,0
116092,-100,4,2,1,60,0,0
117877,-100,4,2,10,60,0,0
117996,-100,4,2,1,60,0,0
121687,-100,4,2,10,60,0,0
122044,-100,4,2,1,60,0,0
122520,-100,4,2,2,50,0,0
122758,-100,4,2,1,60,0,0
133115,-100,4,2,10,60,0,0
133235,-100,4,2,1,60,0,0
135854,-100,4,2,1,50,0,0
137639,-100,4,2,1,60,0,0

[Colours]
Combo1 : 255,83,169
Combo2 : 255,172,255
Combo3 : 235,235,235

[HitObjects]
156,320,616,2,0,B|208:320|256:280|256:280|308:320|356:320,2,220,4|0|0,0:0|0:0|0:0,0:0:0:0:
48,300,2996,1,0,0:0:0:0:
44,192,3473,2,0,P|100:192|144:160,1,110,0|0,0:0|0:0,0:0:0:0:
156,64,4425,6,0,B|208:64|256:104|256:104|308:64|356:64,2,220,4|0|0,0:0|0:0|0:0,0:0:0:0:
48,72,6806,1,0,0:0:0:0:
36,176,7282,2,0,P|36:232|68:280,1,110,0|0,0:0|0:0,0:0:0:0:
144,200,8235,6,0,L|252:172,1,110,4|0,0:0|0:0,0:0:0:0:
332,96,9187,2,0,P|368:140|368:196,1,110,0|0,0:0|0:0,0:0:0:0:
324,220,9901,1,0,0:0:0:0:
276,244,10139,2,0,P|277:295|313:339,1,110,0|0,0:0|0:0,0:0:0:0:
412,292,11092,2,0,P|410:240|374:196,1,110,0|0,0:0|0:0,0:0:0:0:
304,116,12044,6,0,P|256:140|208:116,2,110,4|0|0,0:0|0:0|0:0,0:0:0:0:
380,36,13473,1,0,0:0:0:0:
256,192,13949,12,4,15377,0:0:0:0:
216,200,15854,6,0,P|112:232|80:332,1,220,6|2,0:0|0:0,0:0:0:0:
188,308,17282,1,0,0:0:0:0:
292,344,17758,2,0,P|408:344|456:264,1,220,0|2,0:0|0:0,0:0:0:0:
372,192,19187,1,0,0:0:0:0:
308,104,19663,6,0,P|256:192|320:276,1,220,0|2,0:0|0:0,0:0:0:0:
372,192,21092,1,0,0:0:0:0:
372,192,21568,2,0,L|152:192,1,220,0|2,0:0|0:0,0:0:0:0:
44,192,22996,1,0,0:0:0:0:
36,84,23473,6,0,P|92:84|136:48,1,110,0|0,0:0|0:0,0:0:0:0:
184,32,24187,2,0,P|240:32|296:64,1,110,2|0,0:0|0:0,0:0:0:0:
312,104,24901,1,0,0:0:0:0:
256,200,25377,2,0,P|256:256|292:300,2,110,0|0|2,0:0|0:0|0:0,0:0:0:0:
256,88,26806,1,0,0:0:0:0:
356,40,27282,6,0,P|444:96|440:204,1,220,0|2,0:0|0:0,0:0:0:0:
348,148,28711,1,0,0:0:0:0:
344,256,29187,2,0,P|256:200|260:92,1,220,0|2,0:0|0:0,0:0:0:0:
356,48,30615,1,0,0:0:0:0:
260,92,31092,6,0,P|204:92|156:68,1,110,4|0,0:0|0:0,0:0:0:0:
108,44,31806,2,0,P|60:84|44:132,1,110,2|0,0:0|0:0,0:0:0:0:
52,180,32520,2,0,L|96:228,1,55,2|0,0:0|0:0,0:0:0:0:
256,224,33473,2,0,P|256:284|228:328,2,110,0|2|0,0:0|0:0|0:0,0:0:0:0:
168,160,34901,6,0,P|256:104|344:160,1,220,0|2,0:0|0:0,0:0:0:0:
344,272,36330,1,0,0:0:0:0:
256,336,36806,2,0,P|200:356|136:348,1,110,0|2,0:0|0:0,0:0:0:0:
188,248,37758,2,0,P|132:232|88:188,1,110,2|0,0:0|0:0,0:0:0:0:
96,144,38473,1,0,0:0:0:0:
120,96,38711,6,0,P|176:96|228:60,1,110,4|2,0:0|0:0,0:0:0:0:
328,48,39663,2,0,P|384:48|432:76,1,110,0|2,0:0|0:0,0:0:0:0:
456,124,40377,1,2,0:0:0:0:
452,180,40615,2,0,P|436:232|388:264,1,110,4|2,0:0|0:0,0:0:0:0:
308,192,41568,2,0,P|256:192|208:224,1,110,0|2,0:0|0:0,0:0:0:0:
184,332,42520,6,0,P|128:308|104:268,1,110,4|2,0:0|0:0,0:0:0:0:
16,200,43473,2,0,P|56:164|112:156,1,110,4|2,0:0|0:0,0:0:0:0:
204,216,44425,5,4,0:0:0:0:
281,138,44901,1,4,0:0:0:0:
358,215,45377,1,4,0:0:0:0:
280,292,45854,1,4,0:0:0:0:
204,216,46330,6,0,P|170:106|238:38,1,220,4|2,0:0|0:0,0:0:0:0:
280,140,47758,1,2,0:0:0:0:
280,140,47996,2,0,P|336:140|380:112,1,110,0|2,0:0|0:0,0:0:0:0:
468,180,48949,2,0,P|452:236|472:292,1,110,0|2,0:0|0:0,0:0:0:0:
412,376,49901,1,2,0:0:0:0:
412,376,50139,6,0,B|332:376|296:336|296:336|212:384,1,220,4|2,0:0|0:0,0:0:0:0:
216,268,51568,1,0,0:0:0:0:
256,164,52044,2,0,P|196:156|144:184,1,110,0|2,0:0|0:0,0:0:0:0:
216,268,52996,2,0,L|276:284,1,55,0|2,0:0|0:0,0:0:0:0:
324,296,53473,6,0,P|376:280|408:236,1,110,0|0,0:0|0:0,0:0:0:0:
408,128,54425,1,2,0:0:0:0:
304,88,54901,2,0,P|256:108|204:88,2,110,0|2|0,0:0|0:0|0:0,0:0:0:0:
380,168,56330,5,2,0:0:0:0:
336,268,56806,1,0,0:0:0:0:
228,284,57282,1,2,0:0:0:0:
140,216,57758,6,0,P|140:144|20:156,2,220,0|0|4,0:0|0:0|0:0,0:0:0:0:
96,316,60139,2,0,L|156:348,1,55,2|0,0:0|0:0,0:0:0:0:
200,340,60615,2,0,P|256:340|296:308,1,110,0|2,0:0|0:0,0:0:0:0:
368,192,61568,6,0,P|256:192|204:104,1,220,4|2,0:0|0:0,0:0:0:0:
292,40,62996,1,8,0:0:0:0:
404,40,63473,2,0,P|452:68|472:120,2,110,2|8|2,0:0|0:0|0:0,0:0:0:0:
348,136,64901,1,8,0:0:0:0:
348,244,65377,6,0,P|244:280|144:240,1,220,2|2,0:0|0:0,0:0:0:0:
120,136,66806,1,8,0:0:0:0:
16,116,67282,2,0,P|16:228|88:304,1,220,2|2,0:0|0:0,0:0:0:0:
188,340,68711,1,8,0:0:0:0:
256,256,69187,1,4,0:0:0:0:
40,88,70377,6,0,P|40:148|76:196,1,110,2|2,0:0|0:0,0:0:0:0:
116,216,71092,1,8,0:0:0:0:
256,132,71806,1,2,0:0:0:0:
256,132,72044,2,0,L|256:244,1,110,0|8,0:0|0:0,0:0:0:0:
204,340,72996,6,0,P|256:356|308:340,1,110,4|8,0:0|0:0,0:0:0:0:
416,316,73949,2,0,P|392:264|348:240,1,110,4|8,0:0|0:0,0:0:0:0:
236,240,74901,1,6,0:0:0:0:
158,162,75377,1,4,0:0:0:0:
235,84,75854,1,4,0:0:0:0:
312,161,76330,1,4,0:0:0:0:
416,196,76806,6,0,P|416:140|392:92,1,110,4|8,0:0|0:0,0:0:0:0:
288,64,77758,1,0,0:0:0:0:
184,68,78235,1,8,0:0:0:0:
88,120,78711,2,0,P|64:172|64:224,1,110,0|8,0:0|0:0,0:0:0:0:
72,280,79425,2,0,P|128:308|184:296,1,110
216,264,80139,1,8,0:0:0:0:
252,160,80615,6,0,P|304:192|324:248,1,110,0|8,0:0|0:0,0:0:0:0:
312,344,81568,1,0,0:0:0:0:
204,372,82044,1,8,0:0:0:0:
216,264,82520,2,0,P|272:264|316:232,1,110,0|8,0:0|0:0,0:0:0:0:
396,160,83473,1,2,0:0:0:0:
364,56,83949,1,8,0:0:0:0:
304,144,84425,6,0,P|256:168|208:144,2,110,0|8|0,0:0|0:0|0:0,0:0:0:0:
368,56,85854,2,0,L|420:92,1,55,8|0,0:0|0:0,0:0:0:0:
464,112,86330,2,0,P|464:168|440:224,1,110,0|8,0:0|0:0,0:0:0:0:
400,252,87044,2,0,P|344:252|300:288,1,110
292,340,87758,1,8,0:0:0:0:
184,348,88235,6,0,P|128:348|88:316,1,110,0|8,0:0|0:0,0:0:0:0:
16,232,89187,1,0,0:0:0:0:
120,192,89663,1,8,0:0:0:0:
228,192,90139,2,0,L|344:192,2,110,0|8|2,0:0|0:0|0:0,0:0:0:0:
120,192,91568,2,0,L|72:152,1,55,8|0,0:0|0:0,0:0:0:0:
40,120,92044,6,0,P|72:72|128:60,1,110,4|8,0:0|0:0,0:0:0:0:
172,80,92758,2,0,P|232:80|280:52,1,110,2|0,0:0|0:0,0:0:0:0:
324,32,93473,2,0,L|376:68,2,55,8|0|0,0:0|0:0|0:0,0:0:0:0:
256,116,94425,1,8,0:0:0:0:
178,193,94901,1,2,0:0:0:0:
255,270,95377,1,8,0:0:0:0:
332,192,95854,6,0,P|392:192|436:164,1,110,0|8,0:0|0:0,0:0:0:0:
472,128,96568,2,0,P|468:60|432:24,1,110,2|2,0:0|0:0,0:0:0:0:
388,24,97282,1,8,0:0:0:0:
304,92,97758,6,0,P|256:128|204:128,1,110,0|8,0:0|0:0,0:0:0:0:
132,48,98711,2,0,P|100:88|96:148,1,110,2|8,0:0|0:0,0:0:0:0:
124,192,99425,1,0,0:0:0:0:
95,239,99663,6,0,P|100:296|132:336,1,110,0|8,0:0|0:0,0:0:0:0:
184,352,100377,2,0,P|240:336|300:340,1,110,0|0,0:0|0:0,0:0:0:0:
344,352,101092,2,0,L|400:320,2,55,8|0|0,0:0|0:0|0:0,0:0:0:0:
288,256,102044,5,8,0:0:0:0:
365,178,102520,1,2,0:0:0:0:
287,100,102996,1,8,0:0:0:0:
209,177,103473,6,0,P|156:200|124:244,1,110,0|8,0:0|0:0,0:0:0:0:
104,352,104425,2,0,P|64:340|20:272,1,110,2|8,0:0|0:0,0:0:0:0:
76,192,105377,5,4,0:0:0:0:
153,114,105854,1,8,0:0:0:0:
230,191,106330,1,0,0:0:0:0:
307,113,106806,1,8,0:0:0:0:
408,160,107282,6,0,P|420:220|400:276,1,110,4|0,0:0|1:1,0:0:0:0:
376,312,107996,2,0,P|316:328|264:312,1,110,2|0,0:0|0:0,0:0:0:0:
232,276,108711,1,0,1:1:0:0:
148,120,109187,6,0,P|104:168|96:212,1,110,0|0,0:0|1:1,0:0:0:0:
104,264,109901,2,0,P|160:288|200:328,1,110,2|0,0:0|0:0,0:0:0:0:
244,352,110615,1,0,1:1:0:0:
356,348,111092,6,0,P|408:340|448:296,1,110,0|0,0:0|1:0,0:0:0:0:
448,188,112044,2,0,P|396:172|356:132,1,110,2|0,0:0|1:1,0:0:0:0:
252,100,112996,6,0,P|280:52|336:32,2,110,0|0|2,0:0|1:1|0:0,0:0:0:0:
248,228,114425,1,0,1:1:0:0:
208,328,114901,6,0,P|148:328|104:300,1,110,0|0,0:0|1:1,0:0:0:0:
76,256,115615,2,0,P|76:196|108:152,1,110,2|0,0:0|0:0,0:0:0:0:
144,120,116330,1,0,1:1:0:0:
252,160,116806,6,0,P|308:160|356:132,1,110,2|0,0:0|1:1,0:0:0:0:
380,84,117520,2,0,P|436:100|476:144,1,110,2|0,0:0|0:0,0:0:0:0:
476,192,118235,1,0,1:1:0:0:
380,248,118711,6,0,P|324:248|280:220,1,110,2|0,0:0|1:1,0:0:0:0:
192,152,119663,1,0,0:0:0:0:
256,64,120139,1,0,1:1:0:0:
364,64,120615,6,0,P|416:68|464:112,1,110,2|0,0:0|1:1,0:0:0:0:
368,168,121568,2,0,P|400:220|404:272,1,110,0|0,0:0|1:1,0:0:0:0:
296,252,122520,6,0,P|240:252|196:224,1,110,4|0,0:0|1:1,0:0:0:0:
112,148,123473,1,2,0:0:0:0:
212,84,123949,2,0,L|160:56,1,55,0|0,1:1|0:0,0:0:0:0:
112,48,124425,2,0,P|60:68|28:116,1,110,2|0,0:0|1:1,0:0:0:0:
104,192,125377,2,0,P|104:252|72:292,1,110,2|0,0:0|1:1,0:0:0:0:
172,344,126330,6,0,P|224:320|276:332,1,110,2|0,0:0|1:1,0:0:0:0:
384,348,127282,2,0,P|432:320|452:272,1,110,2|0,0:0|1:1,0:0:0:0:
464,164,128235,1,2,0:0:0:0:
368,112,128711,2,0,L|328:152,1,55,0|0,1:1|0:0,0:0:0:0:
284,184,129187,2,0,P|224:184|184:144,1,110,2|0,0:0|1:1,0:0:0:0:
192,44,130139,1,4,0:0:0:0:
104,108,131806,5,0,0:0:0:0:
104,108,132044,2,0,P|104:168|72:216,1,110,2|0,0:0|0:0,0:0:0:0:
44,252,132758,2,0,P|72:308|128:328,1,110,2|0,0:0|0:0,0:0:0:0:
168,324,133473,1,0,0:0:0:0:
256,260,133949,6,0,P|312:260|352:224,1,110,2|2,0:0|0:0,0:0:0:0:
400,204,134663,2,0,P|400:144|368:104,1,110,0|2,0:0|0:0,0:0:0:0:
324,80,135377,1,0,0:0:0:0:
256,168,135854,5,2,0:0:0:0:
178,245,136330,1,2,0:0:0:0:
100,167,136806,1,2,0:0:0:0:
177,89,137282,1,2,0:0:0:0:
256,168,137758,5,4,0:0:0:0:
