osu file format v12

[General]
AudioFilename: garasu no sora.mp3
AudioLeadIn: 1996
PreviewTime: 75859
Countdown: 0
SampleSet: Soft
StackLeniency: 0.7
Mode: 0
LetterboxInBreaks: 0

[Editor]
Bookmarks: 61335,98478
DistanceSpacing: 1
BeatDivisor: 4
GridSize: 4

[Metadata]
Title:Hari no Sora
TitleUnicode:玻璃の空
Artist:Koshimizu Ami
ArtistUnicode:小清水亜美
Creator:Autumn
Version:Hard
Source:
Tags:C74 Queen Sound Online Tsukasa 矢鴇つかさ Bungaku Shoujo
BeatmapID:213767
BeatmapSetID:75708

[Difficulty]
HPDrainRate:6
CircleSize:4
OverallDifficulty:6
ApproachRate:8
SliderMultiplier:1.6
SliderTickRate:1

[Events]
//Background and Video events
Video,0,"Video.avi"
0,0,"BG.jpg",0,0
//Break Periods
//Storyboard Layer 0 (Background)
//Storyboard Layer 1 (Fail)
//Storyboard Layer 2 (Pass)
//Storyboard Layer 3 (Foreground)
//Storyboard Sound Samples
//Background Colour Transformations
3,100,163,162,255

[TimingPoints]
621,476.190476190476,4,2,1,25,1,0
13954,-200,4,2,1,30,0,0
14054,-100,4,2,1,30,0,0
14906,-100,4,2,1,10,0,0
15382,-133.333333333333,4,2,1,35,0,0
30620,-100,4,2,1,35,0,0
42525,-100,4,2,1,40,0,0
43478,-100,4,2,1,45,0,0
45382,-100,4,2,1,35,0,0
45859,-100,4,2,1,45,0,0
55144,-100,4,2,1,35,0,0
61573,-100,4,2,1,45,0,0
69192,-100,4,2,1,35,0,0
73954,-100,4,2,1,40,0,0
74906,-100,4,2,1,45,0,0
76811,-100,4,2,1,50,0,1
107287,-100,4,2,1,50,0,0
112406,-100,4,2,1,40,0,0
112644,-100,4,2,1,45,0,0
132049,-100,4,2,1,45,0,0
139430,-100,4,2,1,30,0,0
143954,-100,4,2,1,25,0,0
144430,-100,4,2,1,20,0,0
144906,-100,4,2,1,15,0,0
145382,-100,4,2,1,10,0,0
145859,-100,4,2,0,5,0,0

[Colours]
Combo1 : 128,0,255
Combo2 : 0,255,255
Combo3 : 252,215,67
Combo4 : 128,255,0
SliderBorder : 201,243,255

[HitObjects]
176,48,621,2,0,L|244:112,1,80,2|0,0:0|0:0,0:0:0:0:
292,156,1097,1,8,0:0:0:0:
132,140,1335,2,0,L|200:208,1,80
248,248,1811,1,8,0:0:0:0:
88,236,2049,2,0,L|156:300,1,80,0|2,0:0|0:0,0:0:0:0:
210,344,2525,2,0,P|250:356|294:340,2,80,10|0|0,0:0|0:0|0:0,0:0:0:0:
146,292,3240,1,8,0:0:0:0:
210,244,3478,2,0,P|250:232|286:248,1,80
350,292,3954,1,8,0:0:0:0:
350,292,4430,6,0,L|402:228,1,80,2|0,0:0|0:0,0:0:0:0:
450,164,4906,1,8,0:0:0:0:
296,204,5144,2,0,L|348:140,1,80,0|0,0:0|0:0,0:0:0:0:
396,80,5620,1,8,0:0:0:0:
248,136,5859,2,0,P|208:156|156:156,1,80,0|2,0:0|0:0,0:0:0:0:
304,68,6335,2,0,P|332:104|340:136,2,80,10|0|0,0:0|0:0|0:0,0:0:0:0:
224,60,7049,1,8,0:0:0:0:
296,200,7287,6,0,P|336:212|384:200,1,80,0|0,0:0|0:0,0:0:0:0:
228,140,7763,2,0,P|208:176|204:220,1,80
280,348,8240,5,2,0:0:0:0:
240,280,8478,1,0,0:0:0:0:
140,360,8716,5,8,0:0:0:0:
140,280,8954,1,0,0:0:0:0:
20,352,9192,5,0,0:0:0:0:
48,276,9430,1,8,0:0:0:0:
72,200,9668,6,0,P|108:188|148:200,1,80,0|2,0:0|0:0,0:0:0:0:
216,252,10144,2,0,P|260:264|296:248,2,80,10|0|0,0:0|0:0|0:0,0:0:0:0:
147,200,10859,1,8,0:0:0:0:
212,148,11097,2,0,P|248:136|288:148,1,80
347,200,11573,1,8,0:0:0:0:
347,200,12049,6,0,P|371:260|363:300,1,80,2|0,0:0|0:0,0:0:0:0:
360,352,12525,1,8,0:0:0:0:
224,288,12763,2,0,P|252:324|288:340,1,80
124,352,13240,1,8,0:0:0:0:
184,216,13478,1,0,0:0:0:0:
184,216,13954,6,0,P|256:244|331:215,1,160
492,216,15382,6,0,P|464:184|404:172,1,90.0000034332277
392,184,15859,2,0,P|380:216|416:292,1,120.000004577637,6|0,0:0|0:0,0:0:0:0:
460,328,16573,2,0,B|432:309|398:306|363:322|363:322|324:340|271:308,1,180.000006866455,8|0,0:0|0:0,0:0:0:0:
212,224,17525,5,0,0:0:0:0:
212,224,17763,2,0,P|148:220|100:180,1,120.000004577637,2|0,0:0|0:0,0:0:0:0:
180,148,18478,1,8,0:0:0:0:
180,148,18716,2,0,L|128:264,1,120.000004577637
298,260,19668,6,0,P|215:287|131:257,1,180.000006866455,0|0,0:0|0:0,0:0:0:0:
288,116,20859,1,0,0:0:0:0:
340,144,21097,1,8,0:0:0:0:
372,196,21335,1,2,0:0:0:0:
380,256,21573,2,0,P|384:288|364:328,1,60.0000022888184,2|0,0:0|0:0,0:0:0:0:
308,276,22049,5,8,0:0:0:0:
456,196,22287,1,0,0:0:0:0:
400,64,22525,1,0,0:0:0:0:
400,64,23001,22,0,L|388:96,3,30.0000011444092
380,120,23478,2,0,P|344:168|280:172,1,120.000004577637,2|8,0:0|0:0,0:0:0:0:
238,148,24192,2,0,P|220:90|249:33,1,120.000004577637
312,20,24906,1,8,0:0:0:0:
152,76,25144,5,2,0:0:0:0:
187,216,25382,2,0,P|248:228|296:200,1,120.000004577637,2|8,0:0|0:0,0:0:0:0:
232,152,26097,1,0,0:0:0:0:
224,292,26335,2,0,L|288:320,1,60.0000022888184
112,240,26811,1,8,0:0:0:0:
112,240,27287,6,0,P|132:324|220:364,1,180.000006866455,2|0,0:0|0:0,0:0:0:0:
272,360,28240,1,0,0:0:0:0:
240,300,28478,1,0,0:0:0:0:
331,321,28716,1,8,0:0:0:0:
216,236,28954,1,2,0:0:0:0:
384,272,29192,2,0,P|472:192|404:124,1,240.000009155274,2|0,0:0|0:0,0:0:0:0:
165,141,30620,37,8,0:0:0:0:
165,141,31097,2,0,P|153:205|217:269,1,160,6|8,0:0|0:0,0:0:0:0:
156,324,31811,2,0,P|200:344|248:336,1,80
92,264,32287,2,0,P|68:312|72:348,2,80,0|8|0,0:0|0:0|0:0,0:0:0:0:
232,188,33001,5,2,0:0:0:0:
72,184,33478,1,8,0:0:0:0:
180,64,33954,1,0,0:0:0:0:
156,224,34430,1,8,0:0:0:0:
156,224,34906,6,0,P|148:176|164:140,2,80,2|0|8,0:0|0:0|0:0,0:0:0:0:
220,272,35620,2,0,P|288:252|312:168,1,160
184,64,36335,1,8,0:0:0:0:
344,48,36573,1,2,0:0:0:0:
264,56,36811,2,0,P|300:116|396:112,1,160,2|8,0:0|0:0,0:0:0:0:
440,64,37525,1,2,0:0:0:0:
72,64,38240,21,2,0:0:0:0:
40,136,38478,1,0,0:0:0:0:
64,212,38716,2,0,P|108:272|156:288,1,120,6|0,0:0|0:0,0:0:0:0:
188,284,39192,2,0,P|196:248|176:208,1,80,8|0,0:0|0:0,0:0:0:0:
124,152,39668,1,0,0:0:0:0:
280,124,39906,1,0,0:0:0:0:
204,152,40144,2,0,P|232:188|276:204,1,80,8|0,0:0|0:0,0:0:0:0:
312,48,40620,1,6,0:0:0:0:
368,196,40859,1,0,0:0:0:0:
368,196,41097,6,0,P|448:140|452:68,2,160,8|0|8,0:0|0:0|0:0,0:0:0:0:
288,180,42287,1,0,0:0:0:0:
140,124,42525,1,6,0:0:0:0:
224,258,42763,1,0,0:0:0:0:
236,98,43001,1,8,0:0:0:0:
128,218,43240,1,0,0:0:0:0:
204,180,43478,1,4,0:0:0:0:
256,192,43716,12,8,45382,0:0:0:0:
348,188,45859,21,0,0:0:0:0:
348,188,46097,1,0,0:0:0:0:
348,188,46335,2,0,P|280:244|228:236,1,120,6|0,0:0|0:0,0:0:0:0:
212,236,46811,2,0,P|172:228|136:248,1,80
140,324,47287,2,0,P|176:340|220:324,1,80
288,284,47763,1,0,0:0:0:0:
132,244,48001,6,0,P|120:188|180:104,1,160,2|0,0:0|0:0,0:0:0:0:
252,84,48716,1,0,0:0:0:0:
328,108,48954,2,0,P|382:189|370:245,1,160,0|0,0:0|0:0,0:0:0:0:
292,244,49668,2,0,P|308:304|336:320,1,80,0|2,0:0|0:0,0:0:0:0:
396,332,50144,6,0,P|456:268|464:192,1,160,2|0,0:0|0:0,0:0:0:0:
432,124,50859,1,0,0:0:0:0:
360,76,51097,2,0,P|332:52|288:44,2,80
356,156,51811,2,0,P|292:168|220:108,1,160,2|0,0:0|0:0,0:0:0:0:
184,40,52525,1,0,0:0:0:0:
184,40,52763,2,0,P|140:104|152:184,1,160,2|0,0:0|0:0,0:0:0:0:
204,244,53478,1,2,0:0:0:0:
284,260,53716,1,0,0:0:0:0:
152,180,53954,38,0,P|124:240|140:296,1,120,2|0,0:0|0:0,0:0:0:0:
160,324,54430,2,0,P|204:344|244:336,2,80
84,292,55144,1,8,0:0:0:0:
404,228,55620,1,0,0:0:0:0:
96,144,56097,21,8,0:0:0:0:
412,108,56573,1,0,0:0:0:0:
164,76,57049,1,8,0:0:0:0:
316,120,57287,1,0,0:0:0:0:
200,232,57525,1,2,0:0:0:0:
164,76,57763,6,0,P|176:112|208:140,1,80,2|0,0:0|0:0,0:0:0:0:
344,180,58240,1,8,0:0:0:0:
284,232,58478,1,0,0:0:0:0:
344,180,58716,2,0,P|412:156|492:184,1,160,0|8,0:0|0:0,0:0:0:0:
480,272,59430,1,0,0:0:0:0:
392,308,59668,6,0,P|352:316|312:344,1,80,2|0,0:0|0:0,0:0:0:0:
344,180,60144,2,0,P|372:208|412:228,1,80,2|0,0:0|0:0,0:0:0:0:
248,288,60620,2,0,P|260:248|260:208,1,80,2|0,0:0|0:0,0:0:0:0:
256,128,61097,1,2,0:0:0:0:
140,216,61335,21,2,0:0:0:0:
140,216,61454,1,0,0:0:0:0:
140,216,61573,2,0,P|108:168|116:104,1,120,6|0,0:0|0:0,0:0:0:0:
140,80,62049,1,0,1:0:0:0:
32,204,62287,1,0,0:0:0:0:
112,344,62525,2,0,P|180:348|204:328,1,80,2|0,0:0|0:0,0:0:0:0:
272,208,63001,1,0,1:0:0:0:
236,280,63240,2,0,P|308:280|352:208,1,160
196,212,63954,1,0,1:0:0:0:
196,212,64192,38,0,P|164:248|160:280,2,80,0|2|0,0:0|0:0|0:0,0:0:0:0:
352,184,64906,1,0,1:0:0:0:
272,188,65144,1,0,0:0:0:0:
272,188,65263,1,0,0:0:0:0:
272,188,65382,2,0,P|304:120|392:116,1,160,0|0,0:0|1:0,0:0:0:0:
440,164,66097,1,0,0:0:0:0:
312,260,66335,2,0,P|276:272|228:256,1,80,2|0,0:0|0:0,0:0:0:0:
112,164,66811,1,0,1:0:0:0:
168,224,67049,6,0,P|132:244|84:240,2,80,0|2|0,0:0|0:0|0:0,0:0:0:0:
252,92,67763,1,0,1:0:0:0:
90,73,68001,1,0,2:0:0:0:
90,73,68120,1,2,2:0:0:0:
90,73,68240,1,0,2:0:0:0:
208,179,68478,1,2,2:0:0:0:
181,22,68716,5,2,0:0:0:0:
112,164,68954,1,0,2:0:0:0:
252,92,69192,1,6,2:0:0:0:
112,164,70382,5,0,0:0:0:0:
264,196,70620,1,2,0:0:0:0:
168,71,70859,1,0,0:0:0:0:
167,70,71097,2,0,P|231:62|276:92,1,120,6|0,0:0|0:0,0:0:0:0:
349,110,71573,2,0,P|312:112|276:92,1,80,8|0,0:0|0:0,0:0:0:0:
332,36,72049,5,0,0:0:0:0:
444,152,72287,1,0,0:0:0:0:
332,36,72525,1,8,0:0:0:0:
336,196,72763,1,2,0:0:0:0:
339,349,73001,6,0,P|283:301|199:297,1,160,6|8,0:0|0:0,0:0:0:0:
123,325,73716,1,2,0:0:0:0:
251,369,73954,2,0,P|279:293|251:221,1,160,6|8,0:0|0:0,0:0:0:0:
195,165,74668,1,2,0:0:0:0:
199,297,74906,2,0,P|283:293|347:229,1,160,6|8,0:0|0:0,0:0:0:0:
359,169,75620,1,0,0:0:0:0:
236,56,75859,5,2,0:0:0:0:
236,56,75978,1,2,0:0:0:0:
152,228,76216,1,2,0:0:0:0:
152,228,76335,1,2,0:0:0:0:
280,332,76573,1,2,0:0:0:0:
152,228,76811,6,0,P|200:188|260:192,1,120,6|0,0:0|0:0,0:0:0:0:
292,204,77287,2,0,P|328:220|368:212,1,80,0|0,1:1|0:0,0:0:0:0:
340,140,77763,1,2,0:0:0:0:
248,272,78001,1,0,0:0:0:0:
248,272,78120,1,0,0:0:0:0:
248,272,78240,1,0,1:1:0:0:
412,288,78478,1,0,0:0:0:0:
412,288,78716,6,0,P|400:328|364:352,1,80,2|0,0:0|0:0,0:0:0:0:
372,188,79192,2,0,P|457:181|501:233,1,160,0|2,1:1|0:0,0:0:0:0:
344,260,79906,1,0,0:0:0:0:
344,260,80025,1,0,0:0:0:0:
344,260,80144,2,0,P|312:236|296:196,1,80,0|0,1:1|0:0,0:0:0:0:
220,194,80620,2,0,P|244:274|300:324,1,160,2|0,0:0|1:1,0:0:0:0:
155,275,81335,2,0,P|225:321|300:324,1,160,2|0,0:0|0:1,0:0:0:0:
448,272,82049,5,0,1:1:0:0:
420,348,82287,1,0,0:0:0:0:
364,292,82525,2,0,P|392:208|468:188,1,160,2|0,0:0|1:1,0:0:0:0:
332,80,83478,5,2,0:0:0:0:
172,100,83954,1,0,1:1:0:0:
156,104,84073,1,0,0:0:0:0:
140,108,84192,1,0,0:0:0:0:
124,112,84311,1,0,0:0:0:0:
108,117,84430,2,0,P|108:189|172:217,1,120,6|0,0:0|0:0,0:0:0:0:
69,239,84906,2,0,P|113:235|141:215,1,80,0|0,1:1|0:0,0:0:0:0:
216,184,85382,5,2,0:0:0:0:
160,332,85620,1,0,0:0:0:0:
160,332,85740,1,0,0:0:0:0:
160,332,85859,1,0,1:1:0:0:
308,276,86097,1,0,0:0:0:0:
148,252,86335,6,0,P|216:276|236:360,1,160,2|0,0:0|1:1,0:0:0:0:
292,204,87049,2,0,P|340:148|432:156,1,160,2|0,0:0|0:0,0:0:0:0:
376,224,87763,1,0,1:1:0:0:
376,224,88240,6,0,P|332:280|244:276,1,160,2|0,0:0|1:1,0:0:0:0:
184,328,88954,2,0,P|172:252|236:200,1,160,2|0,0:0|0:0,0:0:0:0:
388,188,89668,1,0,1:1:0:0:
244,116,89906,1,0,0:0:0:0:
324,148,90144,2,0,P|444:140|368:260,1,320,2|2,0:0|0:0,0:0:0:0:
216,240,91335,1,0,1:1:0:0:
308,344,91573,2,0,P|348:336|392:348,1,80,0|0,1:2|0:0,0:0:0:0:
232,364,92049,6,0,P|176:372|116:352,1,120,6|0,0:0|0:0,0:0:0:0:
88,328,92525,2,0,P|100:292|140:264,1,80,0|0,1:1|0:0,0:0:0:0:
296,244,93001,1,2,0:0:0:0:
296,244,93240,2,0,P|244:212|228:172,1,80,0|0,0:0|1:1,0:0:0:0:
196,128,93716,1,0,0:0:0:0:
356,112,93954,1,2,0:0:0:0:
276,120,94192,5,0,0:0:0:0:
276,120,94311,1,0,0:0:0:0:
276,120,94430,2,0,P|308:48|384:40,2,160,0|0|0,1:1|0:0|1:1,0:0:0:0:
420,188,95620,1,0,0:0:0:0:
344,160,95859,6,0,P|340:208|360:240,1,80,2|0,0:0|0:0,0:0:0:0:
428,272,96335,1,0,1:1:0:0:
428,272,96573,2,0,P|348:316|280:276,1,160
172,180,97287,1,0,1:1:0:0:
224,240,97525,1,0,0:0:0:0:
224,240,97644,1,0,0:0:0:0:
224,240,97763,2,0,P|188:264|132:248,1,80,2|0,0:0|0:0,0:0:0:0:
292,184,98240,2,0,P|308:232|308:264,1,80,0|0,1:0|0:0,0:0:0:0:
236,120,98716,2,0,P|268:104|316:104,1,80,2|0,0:0|0:0,0:0:0:0:
404,232,99192,5,0,1:0:0:0:
280,344,99430,1,0,0:0:0:0:
276,256,99668,2,0,P|316:264|348:290,1,80,2|0,0:0|0:0,0:0:0:0:
200,224,100144,2,0,P|272:208|316:136,1,160,0|2,1:1|0:0,0:0:0:0:
432,248,100859,5,0,0:0:0:0:
432,248,101097,2,0,L|340:248,1,80,0|0,1:1|0:0,0:0:0:0:
316,140,101573,2,0,L|408:140,1,80,2|0,0:0|0:0,0:0:0:0:
476,140,102049,1,0,1:1:0:0:
344,52,102525,1,2,0:0:0:0:
236,172,103001,1,0,1:2:0:0:
352,252,103478,5,2,0:0:0:0:
284,108,103716,1,0,0:0:0:0:
136,172,103954,1,0,1:0:0:0:
204,316,104192,1,8,0:0:0:0:
360,344,104430,1,2,0:0:0:0:
376,340,104549,1,0,0:0:0:0:
392,336,104668,1,0,0:0:0:0:
408,332,104787,1,0,0:0:0:0:
424,328,104906,2,0,L|468:316,3,40
478,315,105382,21,4,0:0:0:0:
256,192,105501,12,0,106811,0:0:0:0:
140,248,107287,6,0,P|196:268|248:240,1,120,6|0,0:0|0:0,0:0:0:0:
216,172,107763,2,0,P|232:228|260:252,1,80,0|0,1:1|0:0,0:0:0:0:
392,172,108240,2,0,L|356:191,1,40,2|0,0:0|1:1,0:0:0:0:
388,348,108597,2,0,L|351:331,1,40,2|0,0:0|1:1,0:0:0:0:
196,292,108954,1,2,0:0:0:0:
196,292,109192,6,0,P|232:244|296:232,1,120,2|0,0:0|0:0,0:0:0:0:
324,248,109668,2,0,P|364:260|404:248,1,80,0|0,1:1|0:0,0:0:0:0:
376,92,110144,2,0,P|396:168|480:188,1,160,2|0,0:0|1:1,0:0:0:0:
452,112,110859,1,0,0:0:0:0:
304,168,111097,5,2,0:0:0:0:
292,172,111454,1,0,0:0:0:0:
281,176,111811,1,0,0:0:0:0:
144,228,112168,2,0,L|52:264,2,80,0|8|0,0:0|0:0|0:0,0:0:0:0:
344,224,113001,6,0,L|420:252,1,80,2|0,0:0|0:0,0:0:0:0:
476,112,113478,2,0,L|400:84,1,80,0|0,1:1|0:0,0:0:0:0:
248,40,113954,1,2,0:0:0:0:
248,40,114073,1,0,1:1:0:0:
324,180,114311,1,2,0:0:0:0:
324,180,114430,1,0,1:1:0:0:
256,320,114668,5,2,0:0:0:0:
256,320,114906,2,0,P|188:332|144:308,1,120,2|0,0:0|0:0,0:0:0:0:
91,360,115382,2,0,P|111:324|146:309,1,80,0|0,1:1|0:0,0:0:0:0:
284,236,115859,2,0,L|332:212,1,40,2|0,0:0|1:1,0:0:0:0:
190,136,116216,2,0,L|206:96,1,40,0|0,0:0|1:1,0:0:0:0:
72,200,116573,5,2,0:0:0:0:
72,200,116811,2,0,P|40:256|52:320,1,120,2|0,0:0|0:0,0:0:0:0:
56,348,117287,2,0,P|100:368|152:344,1,80,0|0,1:1|0:0,0:0:0:0:
248,308,117763,1,2,0:0:0:0:
248,308,117882,1,0,1:1:0:0:
108,268,118120,1,0,1:1:0:0:
108,268,118240,1,2,0:0:0:0:
256,208,118478,1,2,0:0:0:0:
117,181,118716,6,0,B|178:190|207:257|178:310|178:310|214:290|248:308,1,240,2|0,0:0|0:0,0:0:0:0:
408,296,119668,2,0,P|384:332|352:348,1,80,2|0,0:0|0:0,0:0:0:0:
336,268,120144,2,0,P|360:232|396:220,1,80,0|0,1:1|0:0,0:0:0:0:
256,248,120620,5,2,0:0:0:0:
104,300,120859,1,0,0:0:0:0:
208,180,121097,1,0,1:1:0:0:
48,200,121335,1,0,0:0:0:0:
95,49,121573,2,0,P|135:89|196:100,1,120,2|0,0:0|0:0,0:0:0:0:
242,38,122049,2,0,P|221:79|196:100,1,80,0|0,1:0|0:0,0:0:0:0:
196,100,122525,6,0,P|240:144|237:198,1,120,6|0,0:0|0:0,0:0:0:0:
313,182,123001,2,0,P|277:198|238:198,1,80,0|0,1:1|0:0,0:0:0:0:
228,276,123478,2,0,P|191:261|160:219,1,80,2|0,0:0|0:0,0:0:0:0:
104,284,123954,2,0,P|88:248|96:196,1,80,0|0,1:1|0:0,0:0:0:0:
48,68,124430,6,0,P|88:116|152:124,1,120,2|0,0:0|0:0,0:0:0:0:
144,44,124906,2,0,P|188:56|212:92,1,80,0|0,1:1|0:0,0:0:0:0:
268,28,125382,2,0,P|290:67|282:110,1,80,2|0,0:0|0:0,0:0:0:0:
368,96,125859,2,0,P|356:139|320:164,1,80,0|0,1:1|0:0,0:0:0:0:
260,196,126335,5,2,0:0:0:0:
500,168,126811,1,0,1:1:0:0:
308,264,127287,1,2,0:0:0:0:
420,304,127644,1,2,0:0:0:0:
152,312,128001,1,2,0:0:0:0:
228,344,128240,1,2,0:0:0:0:
152,312,128716,6,0,P|144:268|160:232,1,80,0|0,1:1|0:0,0:0:0:0:
212,180,129192,1,2,0:0:0:0:
212,180,129311,1,0,1:1:0:0:
64,240,129549,1,0,1:1:0:0:
64,240,129668,1,2,0:0:0:0:
220,276,129906,1,2,0:0:0:0:
220,276,130144,6,0,P|200:316|152:336,1,80,6|0,0:0|0:0,0:0:0:0:
128,180,130620,2,0,P|140:136|168:112,1,80,0|0,1:1|0:0,0:0:0:0:
316,60,131097,2,0,L|368:48,1,40,2|0,0:0|1:1,0:0:0:0:
424,196,131454,2,0,L|376:208,1,40,2|0,0:0|1:1,0:0:0:0:
308,220,131811,1,0,0:0:0:0:
448,276,132049,6,0,P|488:252|504:216,1,80,6|0,0:0|0:0,0:0:0:0:
488,144,132525,2,0,P|460:120|408:112,1,80,0|0,1:1|0:0,0:0:0:0:
348,148,133001,2,0,P|272:172|188:140,1,160,2|0,0:0|1:1,0:0:0:0:
136,96,133716,1,0,0:0:0:0:
152,176,133954,6,0,P|164:252|104:320,1,160,6|0,0:0|1:1,0:0:0:0:
36,316,134668,1,0,0:0:0:0:
60,160,134906,2,0,P|96:100|180:84,1,160,6|0,0:0|1:1,0:0:0:0:
256,112,135620,1,0,0:0:0:0:
408,192,135859,5,8,0:0:0:0:
396,232,135978,1,0,0:0:0:0:
364,256,136097,1,0,0:0:0:0:
328,272,136216,1,0,0:0:0:0:
288,268,136335,1,8,0:0:0:0:
252,252,136454,1,0,0:0:0:0:
216,236,136573,1,0,0:0:0:0:
176,232,136692,1,0,0:0:0:0:
136,240,136811,2,0,L|84:260,3,40,0|0|0|0,0:0|0:0|0:0|0:0,0:0:0:0:
60,248,137287,2,0,L|16:236,3,40,0|0|0|0,0:0|0:0|0:0|0:0,0:0:0:0:
21,237,137763,5,4,0:0:0:0:
256,92,139430,1,0,0:0:0:0:
308,164,139668,1,8,0:0:0:0:
204,164,140382,5,8,0:0:0:0:
360,240,141097,1,8,0:0:0:0:
156,240,141573,5,0,0:0:0:0:
216,292,141811,1,0,0:0:0:0:
296,292,142049,1,0,0:0:0:0:
360,240,142287,1,8,0:0:0:0:
256,192,143478,12,0,145859,0:0:0:0:
