osu file format v9

[General]
AudioFilename: Koshimizu Ami & Ueda Kana - Zankoku na Negai no Naka de.mp3
AudioLeadIn: 0
PreviewTime: 73177
Countdown: 0
SampleSet: Soft
StackLeniency: 0.5
Mode: 0
LetterboxInBreaks: 0

[Editor]
DistanceSpacing: 0.9
BeatDivisor: 4
GridSize: 8

[Metadata]
Title:Zankoku na Negai no Naka de
Artist:Koshimizu Ami & Ueda Kana
Creator:quintitem
Version:Normal
Source:Saki
Tags:Haramura Nodoka Miyanaga Saki

[Difficulty]
HPDrainRate:4
CircleSize:4
OverallDifficulty:2
ApproachRate:4
SliderMultiplier:1.2
SliderTickRate:0.5

[Events]
//Background and Video events
0,0,"Nodoka&Saki_1.jpg"
//Break Periods
2,98965,103798
//Storyboard Layer 0 (Background)
//Storyboard Layer 1 (Fail)
//Storyboard Layer 2 (Pass)
//Storyboard Layer 3 (Foreground)
Sprite,Foreground,CentreLeft,"StoryBoard\title.png",320,240 M,0,6295,7000,94,305,104,305 F,0,6295,7000,0,1 M,0,12647,13353,104,305,104,315 F,0,12647,13353,1,0
Sprite,Foreground,CentreLeft,"StoryBoard\aa.png",320,240 M,0,6295,,104,415 F,0,6295,6471,0,1 F,0,8412,8589,1,0
Sprite,Foreground,CentreLeft,"StoryBoard\ab.png",320,240 M,0,8942,,104,415 F,0,8942,9118,0,1 F,0,16000,16177,1,0
Sprite,Foreground,CentreLeft,"StoryBoard\ac.png",320,240 M,0,11765,,358,415 F,0,11765,11942,0,1 F,0,16000,16177,1,0
Sprite,Foreground,CentreLeft,"StoryBoard\ad.png",320,240 M,0,16883,,104,415 F,0,16883,17059,0,1 F,0,20236,20412,1,0
Sprite,Foreground,CentreLeft,"StoryBoard\ba.png",320,240 M,0,28883,,104,415 F,0,28883,29059,0,1 F,0,34000,34177,1,0
Sprite,Foreground,CentreLeft,"StoryBoard\bb.png",320,240 M,0,31706,,290,415 F,0,31706,31883,0,1 F,0,34000,34177,1,0
Sprite,Foreground,CentreLeft,"StoryBoard\bc.png",320,240 M,0,34353,,104,415 F,0,34353,34530,0,1 F,0,39824,40000,1,0
Sprite,Foreground,CentreLeft,"StoryBoard\bd.png",320,240 M,0,37177,,224,415 F,0,37177,37353,0,1 F,0,39824,40000,1,0
Sprite,Foreground,CentreLeft,"StoryBoard\be.png",320,240 M,0,40177,,104,415 F,0,40177,40353,0,1 F,0,46353,46530,1,0
Sprite,Foreground,CentreLeft,"StoryBoard\bf.png",320,240 M,0,43000,,284,415 F,0,43000,43177,0,1 F,0,46353,46530,1,0
Sprite,Foreground,CentreLeft,"StoryBoard\bg.png",320,240 M,0,46883,,104,415 F,0,46883,47059,0,1 F,0,51118,51295,1,0
Sprite,Foreground,CentreLeft,"StoryBoard\bh.png",320,240 M,0,48647,,239,415 F,0,48647,48824,0,1 F,0,51118,51295,1,0
Sprite,Foreground,CentreLeft,"StoryBoard\bi.png",320,240 M,0,51471,,104,415 F,0,51471,51647,0,1 F,0,55177,55353,1,0
Sprite,Foreground,CentreLeft,"StoryBoard\bj.png",320,240 M,0,56589,,104,415 F,0,56589,56765,0,1 F,0,62236,62412,1,0
Sprite,Foreground,CentreLeft,"StoryBoard\bk.png",320,240 M,0,62765,,104,415 F,0,62765,62942,0,1 F,0,67883,68059,1,0
Sprite,Foreground,CentreLeft,"StoryBoard\bl.png",320,240 M,0,68412,,104,415 F,0,68412,68589,0,1 F,0,72295,72471,1,0
Sprite,Foreground,CentreLeft,"StoryBoard\ca.png",320,240 M,0,73353,,104,415 F,0,73353,73530,0,1 F,0,76353,76530,1,0
Sprite,Foreground,CentreLeft,"StoryBoard\cb.png",320,240 M,0,76706,,104,415 F,0,76706,76883,0,1 F,0,82000,82177,1,0
Sprite,Foreground,CentreLeft,"StoryBoard\cc.png",320,240 M,0,79706,,287,415 F,0,79706,79883,0,1 F,0,82000,82177,1,0
Sprite,Foreground,CentreLeft,"StoryBoard\cd.png",320,240 M,0,82353,,104,415 F,0,82353,82530,0,1 F,0,84118,84295,1,0
Sprite,Foreground,CentreLeft,"StoryBoard\ce.png",320,240 M,0,84647,,104,415 F,0,84647,84824,0,1 F,0,87647,87824,1,0
Sprite,Foreground,CentreLeft,"StoryBoard\ab.png",320,240 M,0,88000,,104,415 F,0,88000,88177,0,1 F,0,93295,93471,1,0
Sprite,Foreground,CentreLeft,"StoryBoard\cg.png",320,240 M,0,90824,,358,415 F,0,90824,91000,0,1 F,0,93295,93471,1,0
Sprite,Foreground,CentreLeft,"StoryBoard\ch.png",320,240 M,0,93824,,104,415 F,0,93824,94000,0,1 F,0,98589,98765,1,0
Sprite,Foreground,CentreLeft,"StoryBoard\da.png",320,240 M,0,109353,,104,415 F,0,109353,109530,0,1 F,0,114471,114647,1,0
Sprite,Foreground,CentreLeft,"StoryBoard\db.png",320,240 M,0,112177,,281,415 F,0,112177,112353,0,1 F,0,114471,114647,1,0
Sprite,Foreground,CentreLeft,"StoryBoard\dc.png",320,240 M,0,114824,,104,415 F,0,114824,115000,0,1 F,0,120295,120471,1,0
Sprite,Foreground,CentreLeft,"StoryBoard\dd.png",320,240 M,0,117647,,248,415 F,0,117647,117824,0,1 F,0,120295,120471,1,0
Sprite,Foreground,CentreLeft,"StoryBoard\de.png",320,240 M,0,120647,,104,415 F,0,120647,120824,0,1 F,0,126824,127000,1,0
Sprite,Foreground,CentreLeft,"StoryBoard\df.png",320,240 M,0,123471,,314,415 F,0,123471,123647,0,1 F,0,126824,127000,1,0
Sprite,Foreground,CentreLeft,"StoryBoard\dg.png",320,240 M,0,127353,,104,415 F,0,127353,127530,0,1 F,0,131589,131765,1,0
Sprite,Foreground,CentreLeft,"StoryBoard\dh.png",320,240 M,0,129118,,217,415 F,0,129118,129295,0,1 F,0,131589,131765,1,0
Sprite,Foreground,CentreLeft,"StoryBoard\di.png",320,240 M,0,131942,,104,415 F,0,131942,132118,0,1 F,0,135647,135824,1,0
Sprite,Foreground,CentreLeft,"StoryBoard\dj.png",320,240 M,0,137059,,104,415 F,0,137059,137236,0,1 F,0,142706,142883,1,0
Sprite,Foreground,CentreLeft,"StoryBoard\dk.png",320,240 M,0,143236,,104,415 F,0,143236,143412,0,1 F,0,148353,148530,1,0
Sprite,Foreground,CentreLeft,"StoryBoard\dl.png",320,240 M,0,148883,,104,415 F,0,148883,149059,0,1 F,0,152765,152942,1,0
Sprite,Foreground,CentreLeft,"StoryBoard\ea.png",320,240 M,0,153824,,104,415 F,0,153824,154000,0,1 F,0,156824,157000,1,0
Sprite,Foreground,CentreLeft,"StoryBoard\eb.png",320,240 M,0,157177,,104,415 F,0,157177,157353,0,1 F,0,162471,162647,1,0
Sprite,Foreground,CentreLeft,"StoryBoard\ec.png",320,240 M,0,160177,,357,415 F,0,160177,160353,0,1 F,0,162471,162647,1,0
Sprite,Foreground,CentreLeft,"StoryBoard\ed.png",320,240 M,0,162824,,104,415 F,0,162824,163000,0,1 F,0,164589,164765,1,0
Sprite,Foreground,CentreLeft,"StoryBoard\ee.png",320,240 M,0,165118,,104,415 F,0,165118,165295,0,1 F,0,168118,168295,1,0
Sprite,Foreground,CentreLeft,"StoryBoard\ef.png",320,240 M,0,168471,,104,415 F,0,168471,168647,0,1 F,0,173765,173942,1,0
Sprite,Foreground,CentreLeft,"StoryBoard\eg.png",320,240 M,0,171295,,329,415 F,0,171295,171471,0,1 F,0,173765,173942,1,0
Sprite,Foreground,CentreLeft,"StoryBoard\eh.png",320,240 M,0,174295,,104,415 F,0,174295,174471,0,1 F,0,179765,179942,1,0
//Storyboard Sound Samples
//Background Colour Transformations
3,100,163,162,255

[TimingPoints]
648,352.941176470588,4,2,1,50,1,0
16177,-100,4,2,1,5,0,0
16883,-100,4,2,1,80,0,0
28706,-117.647058823529,4,2,1,50,0,0
29236,-117.647058823529,4,2,1,70,0,0
37353,-117.647058823529,4,2,1,50,0,0
37530,-117.647058823529,4,2,1,70,0,0
49883,-117.647058823529,4,2,1,50,0,0
50412,-117.647058823529,4,2,1,70,0,0
50942,-166.666666666667,4,2,1,65,0,0
62412,-117.647058823529,4,2,1,70,0,0
68589,-117.647058823529,4,2,1,80,0,0
73000,-166.666666666667,4,2,1,80,0,0
73883,-100,4,2,1,70,0,0
74059,-100,4,2,1,70,0,1
74147,-100,4,2,1,85,0,0
79177,-100,4,2,1,75,0,0
98765,-100,4,2,1,5,0,0
104765,-117.647058823529,4,2,1,70,0,0
109000,-117.647058823529,4,2,1,50,0,0
117736,-117.647058823529,4,2,1,60,0,0
118177,-117.647058823529,4,2,1,70,0,0
124706,-117.647058823529,4,2,1,60,0,0
125059,-117.647058823529,4,2,1,70,0,0
131059,-117.647058823529,4,2,1,60,0,0
131412,-117.647058823529,4,2,1,50,0,0
131765,-166.666666666667,4,2,1,65,0,0
142883,-117.647058823529,4,2,1,70,0,0
149059,-117.647058823529,4,2,1,80,0,0
153471,-166.666666666667,4,2,1,80,0,0
154353,-100,4,2,1,70,0,0
154530,-100,4,2,1,70,0,1
154618,-100,4,2,1,85,0,0
159647,-100,4,2,1,75,0,0
160089,-100,4,2,1,85,0,0
179942,-100,4,2,1,5,0,0

[Colours]
Combo1 : 185,104,116
Combo2 : 254,92,165
Combo3 : 38,66,198
Combo4 : 251,40,72

[HitObjects]
256,192,13353,12,0,16177
204,116,17589,6,0,B|84:116,2,120,12|8|8
308,148,18647,2,0,B|384:145|384:54,2,120,10|8|8
308,256,19706,2,0,B|436:256,2,120,8|10|12
228,332,20765,5,8
124,308,21118,1,8
68,216,21471,1,10
68,216,21647,2,0,B|68:28,1,180,6|8
172,68,22530,2,0,B|292:68,2,120,8|8|12
232,160,23589,6,0,B|156:162|156:253,2,120,8|8|10
304,240,24647,2,0,B|380:242|380:333,2,120,8|8|8
256,336,25706,1,10
256,192,26059,12,6,27295
168,156,28883,6,0,B|168:48,2,101.999995744229,4|8|0
144,256,29942,2,0,B|32:256,2,101.999995744229,8|0|8
240,288,31000,2,0,B|305:290|305:370,2,101.999995744229,0|8|0
284,196,32059,6,0,B|283:133|348:130,2,101.999995744229,8|0|8
376,244,33118,2,0,B|376:356,2,101.999995744229,0|8|0
464,192,34177,5,8
464,192,34353,2,0,B|462:104|366:92,1,152.999993616343,6|8
280,44,35236,1,0
236,136,35589,1,8
236,136,35765,2,0,B|80:136,1,152.999993616343,6|8
120,232,36648,1,0
76,324,37000,6,0,B|4:324,2,50.9999978721143,8|0|4
180,324,37706,2,0,B|179:261|244:258,2,101.999995744229,8|0|8
228,348,38589,1,4
328,328,38942,2,0,B|400:328,2,50.9999978721143,0|8|4
352,228,39648,5,0
352,228,39824,2,0,B|352:165|287:162,2,101.999995744229,8|12|8
448,192,40883,1,2
460,92,41236,1,8
368,48,41589,1,0
268,36,41942,2,0,B|160:36,2,101.999995744229,8|0|8
256,136,43000,5,2
156,132,43353,1,8
76,196,43706,1,2
112,292,44059,1,8
208,324,44412,1,0
300,284,44765,2,0,B|361:286|361:349,2,101.999995744229,8|0|8
272,240,45648,6,0,B|273:149|366:138,1,152.999993616343,2|8
440,72,46530,1,0
344,40,46883,1,8
344,40,47059,2,0,B|176:40,1,152.999993616343,4|8
160,136,47942,2,0,B|56:136,2,101.999995744229,0|8|4
160,240,49000,6,0,B|159:302|98:305,2,101.999995744229,8|0|8
200,208,49883,2,0,B|291:219|292:309,1,152.999993616343,4|8
392,340,50765,1,8
468,272,51118,1,12
392,204,51471,6,0,B|392:80,4,108.000002574921,2|8|0|8|0
292,228,53942,1,0
192,228,54295,2,0,B|123:237|124:312,4,108.000002574921,2|8|0|8|0
144,32,57118,6,0,B|28:32,2,108.000002574921,4|8|2
340,76,58883,2,0,B|388:76,2,36.0000008583069,2|8|0
300,168,59589,1,2
256,192,59942,12,8,62412
312,140,62765,6,0,B|416:140,2,101.999995744229,2|8|0
220,96,63824,1,10
128,140,64177,2,0,B|128:77|63:74,2,101.999995744229,2|8|0
80,232,65236,1,10
180,256,65589,6,0,B|180:360,2,101.999995744229,2|8|0
280,232,66648,1,10
380,256,67000,2,0,B|441:258|441:321,2,101.999995744229,2|8|0
400,156,68059,1,8
340,72,68412,5,14
244,40,68765,2,0,B|32:40,1,203.999991488457,10|8
88,128,69824,1,6
40,216,70177,2,0,B|252:216,1,203.999991488457,10|8
256,192,71236,12,12,73000
204,152,74059,6,0,B|204:28,2,120,14|10|10
164,252,75118,2,0,B|90:260|88:345,2,120,8|10|8
256,308,76177,2,0,B|388:308,2,120,10|8|14
312,216,77236,6,0,B|310:144|236:136,2,120,8|8|8
416,192,78295,2,0,B|416:324,2,120,8|8|10
468,100,79353,1,8
376,40,79706,5,2
288,100,80059,2,0,B|48:100,1,240,8|8
104,192,81118,1,6
44,280,81471,2,0,B|292:280,1,240,8|8
376,340,82530,5,6
464,280,82883,2,0,B|461:131|317:123,1,240,10|8
288,80,83765,2,0,B|88:80,1,180,2|10
256,236,85353,6,0,B|256:368,2,120,14|10|10
360,208,86412,1,8
408,112,86765,2,0,B|478:119|480:191,2,120,10|8|10
316,56,87824,1,8
212,84,88177,5,14
152,176,88530,2,0,B|28:176,2,120,8|8|8
212,264,89589,2,0,B|210:335|139:343,2,120,10|8|10
320,276,90648,1,12
280,176,91000,5,8
320,76,91353,2,0,B|461:83|464:232,2,240,10|8|10
216,40,93118,1,10
120,88,93471,1,10
68,180,93824,5,14
56,288,94177,2,0,B|296:288,1,240,10|8
332,328,95059,2,0,B|438:307|438:182,1,180,10|0
388,104,95942,5,10
280,88,96295,1,10
256,192,96648,1,6
256,192,97000,12,0,98765
256,192,105118,12,0,107942
220,60,109353,6,0,B|100:60,1,101.999995744229,4|8
80,156,110059,2,0,B|196:156,1,101.999995744229,0|8
220,252,110765,1,0
320,268,111118,2,0,B|385:270|385:350,2,101.999995744229,8|0|8
388,192,112177,6,0,B|388:88,1,101.999995744229,0|8
288,64,112883,2,0,B|288:180,1,101.999995744229,0|8
196,120,113589,1,2
124,192,113942,2,0,B|20:192,2,101.999995744229,10|0|8
140,240,114824,6,0,B|308:240,1,152.999993616343,6|8
356,320,115706,2,0,B|421:318|421:238,1,101.999995744229,0|8
456,220,116236,2,0,B|456:48,1,152.999993616343,6|8
360,40,117118,1,0
272,92,117471,5,8
272,92,117648,1,0
272,92,117824,2,0,B|168:92,2,101.999995744229,4|8|0
256,192,118883,1,8
256,192,119059,1,4
204,280,119412,2,0,B|144:280,2,50.9999978721143,8|8|4
296,324,120118,1,8
296,324,120295,1,8
396,304,120648,5,14
464,228,121000,1,8
436,132,121353,1,2
340,100,121706,1,8
256,156,122059,1,0
172,100,122412,2,0,B|171:36|236:34,2,101.999995744229,8|0|8
84,152,123471,5,2
84,152,123824,1,8
56,248,124177,1,2
56,248,124530,1,8
148,292,124883,1,4
148,292,125236,2,0,B|268:292,2,101.999995744229,8|0|8
148,240,126118,6,0,B|149:149|242:138,1,152.999993616343,4|8
300,220,127000,1,0
392,268,127353,1,8
392,268,127530,1,4
376,116,128059,2,0,B|480:116,2,101.999995744229,8|0|8
276,96,129118,6,0,B|275:32|340:30,2,101.999995744229,4|8|0
176,112,130177,1,8
176,112,130353,2,0,B|85:123|84:213,1,152.999993616343,4|8
140,300,131236,1,8
236,336,131589,1,8
332,304,131942,6,0,B|452:304,4,108.000002574921,10|8|0|8|0
256,236,134412,1,0
332,168,134765,2,0,B|397:166|400:89,4,108.000002574921,2|8|0|8|0
132,136,137589,6,0,B|132:24,2,108.000002574921,4|8|6
168,336,139353,1,2
168,336,139530,1,8
168,336,139706,2,0,B|252:336,1,72.0000017166138,0|2
256,192,140412,12,8,142883
172,124,143236,6,0,B|172:61|107:58,2,101.999995744229,6|8|0
96,192,144295,1,10
116,292,144648,1,2
200,348,145000,1,8
304,348,145353,1,0
396,304,145706,1,10
384,204,146059,6,0,B|484:204,2,101.999995744229,6|8|0
324,124,147118,1,10
324,124,147471,1,2
240,64,147824,1,8
240,64,148177,1,0
160,124,148530,1,12
84,192,148883,5,10
84,192,149236,1,10
256,304,149942,2,0,B|360:304,2,101.999995744229,8|6|10
256,100,151353,1,8
256,192,151706,12,12,153471
184,132,154530,6,0,B|60:132,2,120,14|10|10
212,248,155589,1,8
332,264,155942,2,0,B|402:271|404:343,2,120,10|8|10
380,156,157000,1,8
268,112,157353,5,14
148,108,157706,2,0,B|150:36|224:28,2,120,8|8|8
60,192,158765,2,0,B|60:324,2,120,10|8|10
164,252,159824,1,8
236,348,160177,5,2
312,252,160530,2,0,B|453:241|459:88,1,240,8|8
348,52,161589,1,4
228,36,161942,1,8
44,192,162648,1,8
92,300,163000,5,4
208,332,163353,2,0,B|456:332,1,240,10|8
472,276,164236,2,0,B|472:169|366:149,1,180,2|10
220,36,165824,6,0,B|96:36,1,120,14|10
48,132,166530,2,0,B|172:132,1,120,2|8
220,228,167236,2,0,B|88:228,1,120,10|8
48,324,167942,2,0,B|176:324,1,120,10|8
276,340,168648,6,0,B|347:331|349:260,2,120,14|8|8
256,232,169706,2,0,B|256:104,2,120,8|10|8
144,192,170765,2,0,B|20:192,2,120,10|12|8
172,76,171824,6,0,B|436:76,2,240,10|8|10
144,192,173589,2,0,B|72:200|70:271,2,120,10|10|14
256,192,174648,12,0,179942
