osu file format v9

[General]
AudioFilename: Koshimizu Ami & Ueda Kana - Zankoku na Negai no Naka de.mp3
AudioLeadIn: 0
PreviewTime: 73177
Countdown: 0
SampleSet: Soft
StackLeniency: 0.5
Mode: 0
LetterboxInBreaks: 0

[Editor]
DistanceSpacing: 1.1
BeatDivisor: 4
GridSize: 8

[Metadata]
Title:Zankoku na Negai no Naka de
Artist:Koshimizu Ami & Ueda Kana
Creator:quintitem
Version:Hard
Source:Saki
Tags:Haramura Nodoka Miyanaga Saki

[Difficulty]
HPDrainRate:5
CircleSize:4
OverallDifficulty:4
ApproachRate:6
SliderMultiplier:1.4
SliderTickRate:0.5

[Events]
//Background and Video events
0,0,"Nodoka&Saki_1.jpg"
//Break Periods
2,98965,104068
//Storyboard Layer 0 (Background)
//Storyboard Layer 1 (Fail)
//Storyboard Layer 2 (Pass)
//Storyboard Layer 3 (Foreground)
Sprite,Foreground,CentreLeft,"StoryBoard\title.png",320,240 M,0,6295,7000,94,305,104,305 F,0,6295,7000,0,1 M,0,12647,13353,104,305,104,315 F,0,12647,13353,1,0
Sprite,Foreground,CentreLeft,"StoryBoard\aa.png",320,240 M,0,6295,,104,415 F,0,6295,6471,0,1 F,0,8412,8589,1,0
Sprite,Foreground,CentreLeft,"StoryBoard\ab.png",320,240 M,0,8942,,104,415 F,0,8942,9118,0,1 F,0,16000,16177,1,0
Sprite,Foreground,CentreLeft,"StoryBoard\ac.png",320,240 M,0,11765,,358,415 F,0,11765,11942,0,1 F,0,16000,16177,1,0
Sprite,Foreground,CentreLeft,"StoryBoard\ad.png",320,240 M,0,16883,,104,415 F,0,16883,17059,0,1 F,0,20236,20412,1,0
Sprite,Foreground,CentreLeft,"StoryBoard\ba.png",320,240 M,0,28883,,104,415 F,0,28883,29059,0,1 F,0,34000,34177,1,0
Sprite,Foreground,CentreLeft,"StoryBoard\bb.png",320,240 M,0,31706,,290,415 F,0,31706,31883,0,1 F,0,34000,34177,1,0
Sprite,Foreground,CentreLeft,"StoryBoard\bc.png",320,240 M,0,34353,,104,415 F,0,34353,34530,0,1 F,0,39824,40000,1,0
Sprite,Foreground,CentreLeft,"StoryBoard\bd.png",320,240 M,0,37177,,224,415 F,0,37177,37353,0,1 F,0,39824,40000,1,0
Sprite,Foreground,CentreLeft,"StoryBoard\be.png",320,240 M,0,40177,,104,415 F,0,40177,40353,0,1 F,0,46353,46530,1,0
Sprite,Foreground,CentreLeft,"StoryBoard\bf.png",320,240 M,0,43000,,284,415 F,0,43000,43177,0,1 F,0,46353,46530,1,0
Sprite,Foreground,CentreLeft,"StoryBoard\bg.png",320,240 M,0,46883,,104,415 F,0,46883,47059,0,1 F,0,51118,51295,1,0
Sprite,Foreground,CentreLeft,"StoryBoard\bh.png",320,240 M,0,48647,,239,415 F,0,48647,48824,0,1 F,0,51118,51295,1,0
Sprite,Foreground,CentreLeft,"StoryBoard\bi.png",320,240 M,0,51471,,104,415 F,0,51471,51647,0,1 F,0,55177,55353,1,0
Sprite,Foreground,CentreLeft,"StoryBoard\bj.png",320,240 M,0,56589,,104,415 F,0,56589,56765,0,1 F,0,62236,62412,1,0
Sprite,Foreground,CentreLeft,"StoryBoard\bk.png",320,240 M,0,62765,,104,415 F,0,62765,62942,0,1 F,0,67883,68059,1,0
Sprite,Foreground,CentreLeft,"StoryBoard\bl.png",320,240 M,0,68412,,104,415 F,0,68412,68589,0,1 F,0,72295,72471,1,0
Sprite,Foreground,CentreLeft,"StoryBoard\ca.png",320,240 M,0,73353,,104,415 F,0,73353,73530,0,1 F,0,76353,76530,1,0
Sprite,Foreground,CentreLeft,"StoryBoard\cb.png",320,240 M,0,76706,,104,415 F,0,76706,76883,0,1 F,0,82000,82177,1,0
Sprite,Foreground,CentreLeft,"StoryBoard\cc.png",320,240 M,0,79706,,287,415 F,0,79706,79883,0,1 F,0,82000,82177,1,0
Sprite,Foreground,CentreLeft,"StoryBoard\cd.png",320,240 M,0,82353,,104,415 F,0,82353,82530,0,1 F,0,84118,84295,1,0
Sprite,Foreground,CentreLeft,"StoryBoard\ce.png",320,240 M,0,84647,,104,415 F,0,84647,84824,0,1 F,0,87647,87824,1,0
Sprite,Foreground,CentreLeft,"StoryBoard\ab.png",320,240 M,0,88000,,104,415 F,0,88000,88177,0,1 F,0,93295,93471,1,0
Sprite,Foreground,CentreLeft,"StoryBoard\cg.png",320,240 M,0,90824,,358,415 F,0,90824,91000,0,1 F,0,93295,93471,1,0
Sprite,Foreground,CentreLeft,"StoryBoard\ch.png",320,240 M,0,93824,,104,415 F,0,93824,94000,0,1 F,0,98589,98765,1,0
Sprite,Foreground,CentreLeft,"StoryBoard\da.png",320,240 M,0,109353,,104,415 F,0,109353,109530,0,1 F,0,114471,114647,1,0
Sprite,Foreground,CentreLeft,"StoryBoard\db.png",320,240 M,0,112177,,281,415 F,0,112177,112353,0,1 F,0,114471,114647,1,0
Sprite,Foreground,CentreLeft,"StoryBoard\dc.png",320,240 M,0,114824,,104,415 F,0,114824,115000,0,1 F,0,120295,120471,1,0
Sprite,Foreground,CentreLeft,"StoryBoard\dd.png",320,240 M,0,117647,,248,415 F,0,117647,117824,0,1 F,0,120295,120471,1,0
Sprite,Foreground,CentreLeft,"StoryBoard\de.png",320,240 M,0,120647,,104,415 F,0,120647,120824,0,1 F,0,126824,127000,1,0
Sprite,Foreground,CentreLeft,"StoryBoard\df.png",320,240 M,0,123471,,314,415 F,0,123471,123647,0,1 F,0,126824,127000,1,0
Sprite,Foreground,CentreLeft,"StoryBoard\dg.png",320,240 M,0,127353,,104,415 F,0,127353,127530,0,1 F,0,131589,131765,1,0
Sprite,Foreground,CentreLeft,"StoryBoard\dh.png",320,240 M,0,129118,,217,415 F,0,129118,129295,0,1 F,0,131589,131765,1,0
Sprite,Foreground,CentreLeft,"StoryBoard\di.png",320,240 M,0,131942,,104,415 F,0,131942,132118,0,1 F,0,135647,135824,1,0
Sprite,Foreground,CentreLeft,"StoryBoard\dj.png",320,240 M,0,137059,,104,415 F,0,137059,137236,0,1 F,0,142706,142883,1,0
Sprite,Foreground,CentreLeft,"StoryBoard\dk.png",320,240 M,0,143236,,104,415 F,0,143236,143412,0,1 F,0,148353,148530,1,0
Sprite,Foreground,CentreLeft,"StoryBoard\dl.png",320,240 M,0,148883,,104,415 F,0,148883,149059,0,1 F,0,152765,152942,1,0
Sprite,Foreground,CentreLeft,"StoryBoard\ea.png",320,240 M,0,153824,,104,415 F,0,153824,154000,0,1 F,0,156824,157000,1,0
Sprite,Foreground,CentreLeft,"StoryBoard\eb.png",320,240 M,0,157177,,104,415 F,0,157177,157353,0,1 F,0,162471,162647,1,0
Sprite,Foreground,CentreLeft,"StoryBoard\ec.png",320,240 M,0,160177,,357,415 F,0,160177,160353,0,1 F,0,162471,162647,1,0
Sprite,Foreground,CentreLeft,"StoryBoard\ed.png",320,240 M,0,162824,,104,415 F,0,162824,163000,0,1 F,0,164589,164765,1,0
Sprite,Foreground,CentreLeft,"StoryBoard\ee.png",320,240 M,0,165118,,104,415 F,0,165118,165295,0,1 F,0,168118,168295,1,0
Sprite,Foreground,CentreLeft,"StoryBoard\ef.png",320,240 M,0,168471,,104,415 F,0,168471,168647,0,1 F,0,173765,173942,1,0
Sprite,Foreground,CentreLeft,"StoryBoard\eg.png",320,240 M,0,171295,,329,415 F,0,171295,171471,0,1 F,0,173765,173942,1,0
Sprite,Foreground,CentreLeft,"StoryBoard\eh.png",320,240 M,0,174295,,104,415 F,0,174295,174471,0,1 F,0,179765,179942,1,0
//Storyboard Sound Samples
//Background Colour Transformations
3,100,163,162,255

[TimingPoints]
648,352.941176470588,4,2,1,50,1,0
16177,-100,4,2,1,5,0,0
16883,-100,4,2,1,80,0,0
28706,-117.647058823529,4,2,1,50,0,0
29236,-117.647058823529,4,2,1,70,0,0
37353,-117.647058823529,4,2,1,50,0,0
37530,-117.647058823529,4,2,1,70,0,0
49883,-117.647058823529,4,2,1,50,0,0
50059,-117.647058823529,4,2,1,70,0,0
50942,-166.666666666667,4,2,1,65,0,0
62412,-117.647058823529,4,2,1,70,0,0
68589,-117.647058823529,4,2,1,80,0,0
73177,-100,4,2,1,50,0,0
73530,-100,4,2,1,55,0,0
73706,-100,4,2,1,60,0,0
73883,-100,4,2,1,65,0,0
74059,-100,4,2,1,70,0,1
74147,-100,4,2,1,85,0,0
79177,-100,4,2,1,75,0,0
79618,-100,4,2,1,85,0,0
98765,-100,4,2,1,5,0,0
104765,-117.647058823529,4,2,1,70,0,0
109177,-117.647058823529,4,2,1,50,0,0
109706,-117.647058823529,4,2,1,70,0,0
117736,-117.647058823529,4,2,1,60,0,0
118177,-117.647058823529,4,2,1,70,0,0
124706,-117.647058823529,4,2,1,60,0,0
125059,-117.647058823529,4,2,1,70,0,0
125412,-117.647058823529,4,2,1,50,0,0
125589,-117.647058823529,4,2,1,70,0,0
131236,-117.647058823529,4,2,1,60,0,0
131589,-117.647058823529,4,2,1,50,0,0
131942,-166.666666666667,4,2,1,65,0,0
142883,-117.647058823529,4,2,1,70,0,0
149059,-117.647058823529,4,2,1,80,0,0
153647,-100,4,2,1,50,0,0
154000,-100,4,2,1,55,0,0
154177,-100,4,2,1,60,0,0
154353,-100,4,2,1,65,0,0
154530,-100,4,2,1,70,0,1
154618,-100,4,2,1,85,0,0
159647,-100,4,2,1,75,0,0
160089,-100,4,2,1,85,0,0
179942,-100,4,2,1,5,0,0

[Colours]
Combo1 : 185,104,116
Combo2 : 254,92,165
Combo3 : 38,66,198
Combo4 : 251,40,72

[HitObjects]
256,192,13353,12,0,16177
196,132,17589,6,0,B|48:132,2,140,12|8|8
328,88,18647,2,0,B|415:90|418:201,2,140,10|8|8
280,220,19706,2,0,B|280:364,2,140,8|10|12
148,268,20765,5,8
60,160,21118,1,8
148,52,21471,1,10
148,52,21647,2,0,B|372:52,1,210,4|8
440,168,22530,2,0,B|480:168,2,35,8|8|8
388,216,22883,1,8
340,164,23059,2,0,B|340:116,2,35,8|8|12
316,304,23589,6,0,B|468:304,2,140,8|8|10
180,340,24647,1,8
60,264,25000,1,8
60,124,25353,1,8
180,52,25706,1,8
256,192,26059,12,4,27295
192,152,28883,6,0,B|192:24,2,118.999995034933,4|8|0
116,260,29942,1,8
244,240,30295,2,0,B|244:368,2,118.999995034933,0|8|0
296,200,31177,1,0
348,240,31353,6,0,B|472:240,2,118.999995034933,8|0|8
348,108,32412,2,0,B|347:35|423:32,2,118.999995034933,0|8|0
220,84,33471,1,8
116,160,33824,2,0,B|48:160,2,59.4999975174666,0|0|8
140,220,34353,6,0,B|344:220,1,178.4999925524,6|8
432,284,35236,1,0
320,356,35589,1,8
320,356,35765,2,0,B|136:356,1,178.4999925524,6|8
68,248,36648,1,0
140,140,37000,2,0,B|140:64,2,59.4999975174666,8|0|4
256,200,37706,5,8
372,140,38059,1,0
372,140,38236,2,0,B|372:68,2,59.4999975174666,0|8|4
416,264,38942,2,0,B|488:264,2,59.4999975174666,0|8|4
316,352,39648,1,0
268,304,39824,1,8
224,352,40000,2,0,B|176:352,2,29.7499987587333,8|8|12
140,252,40530,6,0,B|66:254|67:327,2,118.999995034933,8|2|8
168,124,41589,2,0,B|168:51|95:48,2,118.999995034933,0|8|0
212,172,42471,1,0
256,124,42648,1,8
384,148,43000,6,0,B|384:24,2,118.999995034933,2|8|2
412,276,44059,2,0,B|485:278|484:351,2,118.999995034933,8|0|8
284,296,45118,2,0,B|284:360,2,59.4999975174666,0|0|8
228,260,45648,6,0,B|117:249|116:139,1,178.4999925524,2|8
196,40,46530,1,0
312,100,46883,1,8
312,100,47059,2,0,B|422:110|423:220,1,178.4999925524,4|8
368,336,47942,2,0,B|488:336,2,118.999995034933,0|8|4
256,268,49000,5,8
256,268,49177,1,0
144,336,49530,2,0,B|64:336,2,59.4999975174666,0|8|4
144,204,50236,1,8
96,160,50412,1,8
144,116,50589,2,0,B|144:68,2,29.7499987587333,8|8|8
256,160,51118,1,12
364,116,51471,6,0,B|496:116,2,126.000003004074,2|8|0
336,168,52706,2,0,B|336:256,1,84.0000020027161,0|8
288,288,53236,2,0,B|236:292|236:352,2,84.0000020027161
196,212,54295,5,2
136,112,54648,1,0
136,112,54824,2,0,B|304:112,1,168.000004005432,8|0
420,96,55883,2,0,B|420:40|476:40,2,84.0000020027161,8|0|0
420,156,56765,5,0
420,156,56942,1,0
420,156,57118,2,0,B|420:284,2,126.000003004074,4|8|2
196,84,58883,2,0,B|196:32,2,42.0000010013581,2|8|0
92,136,59589,1,2
256,192,59942,12,8,62412
256,80,62765,5,2
140,136,63118,2,0,B|76:136,2,59.4999975174666,8|2|0
180,260,63824,2,0,B|106:262|107:335,2,118.999995034933,10|2|8
300,312,64883,1,0
420,260,65236,6,0,B|488:260,2,59.4999975174666,10|2|2
400,132,65942,2,0,B|400:72,2,59.4999975174666,8|2|0
272,164,66648,2,0,B|272:36,2,118.999995034933,10|2|8
144,128,67706,1,0
92,248,68059,1,8
92,248,68236,2,0,B|48:248,2,29.7499987587333,8|8|14
200,320,68765,5,10
200,320,68942,2,0,B|380:320,1,178.4999925524,2|8
424,272,69648,1,0
380,224,69824,2,0,B|380:151|306:149,1,118.999995034933,6|10
260,192,70353,2,0,B|136:192,1,118.999995034933,2|0
84,228,70883,1,8
256,192,71236,12,12,73000
368,256,73353,6,0,B|416:256,8,35,10|8|10|8|10|8|10|8|14
308,128,74412,2,0,B|309:45|224:32,2,140,10|10|8
264,184,75295,2,0,B|216:184|216:244,1,70,2|10
160,268,75648,2,0,B|112:268|112:212,1,70,2|8
52,192,76000,2,0,B|52:140|100:140,1,70,2|10
220,96,76530,6,0,B|220:24,2,70,8|2|14
360,84,77236,1,8
360,84,77412,2,0,B|432:108,1,70,2|8
460,168,77765,2,0,B|428:240,1,70,2|8
388,288,78118,2,0,B|312:252,1,70,2|10
256,272,78471,1,2
256,272,78648,2,0,B|256:344,2,70,8|2|10
120,236,79353,2,0,B|72:236,2,35,8|8|8
168,184,79706,6,0,B|167:101|252:88,1,140,2|8
300,40,80236,2,0,B|424:49|430:197,1,210,4|8
340,288,81118,2,0,B|340:360,2,70,6|0|8
280,248,81648,2,0,B|72:248,1,210,6|8
24,196,82353,5,0
72,144,82530,1,6
184,64,82883,1,10
184,64,83059,1,2
320,104,83412,2,0,B|320:28,2,70,2|8|2
428,192,84118,2,0,B|464:192,12,35,0|0|10|0|0|0|2|0|0|0|10|0|0
364,224,85353,6,0,B|364:372,2,140,6|10|10
232,268,86412,1,8
232,268,86589,2,0,B|156:248,1,70,2|10
204,192,86942,2,0,B|164:132,1,70,2|8
228,108,87295,2,0,B|220:40,1,70,2|10
80,56,87824,5,8
80,56,88000,1,2
80,56,88177,2,0,B|80:208,1,140,14|8
44,256,88706,2,0,B|44:304|96:304,1,70,2|8
144,268,89059,2,0,B|192:268|192:328,1,70,2|8
248,352,89412,2,0,B|296:352|296:292,1,70,2|10
348,264,89765,2,0,B|392:264|392:328,2,70,2|8|2
296,216,90295,2,0,B|296:68,1,140,10|12
352,32,90824,6,0,B|400:32,2,35,8|8|8
212,32,91353,1,10
212,32,91530,2,0,B|72:32,1,140,2|2
44,96,92059,1,8
68,160,92236,2,0,B|192:169|198:317,1,210,6|10
256,336,92942,2,0,B|308:336,2,35,8|8|10
256,196,93471,6,0,B|255:113|340:100,2,140,10|14|10
316,236,94353,1,14
444,296,94706,1,0
444,296,94883,1,8
444,296,95059,2,0,B|444:76,1,210,10|0
308,48,95942,5,10
308,48,96295,1,10
308,48,96648,1,6
256,192,97000,12,0,98765
256,192,105118,12,0,107942
196,100,109353,6,0,B|68:100,1,118.999995034933,4|8
40,252,110059,2,0,B|172:252,1,118.999995034933,0|8
284,344,110765,2,0,B|357:341|356:268,1,118.999995034933,0|8
424,128,111471,2,0,B|488:128,2,59.4999975174666,0|0|8
296,40,112177,6,0,B|222:42|223:115,1,118.999995034933,0|8
88,192,112883,2,0,B|87:264|160:267,1,118.999995034933,0|8
300,332,113589,2,0,B|424:332,1,118.999995034933,2|10
476,280,114118,1,2
420,224,114295,1,8
476,172,114471,2,0,B|508:172,2,29.7499987587333,10|8|8
420,120,114824,6,0,B|232:120,1,178.4999925524,6|8
112,36,115706,2,0,B|38:38|39:111,1,118.999995034933,0|8
100,160,116236,2,0,B|100:344,1,178.4999925524,6|8
232,260,117118,1,0
384,236,117471,5,8
384,236,117648,1,0
384,236,117824,2,0,B|457:238|456:311,2,118.999995034933,4|8|0
320,192,118706,1,0
384,148,118883,1,8
320,104,119059,2,0,B|196:104,1,118.999995034933,4|8
228,32,119589,1,8
228,32,119765,2,0,B|100:32,1,118.999995034933,4|8
56,88,120295,1,8
108,144,120471,2,0,B|156:144,2,29.7499987587333,8|8|14
56,288,121000,5,8
204,340,121353,1,2
352,288,121706,1,8
472,192,122059,1,0
352,92,122412,1,8
204,140,122765,2,0,B|204:76,2,59.4999975174666,0|0|8
56,192,123471,5,2
56,192,123824,1,8
156,312,124177,1,2
156,312,124530,1,8
308,276,124883,1,4
308,276,125236,2,0,B|380:276,2,59.4999975174666,8|4|0
256,220,125765,2,0,B|172:220,2,59.4999975174666,0|8|4
404,40,126648,6,0,B|477:42|476:115,2,118.999995034933,8|0|8
336,80,127530,1,4
148,216,128059,2,0,B|28:216,2,118.999995034933,8|0|8
284,288,129118,6,0,B|424:288,1,118.999995034933,4|8
460,340,129648,2,0,B|511:288|460:235,1,118.999995034933
404,184,130177,1,8
404,184,130353,2,0,B|276:184,1,118.999995034933,4|0
232,128,130883,6,0,B|232:84,12,29.7499987587333,8|8|8|8|8|8|8|8|8|8|8|8|10
128,328,132471,2,0,B|32:328,2,84.0000020027161,8|0|0
256,248,133530,2,0,B|304:280,1,42.0000010013581,8|0
432,324,134059,1,0
472,180,134412,1,0
408,44,134765,6,0,B|320:44,1,84.0000020027161,2|0
280,104,135295,2,0,B|112:104,1,168.000004005432,8|0
56,244,136353,2,0,B|56:344,2,84.0000020027161,8|0|0
128,216,137236,2,0,B|128:168,2,42.0000010013581,0|8|4
320,336,138118,6,0,B|412:336,1,84.0000020027161,8|0
452,276,138648,2,0,B|450:178|345:169,1,168.000004005432,6|0
284,124,139530,1,8
224,168,139706,2,0,B|128:168,1,84.0000020027161
256,192,140412,12,8,142883
244,96,143236,6,0,B|116:96,1,118.999995034933,6|8
68,148,143765,1,2
68,148,143942,2,0,B|17:96|68:43,2,118.999995034933,0|10|2
124,292,145000,1,8
272,344,145353,1,0
416,292,145706,5,10
416,292,145883,1,2
416,292,146059,2,0,B|416:172,1,118.999995034933,6|8
480,128,146589,1,2
416,84,146765,1,0
268,32,147118,1,10
124,84,147471,1,2
148,236,147824,2,0,B|24:236,2,118.999995034933,8|0|12
212,192,148706,2,0,B|212:156,2,29.7499987587333,8|8|10
256,340,149236,5,10
256,340,149412,1,2
420,172,149942,2,0,B|484:172,2,59.4999975174666,8|2|6
300,72,150648,1,10
300,72,150824,1,2
152,112,151177,1,0
152,112,151353,1,8
256,192,151706,12,12,153471
256,192,153824,6,0,B|256:240,8,35,10|8|10|8|10|8|10|8|14
340,60,154883,2,0,B|488:60,2,140,10|10|8
340,136,155765,2,0,B|340:208,1,70,2|10
416,208,156118,2,0,B|416:284,1,70,2|8
340,280,156471,2,0,B|340:360,1,70,2|10
192,308,157000,5,8
192,308,157177,1,2
192,308,157353,2,0,B|109:295|110:212,1,140,14|8
48,168,157883,2,0,B|48:120|100:120,1,70,2|8
132,56,158236,2,0,B|180:56|180:112,1,70,2|8
228,156,158589,2,0,B|272:156|272:104,1,70,2|10
328,60,158942,1,2
328,60,159118,2,0,B|404:60,2,70,8|2|10
408,192,159824,2,0,B|464:192,2,35,8|8|8
384,268,160177,5,2
256,352,160530,1,8
256,352,160706,1,4
36,280,161236,2,0,B|36:132,1,140,8|4
108,112,161765,2,0,B|108:44,2,70,0|8|4
324,192,162648,6,0,B|324:264,2,70,8|0|4
476,228,163353,1,10
476,228,163530,2,0,B|476:80,1,140,2|2
416,40,164059,1,8
352,84,164236,1,2
204,40,164589,2,0,B|144:40,12,35,0|0|10|0|0|0|2|0|0|0|10|0|0
204,116,165824,6,0,B|121:129|122:212,1,140,14|10
176,356,166530,1,10
328,340,166883,1,8
328,340,167059,2,0,B|416:328,1,70,2|10
368,260,167412,2,0,B|432:212,1,70,2|8
364,168,167765,2,0,B|380:96,1,70,2|10
224,96,168295,5,8
172,40,168471,1,2
120,96,168648,2,0,B|37:108|38:191,1,140,14|8
36,268,169177,2,0,B|56:336,1,70,2|8
120,288,169530,2,0,B|172:340,1,70,2|8
232,292,169883,2,0,B|316:324,1,70,2|10
336,252,170236,1,2
336,252,170412,2,0,B|412:252,2,70,8|2|10
256,120,171118,5,12
256,120,171295,2,0,B|204:120,2,35,8|8|8
396,52,171824,1,10
396,52,172000,1,2
460,192,172353,1,0
460,192,172530,1,8
460,192,172706,2,0,B|336:207|329:338,1,210,6|10
256,352,173412,2,0,B|212:352,2,35,8|8|10
180,216,173942,6,0,B|32:216,2,140,10|14|2
224,280,174824,2,0,B|278:216|223:154,1,140,14|0
180,92,175353,1,8
180,92,175530,1,10
336,92,175883,2,0,B|336:52,6,35,8|8|8|8|8|8|10
256,192,176765,12,0,179942
