osu file format v9

[General]
AudioFilename: korpvodk.mp3
AudioLeadIn: 0
PreviewTime: 11100
Countdown: 0
SampleSet: Normal
StackLeniency: 0.4
Mode: 0
LetterboxInBreaks: 0

[Editor]
Bookmarks: 22100,144517
DistanceSpacing: 1
BeatDivisor: 4
GridSize: 4

[Metadata]
Title:Vodka
Artist:Korpiklaani
Creator:Charles445
Version:Insane
Source:
Tags:wodka drink darkdunskin mathiasxii karkelo

[Difficulty]
HPDrainRate:7
CircleSize:4
OverallDifficulty:8
ApproachRate:8
SliderMultiplier:1.8
SliderTickRate:1

[Events]
//Background and Video events
Video,-3300,"KORPIKLAANI - Vodka [www.Keep-Tube.com].avi"
0,0,"bgpic1.jpg"
//Break Periods
2,102133,111850
//Storyboard Layer 0 (Background)
//Storyboard Layer 1 (Fail)
//Storyboard Layer 2 (Pass)
//Storyboard Layer 3 (Foreground)
//Storyboard Sound Samples
//Background Colour Transformations
3,100,163,162,255

[TimingPoints]
600.405206917892,333.333333333333,4,1,1,90,1,0
32350,-100,4,2,1,90,0,0
32517,-100,4,1,1,90,0,0
32600,-100,4,1,1,90,0,1
43267,-100,4,1,1,90,0,0
69683,-100,4,2,1,90,0,0
69850,-100,4,1,1,90,0,0
80600,-100,4,1,1,90,0,1
101933,-100,4,1,1,90,0,0
112433,-125,4,2,1,90,0,0
117850,-111.111111111111,4,2,1,90,0,0
122017,-100,4,1,1,90,0,0
155017,-100,4,2,1,90,0,0
155183,-100,4,1,1,90,0,0
155267,-100,4,1,1,90,0,1
165933,-100,4,1,1,90,0,0
166267,-100,4,1,1,90,0,1
166350,-100,4,1,1,90,0,0

[Colours]
Combo1 : 255,32,32
Combo2 : 5,226,5
Combo3 : 0,156,240
Combo4 : 242,125,9

[HitObjects]
128,72,4600,1,4
144,104,4683,1,0
168,128,4767,1,0
200,136,4850,1,0
384,72,5100,5,4
368,104,5183,1,0
344,128,5267,1,0
312,136,5350,1,0
256,280,5600,1,4
56,200,5933,6,0,B|0:216|-11:264|0:312|56:328,1,180,0|0
120,264,6433,1,0
192,208,6600,1,8
224,288,6767,1,0
256,368,6933,1,0
312,296,7100,1,0
440,272,7267,6,0,B|490:184|408:112,1,180,0|0
336,56,7767,1,0
256,24,7933,1,8
256,112,8100,1,0
256,200,8267,1,0
72,272,8600,6,0,B|112:328|176:344|232:344,1,180,0|0
320,344,9100,1,0
408,344,9267,2,0,B|466:344|492:310,2,90,8|0|0
320,344,9767,1,0
232,248,9933,5,0
232,248,10267,1,0
132,164,10433,1,0
101,136,10517,1,0
97,95,10600,1,8
126,69,10683,1,0
165,73,10767,1,0
185,108,10850,1,0
177,149,10933,1,2
368,48,11267,5,0
368,48,11433,1,0
368,48,11600,1,0
336,136,11767,1,0
296,216,11933,2,0,B|272:240|240:240|216:216,1,90,8|0
176,136,12267,1,0
144,48,12433,1,0
256,120,12600,5,0
256,120,12933,1,0
256,208,13100,1,0
176,256,13267,2,2,B|216:304|296:304|336:256,1,180,2|2
472,48,13933,6,0,B|472:168,2,90
392,96,14433,1,0
312,144,14600,1,8
312,240,14767,2,0,B|312:360,2,90,0|0|0
232,144,15267,6,0,B|184:96|120:96|72:144,1,180
152,184,15767,1,0
232,224,15933,2,2,B|280:272|344:272|391:223,1,180
512,88,16600,5,0
424,88,16767,1,0
336,88,16933,1,0
256,40,17100,1,0
184,88,17267,1,8
88,88,17433,1,0
48,168,17600,1,0
48,256,17767,1,0
168,208,17933,6,0,B|352:208,1,180
256,280,18433,1,0
168,352,18600,2,2,B|352:352,1,180
440,112,19267,6,0,B|416:64|368:64,1,90
280,224,19600,2,0,B|303:271|350:271,1,90
312,128,19933,2,0,B|288:80|240:80,1,90,8|0
152,240,20266,2,0,B|175:287|222:287,1,90
184,144,20599,6,0,B|160:96|112:96,2,90
224,224,21100,1,0
280,296,21267,1,8
400,344,21433,5,0
400,344,21517,1,0
400,344,21600,1,8
400,208,21767,5,8
400,208,21850,1,8
400,208,21933,1,4
400,208,22267,1,0
320,168,22433,1,0
240,136,22600,2,0,B|152:88|64:136,1,180,0|8
67,134,23100,1,0
152,240,23267,5,4
152,240,23600,2,0,B|160:288|224:288,1,90,0|0
360,344,23933,2,0,B|352:296|288:296,1,90
256,208,24267,1,8
168,48,24600,6,0,B|352:48,1,180,4|0
424,104,25100,1,0
388,192,25266,1,8
300,192,25433,1,0
212,192,25599,1,8
124,192,25766,1,0
388,336,26100,5,0
300,336,26267,1,8
212,336,26433,1,0
124,336,26600,2,0,B|92:336|36:304|20:248|20:192,1,180,2|0
256,104,27267,5,4
416,160,27600,2,0,B|344:216|344:216|256:216,1,180
255,220,28100,1,0
256,216,28267,2,0,B|167:216|167:216|95:160,1,180,8|4
320,40,28933,6,0,B|408:40,2,90
256,104,29433,1,0
184,160,29600,2,0,B|96:160,2,90,8|0|4
346,321,30267,6,0,B|250:321,1,90
166,321,30600,2,0,B|262:321,1,90
256,144,31100,1,0
256,56,31267,1,4
256,192,31517,12,0,32433
148,193,32600,5,2
364,193,32933,1,2
148,193,33267,1,0
148,193,33433,1,0
148,193,33600,6,2,B|128:256|184:304|256:296,1,180,2|0
256,296,34100,2,0,B|328:304|384:256|364:193,1,180
336,88,34600,2,0,B|288:32|224:144|168:88,2,180,8|8|2
456,264,35600,5,2
240,264,35933,2,0,B|328:264,1,90
456,264,36267,1,2
360,72,36600,6,0,B|352:120|288:120,1,90,8|0
152,72,36933,2,0,B|160:120|224:120,1,90,0|0
256,16,37267,2,0,B|256:200,1,180,8|4
416,272,37933,6,0,B|456:192|456:192|416:112,1,180,2|2
256,192,38600,1,0
176,232,38767,1,0
96,272,38933,2,2,B|56:192|56:192|96:111,1,180,2|0
208,24,39433,5,0
304,24,39600,1,0
336,200,39933,2,0,B|288:248|224:248|176:200,1,180,0|0
456,128,40600,6,0,B|392:168|392:232|456:272,2,180,2|2|0
512,200,41433,2,0,B|312:200,1,180
176,248,41933,6,0,B|113:284,2,60
120,151,42267,2,0,B|83:88,2,60
216,95,42600,2,0,B|278:59,2,60
272,192,42933,2,8,B|308:254,2,60,0|0|0
196,171,43267,5,0
196,171,43433,1,0
196,171,43600,1,0
152,248,43767,1,0
176,336,43933,1,2
264,368,44100,1,0
352,344,44267,1,0
392,264,44433,1,0
400,136,44600,6,0,B|360:48|256:48,1,180
256,136,45100,1,0
256,224,45267,2,0,B|151:223|111:135,2,180,8|8|0
392,224,46100,5,0
464,168,46267,1,0
464,80,46433,1,0
392,24,46600,1,2
296,24,46767,2,0,B|216:24|184:72|184:144,1,180
176,272,47267,6,0,B|96:272|64:224|64:152,2,180,0|0|8
176,272,48267,1,8
392,112,48600,6,0,B|440:96|496:115,1,90
480,273,48933,2,0,B|440:288|392:272,1,90
440,192,49267,1,2
440,192,49433,1,0
352,192,49600,1,0
264,192,49767,1,0
144,120,49933,6,0,B|96:144|89:192|96:240|144:264,1,180
192,192,50433,1,0
192,192,50600,2,0,B|0:192,2,180,8|8|0
256,256,51433,5,0
320,320,51600,2,0,B|368:344|416:312,1,90
352,152,51933,2,0,B|304:128|256:160,1,90,2|0
232,320,52267,2,0,B|280:344|320:320,1,90
432,232,52600,6,0,B|512:232,2,60
304,232,52933,2,0,B|224:232,2,60
416,160,53267,2,0,B|496:160,2,60,0|0|0
288,160,53600,2,8,B|208:160,2,60,0|0|0
352,56,53933,5,4
352,56,54100,1,0
352,56,54267,2,0,B|264:56,1,90
144,120,54600,1,0
144,120,54767,1,0
144,120,54934,2,0,B|232:120,1,90
352,184,55267,5,0
352,184,55434,1,0
352,184,55601,2,0,B|264:184,1,90
144,248,55934,1,0
144,248,56101,1,0
144,248,56268,2,0,B|232:248,2,90
64,216,56767,5,0
32,136,56933,2,0,B|32:80|80:64,1,90
224,56,57267,2,0,B|223:111|179:126,1,90
320,168,57600,2,0,B|320:112|368:96,1,90
424,168,57933,1,0
432,304,58100,5,2
256,304,58433,1,2
72,304,58767,1,2
256,104,59100,5,0
256,104,59183,1,0
256,104,59267,2,0,B|256:200,1,90,2|0
336,232,59600,2,0,B|288:280|224:280|176:232,2,180,0|8|0
392,160,60433,1,0
168,40,60767,5,0
256,40,60933,1,0
128,160,61267,1,8
304,160,61600,1,8
144,240,61933,6,0,B|336:240,1,180
407,276,62433,1,0
324,312,62600,2,0,B|144:312,1,180,8|0
62,276,63100,1,0
145,240,63267,6,0,B|337:240,1,180
408,276,63767,1,0
325,312,63934,2,0,B|145:312,1,180,8|0
136,32,64600,6,0,B|152:120|256:152,1,180
256,32,65100,1,0
376,32,65267,2,0,B|360:120|256:152,1,180,8|0
144,200,65767,2,0,B|80:232|112:296|152:296|208:296,1,180
306,295,66267,2,0,B|360:296|400:296|432:232|368:200,1,180,0|8
256,32,66933,5,0
256,32,67267,2,0,B|256:224,1,180
256,212,67767,1,0
256,192,68267,12,0,69767
128,192,69933,5,4
128,192,70267,1,0
216,192,70433,1,0
272,263,70600,2,0,B|336:224|336:160|272:120,1,180,8|0
272,263,71100,1,0
392,192,71267,5,4
392,192,71600,2,0,B|272:192,2,90,0|0|8
302,192,72100,1,0
216,192,72267,1,8
344,48,72600,6,0,B|288:24|224:24|168:48,1,180,4|0
256,104,73100,1,0
344,160,73267,2,0,B|288:184|224:184|168:160,1,180,8|8
168,160,73767,1,0
344,318,74100,5,0
256,278,74267,1,8
168,318,74433,1,0
256,358,74600,2,0,B|256:174,1,180,2|0
456,208,75267,5,4
332,84,75600,2,0,B|396:148,2,90
256,32,76100,1,0
180,84,76267,2,0,B|116:147,1,90,8|0
256,192,76600,5,4
384,320,76933,1,0
424,240,77100,1,0
424,144,77267,1,0
384,64,77433,1,0
424,144,77600,1,8
256,348,77933,5,4
256,192,78267,2,0,B|136:192,1,90
256,192,78600,2,0,B|368:192,1,90
256,36,79100,1,0
256,192,79517,12,0,80433
352,80,80600,5,2
160,80,80933,1,2
256,248,81267,2,0,B|256:288|184:296,1,90,0|0
256,248,81600,2,0,B|256:288|328:296,2,90,2|0|0
256,160,82100,5,0
256,160,82433,1,0
176,120,82600,2,0,B|224:72|288:72|336:120,2,180,8|8|2
48,248,83600,5,2
224,248,83933,1,0
136,248,84100,1,0
48,248,84267,1,2
120,80,84600,5,8
176,152,84767,1,0
232,80,84933,1,0
288,152,85100,1,0
344,80,85267,2,0,B|461:231,1,180,12|0
176,232,85933,6,0,B|272:304,1,90,2|0
176,152,86267,2,2,B|272:80,1,90
104,192,86600,1,0
104,192,86767,1,0
104,192,86933,1,2
368,192,87267,6,0,B|272:192,2,90
456,192,87767,1,0
496,272,87933,2,0,B|568:192|496:112,1,180
224,40,88600,5,2
56,104,88933,1,2
224,160,89267,1,0
144,200,89433,1,2
224,240,89600,1,0
304,200,89767,5,0
384,248,89933,2,0,B|320:288,2,60
400,320,90267,2,0,B|336:360,2,60
456,272,90600,2,0,B|506:240,2,60
440,200,90934,2,0,B|490:168,2,60
408,128,91267,6,0,B|338:52|256:40,1,180,6|2
256,45,91767,1,0
256,40,91933,2,0,B|174:53|104:129,1,180,0|2
104,128,92433,1,0
224,152,92600,5,0
264,232,92767,2,0,B|448:232,1,180,0|0
488,312,93267,2,0,B|304:312,2,180,8|8|2
400,56,94267,5,2
224,56,94600,1,0
136,56,94767,1,0
48,56,94933,1,2
128,216,95267,6,0,B|152:256|208:256,1,90,8|0
384,216,95600,2,0,B|360:256|304:256,1,90
255,76,95933,2,0,B|255:260,1,180,8|0
464,104,96600,5,2
464,280,96933,1,2
304,192,97267,2,0,B|400:192,1,90
394,192,97600,1,2
128,192,97933,5,0
176,112,98100,1,0
264,112,98266,1,0
224,192,98433,1,0
176,272,98600,1,8
88,112,98933,1,8
368,56,99267,6,0,B|423:23,2,60,2|0|0
423,152,99600,2,0,B|454:207,2,60,2|0|0
327,208,99933,2,0,B|271:239,2,60,0|0|0
271,111,100267,2,0,B|238:55,2,60,2|0|0
256,168,100600,5,0
224,224,100711,1,0
176,256,100822,1,0
120,264,100933,1,8
64,248,101044,1,0
24,200,101155,1,0
8,144,101267,5,0
16,88,101378,1,0
48,40,101489,1,0
104,16,101600,1,8
160,16,101711,1,0
216,40,101822,1,8
256,80,101933,5,4
336,344,112600,6,0,B|240:344,2,72,0|0|0
384,296,113100,2,0,B|472:296,2,72,0|0|0
336,248,113600,1,0
336,248,113767,1,0
288,200,113933,6,0,B|192:200,2,72
336,152,114433,2,0,B|432:152,2,72,0|0|0
288,104,114933,1,0
288,104,115100,1,0
200,40,115267,6,0,B|160:32|128:48,1,72
72,91,115600,1,0
32,152,115767,2,0,B|24:192|40:224,1,72,0|0
72,293,116100,1,0
129,336,116267,2,0,B|160:352|200:344,1,72
208,272,116600,6,0,B|160:280|136:256,1,72,0|0
104,192,116933,1,0
139,124,117100,2,0,B|160:104|208:112,2,72
104,192,117600,1,0
104,192,117767,1,0
224,192,117933,5,0
304,192,118100,1,0
376,156,118267,2,0,B|406:192|376:228,2,80.9999961376192
304,192,118767,1,0
224,192,118933,1,0
144,192,119100,1,0
32,264,119267,5,0
96,312,119433,1,0
160,352,119600,1,0
224,312,119767,1,0
288,264,119933,1,0
352,312,120100,1,0
416,352,120267,1,0
480,312,120433,1,0
432,192,120600,6,0,B|352:128,1,80.9999961376192
256,80,120933,2,0,B|256:160,1,80.9999961376192
143,141,121267,2,0,B|80:192,2,80.9999961376192
256,80,121767,1,0
256,80,121933,1,0
344,336,122267,6,0,B|256:366|168:336,1,180,0|2
136,72,123267,5,0
216,152,123433,1,8
296,232,123600,2,0,B|334:270,2,45,0|0|8
136,312,123933,1,0
216,232,124099,1,8
296,152,124266,2,0,B|334:114,2,45,0|0|8
376,312,124600,5,0
296,232,124766,1,8
216,152,124933,2,0,B|178:114,2,45,0|0|8
376,72,125267,1,0
296,152,125433,1,8
216,232,125600,2,0,B|178:270,2,45,0|0|8
56,192,125933,5,0
96,112,126100,1,8
176,64,126267,2,0,B|224:64,2,45,0|0|8
336,64,126600,1,0
416,112,126767,1,8
456,192,126933,2,0,B|456:240,2,45,0|0|8
400,320,127267,6,0,B|368:352|312:352,1,90,0|8
328,264,127600,2,0,B|305:204,2,45,0|0|8
232,149,127933,2,0,B|254:208,2,45,0|0|8
238,298,128267,2,0,B|215:238,2,45,0|0|8
136,192,128600,6,0,B|136:280,2,90,0|8|0
136,192,129017,1,0
136,192,129100,1,8
56,112,129267,2,0,B|56:24,2,90,0|8|0
56,112,129684,1,0
56,112,129767,1,8
136,192,129933,6,0,B|136:280,2,90,0|8|0
136,192,130350,1,0
136,192,130433,1,8
208,104,130600,2,0,B|208:16,2,90,0|8|0
208,104,131017,1,0
208,104,131100,1,8
256,272,131267,5,0
256,328,131378,1,0
296,368,131489,1,0
353,376,131600,1,0
408,368,131711,1,0
448,328,131822,1,0
448,272,131933,5,0
448,216,132044,1,0
408,176,132155,1,0
352,168,132267,1,0
296,176,132378,1,0
256,216,132489,1,0
256,272,132600,5,0
256,328,132711,1,0
216,368,132822,1,0
160,376,132933,1,0
104,368,133044,1,0
64,328,133155,1,0
64,272,133267,5,0
64,216,133378,1,0
104,176,133489,1,0
160,168,133600,1,0
216,176,133711,1,0
256,216,133822,1,0
256,272,133933,5,4
408,368,134267,1,0
488,328,134433,1,0
408,272,134600,1,2
328,224,134767,1,0
408,176,134933,1,0
488,128,135100,1,0
416,72,135267,6,0,B|328:42|240:72,1,180
240,160,135767,1,0
240,72,135933,2,0,B|151:41|63:71,2,180,8|8|0
352,152,136767,5,0
416,216,136933,1,0
416,304,137100,1,0
352,368,137267,1,2
416,304,137433,1,0
416,216,137600,1,0
352,152,137767,1,0
272,104,137933,6,0,B|183:73|95:103,1,180
184,160,138433,1,0
272,216,138600,2,0,B|183:246|95:216,1,180,8|8
352,320,139267,6,0,B|408:320|440:272,1,90
344,184,139600,2,0,B|288:184|256:232,1,90
136,208,139933,2,0,B|192:208|224:160,1,90,2|0
128,72,140266,2,0,B|72:72|40:120,1,90
32,248,140600,6,0,B|32:336|168:336,1,180
256,336,141100,1,0
347,335,141267,2,0,B|480:336|480:248,1,180,8|8
424,80,141933,6,0,B|336:80,1,90
216,144,142267,2,0,B|304:144,1,90
216,48,142600,2,0,B|128:48,1,90,2|0
8,112,142934,2,0,B|96:112,1,90
168,232,143267,6,0,B|376:232,1,180
304,312,143767,1,0
216,312,143933,1,4
304,312,144100,1,0
216,312,144267,1,4
256,136,144600,5,4
256,136,144933,1,0
176,80,145100,1,0
176,80,145267,2,0,B|224:32|288:32|336:80,1,180,8|0
335,79,145767,1,0
408,192,145933,5,4
408,192,146267,1,0
344,256,146433,1,0
256,224,146600,1,8
168,256,146767,1,0
104,192,146933,1,8
256,48,147267,5,4
256,48,147600,1,0
344,64,147767,1,0
424,96,147933,2,0,B|472:112|480:160,1,90,8|0
472,248,148267,1,8
440,328,148433,1,0
256,192,148767,5,0
168,192,148933,1,8
80,192,149100,1,0
32,112,149267,2,0,B|-16:160|-16:224|32:272,1,180,2|0
368,72,149933,5,4
464,224,150267,2,0,B|463:296|425:336|353:336,1,180,0|0
376,248,150767,1,0
398,160,150933,2,0,B|326:160|288:200|288:272,1,180,8|4
128,192,151600,5,0
56,136,151767,2,0,B|88:72|168:72|200:136,1,180
256,200,152267,2,0,B|288:264|368:264|400:200,1,180,8|4
346,30,152933,6,0,B|250:30,1,90
166,30,153267,2,0,B|262:30,1,90
256,200,153767,1,0
256,192,153933,12,0,155100
184,128,155267,5,2
336,280,155600,1,2
256,80,155933,1,0
256,192,156100,1,0
256,304,156267,1,2
80,120,156600,5,0
80,120,156767,2,0,B|16:152|16:232|80:264,1,180
168,192,157267,2,0,B|360:192,1,180,8|8
472,40,157933,5,2
256,40,158267,1,2
472,40,158600,2,0,B|376:40,1,90
256,40,158933,1,2
72,56,159267,6,0,B|32:79|32:131,1,90,8|0
72,328,159600,2,0,B|32:304|32:252,1,90
224,192,159933,2,0,B|44:192,2,180,8|0|2
480,192,160933,5,2
312,336,161267,1,0
200,336,161434,1,0
104,296,161600,6,0,B|8:256|8:152,1,180,2|0
112,144,162100,2,0,B|111:193|159:213,1,90
336,32,162600,2,0,B|184:144,1,180,0|0
152,352,163267,5,2
368,352,163600,1,2
256,160,163933,1,0
256,272,164100,1,2
256,384,164267,1,0
256,272,164433,1,0
256,160,164600,5,0
376,96,164767,1,8
376,232,164933,1,0
256,160,165100,1,0
136,96,165267,1,8
136,232,165433,1,0
256,160,165600,1,8
376,96,165767,1,8
256,40,165933,5,4
256,40,166267,1,4
