osu file format v9

[General]
AudioFilename: korpvodk.mp3
AudioLeadIn: 0
PreviewTime: 11100
Countdown: 0
SampleSet: Normal
StackLeniency: 0.4
Mode: 0
LetterboxInBreaks: 0

[Editor]
Bookmarks: 22100,27350,32683,70017,75517,133933,139267,144517
DistanceSpacing: 0.96
BeatDivisor: 4
GridSize: 8

[Metadata]
Title:Vodka
Artist:Korpiklaani
Creator:Charles445
Version:Hard
Source:
Tags:wodka drink darkdunskin mathiasxii karkelo

[Difficulty]
HPDrainRate:5
CircleSize:4
OverallDifficulty:5
ApproachRate:7
SliderMultiplier:1.5
SliderTickRate:1

[Events]
//Background and Video events
Video,-3300,"KORPIKLAANI - Vodka [www.Keep-Tube.com].avi"
0,0,"bgpic1.jpg"
//Break Periods
2,102133,111700
//Storyboard Layer 0 (Background)
//Storyboard Layer 1 (Fail)
//Storyboard Layer 2 (Pass)
//Storyboard Layer 3 (Foreground)
//Storyboard Sound Samples
//Background Colour Transformations
3,100,163,162,255

[TimingPoints]
600.405206917892,333.333333333333,4,1,1,90,1,0
32600,-100,4,1,1,90,0,1
43267,-100,4,1,1,90,0,0
80600,-100,4,1,1,90,0,1
101933,-100,4,1,1,90,0,0
112433,-125,4,2,1,90,0,0
117850,-111.111111111111,4,2,1,90,0,0
122017,-100,4,1,1,90,0,0
155267,-100,4,1,1,90,0,1
165933,-100,4,1,1,90,0,0
166267,-100,4,1,1,90,0,1
166350,-100,4,1,1,90,0,0

[Colours]
Combo1 : 255,32,32
Combo2 : 5,226,5
Combo3 : 0,156,240
Combo4 : 242,125,9

[HitObjects]
192,64,4600,6,0,B|222:20|288:20|320:64,1,150,4|0
320,136,5100,2,0,B|289:180|223:180|191:135,1,150,4|0
256,100,5600,1,4
392,64,5933,6,0,B|480:64|480:160,1,150
488,232,6433,1,0
480,304,6600,2,0,B|480:344|448:376,2,75,8|0|0
488,232,7100,1,0
480,160,7267,2,0,B|480:64|392:64,1,150
408,136,7767,1,0
352,184,7933,2,0,B|296:232,2,75,8|0|0
224,120,8600,6,0,B|192:76|128:76|96:120,1,150
160,160,9100,1,0
224,192,9267,2,0,B|256:236|320:236|352:192,2,150,8|0|0
224,192,10267,1,0
160,160,10433,2,0,B|136:189,2,37.5,0|0|8
160,160,10767,2,0,B|205:103,2,37.5,0|0|2
240,40,11267,6,0,B|424:40,1,150
432,104,11767,1,0
392,168,11933,2,0,B|208:168,2,150,8|0|0
392,168,12933,1,0
432,232,13100,1,0
392,296,13267,2,2,B|208:296,1,150,2|2
96,296,13933,6,0,B|56:288|48:232,1,75
120,232,14267,2,0,B|168:216|168:168,1,75,0|0
96,168,14600,2,0,B|32:152|32:40,1,150,8|0
104,32,15100,1,0
176,56,15267,2,0,B|220:78|276:78|320:56,1,150
360,120,15767,1,0
320,184,15933,2,2,B|275:206|219:206|175:184,1,150,2|2
104,312,16600,6,0,B|152:289|193:346|248:312,1,150
392,312,17267,1,8
320,312,17433,1,0
248,312,17600,1,0
248,168,17933,2,0,B|248:264,2,75
248,96,18433,1,0
184,56,18600,2,2,B|216:12|281:13|312:56,1,150
376,184,19267,6,0,B|312:264|256:264,1,150
254,264,19767,1,0
257,264,19933,2,0,B|200:264|136:184,1,150,8|0
112,112,20433,1,0
184,88,20600,2,0,B|232:64|280:64|328:88,1,150
376,144,21100,1,0
328,200,21267,2,0,B|280:224|232:224|184:200,1,150,8|8
256,72,21933,5,4
256,72,22267,1,0
328,72,22433,1,0
400,72,22600,2,0,B|496:72|496:160,1,150,0|8
496,232,23100,1,0
496,232,23267,1,4
352,232,23600,2,0,B|256:232,1,75
128,232,23933,2,0,B|208:232,1,75
240,168,24267,1,8
328,56,24600,6,0,B|496:56,2,150,4|0|8
256,80,25434,1,0
184,104,25600,2,0,B|32:104,1,150,8|4
40,176,26100,1,0
80,240,26267,1,8
136,288,26433,1,0
200,328,26600,2,0,B|272:352|352:328,1,150,2|0
256,216,27267,6,0,B|211:179|211:126|256:88,1,150,4|0
304,152,27767,1,0
304,152,27933,2,0,B|136:152,2,150,0|8|4
408,240,28933,1,0
376,304,29100,2,0,B|343:356|240:344,1,150
240,344,29600,2,0,B|184:288|96:320,1,150,8|4
256,192,30267,5,0
320,152,30433,2,0,B|284:108|228:108|192:152,2,150
256,192,31600,12,6,32600
214,140,32933,5,2
296,24,33267,1,0
352,72,33433,1,0
352,144,33600,1,2
440,256,33933,2,0,B|400:344|320:344,1,150
256,344,34433,1,0
183,343,34600,2,0,B|112:344|72:256,1,150,8|8
112,120,35267,6,0,B|152:68|192:158|248:112,1,150,2|2
392,96,35933,1,0
320,104,36100,1,0
248,112,36267,1,2
156,240,36600,6,0,B|188:272|220:272,1,75,8|0
356,240,36933,2,0,B|324:272|292:272,1,75
256,208,37267,2,0,B|256:376,1,150,8|0
112,328,37933,6,0,B|16:328|24:224,2,150,2|2|0
96,256,38767,1,0
144,208,38933,1,2
248,112,39267,1,0
312,72,39433,1,0
376,112,39600,1,0
376,256,39933,2,0,B|340:300|284:300|248:256,1,150,8|8
152,152,40600,6,0,B|116:108|60:108|24:152,2,150,2|2|0
88,192,41433,2,0,B|88:344,1,150,2|0
168,360,41933,2,0,B|238:367|259:336,1,100
259,336,42267,2,0,B|289:293|347:312,1,100
347,312,42600,2,0,B|417:319|438:288,1,100
438,286,42933,1,0
400,144,43267,5,0
344,96,43433,1,0
280,136,43600,1,0
224,88,43766,1,0
160,128,43933,2,0,B|80:168|64:248,1,150,2|0
104,304,44433,1,0
168,344,44600,2,0,B|240:362|240:362|312:344,1,150
280,280,45100,1,0
240,216,45267,2,0,B|312:198|312:198|384:216,2,150,8|8|0
168,232,46100,5,0
96,248,46267,2,0,B|41:251|1:202|13:149,1,150,0|2
85,173,46767,2,0,B|201:75,1,150
272,80,47267,2,0,B|312:125|360:125|400:80,2,150,0|0|8
336,208,48267,1,8
440,304,48600,5,0
384,352,48767,1,0
312,360,48933,1,0
240,360,49100,1,0
277,296,49267,1,2
205,296,49434,1,0
133,288,49600,1,0
77,240,49767,1,0
32,184,49933,6,0,B|-16:144|-16:96|32:56,1,150
32,56,50433,1,0
64,120,50600,2,8,B|217:121,1,150
320,216,51267,6,0,B|336:320,1,75
464,216,51600,2,0,B|448:320,1,75,0|0
464,144,51933,2,0,B|448:48,1,75,2|0
320,144,52266,2,0,B|336:40,1,75,0|0
392,192,52600,2,0,B|392:256,5,50
392,192,53267,2,0,B|392:128,6,50,0|0|0|0|0|0|4
392,32,54267,6,0,B|304:32,1,75,0|0
248,32,54600,1,0
104,104,54933,2,0,B|192:104,1,75
248,104,55267,1,0
392,176,55600,2,0,B|304:176,1,75
248,176,55933,1,0
112,232,56267,6,0,B|88:312|208:336,1,150
336,344,56933,1,0
408,352,57100,1,0
480,344,57267,1,0
496,200,57600,2,0,B|501:143|462:103|405:109,1,150
420,184,58100,1,2
296,264,58433,1,2
176,184,58767,1,2
296,104,59100,6,0,B|296:184,2,75
360,64,59600,2,0,B|328:20|264:20|232:64,2,150,0|8|0
408,120,60433,1,0
408,264,60767,1,0
360,320,60933,2,0,B|312:352|216:352,1,150,0|8
215,352,61600,1,0
104,264,61933,6,0,B|105:101,1,150
168,80,62433,1,0
232,112,62600,2,0,B|232:261,1,150,8|0
296,296,63100,1,0
359,260,63267,2,0,B|360:111,1,150
424,80,63767,1,0
488,112,63934,2,0,B|488:261,1,150,8|0
360,328,64600,6,0,B|304:344|200:344,1,150
144,320,65100,1,0
200,272,65267,2,0,B|292:272|348:256,1,150,8|0
344,184,65767,2,0,B|288:199|195:199,2,150
344,184,66600,1,8
384,48,66933,5,0
256,120,67267,1,0
128,48,67600,1,0
72,88,67767,1,0
256,192,68267,12,4,69933
256,296,70267,5,0
256,296,70433,1,0
256,296,70600,2,0,B|336:288|408:272,1,150,0|8
456,224,71100,1,0
456,224,71267,1,4
336,136,71600,2,0,B|400:184,2,75,0|0|8
280,88,72100,1,0
208,64,72267,1,8
56,72,72600,6,0,B|8:112|8:160|56:200,1,150,4|0
96,136,73100,1,0
168,168,73267,2,0,B|216:208|216:256|168:296,1,150,8|8
128,232,73767,1,0
280,232,74100,1,0
352,232,74267,1,8
424,232,74433,1,0
464,168,74600,2,0,B|512:208|512:256|464:296,2,150,2|0|4
360,32,75600,6,0,B|272:56,1,75
160,96,75933,2,0,B|248:120,1,75,0|0
360,160,76267,2,0,B|272:184,1,75,8|0
160,224,76600,1,4
328,280,76933,1,0
392,320,77100,2,0,B|356:368|256:368,1,150
256,368,77600,2,0,B|156:368|120:320,1,150,8|4
152,80,78267,5,0
200,136,78433,2,0,B|256:200|256:280,2,150
256,192,79600,12,6,80600
448,64,80933,5,2
368,184,81267,1,0
392,112,81433,1,0
448,64,81600,1,2
472,208,81933,2,0,B|447:298|366:304,1,150
298,320,82433,1,0
224,328,82600,2,0,B|142:334|163:262|82:268,2,150,8|8|2
272,184,83600,5,2
400,120,83933,1,0
352,72,84100,1,0
288,40,84267,1,2
104,72,84600,6,0,B|32:120,1,75,8|0
40,256,84933,2,0,B|112:304,1,75,0|0
16,184,85267,2,0,B|176:184,1,150,8|0
352,128,85933,6,0,B|412:124|446:158|442:218,2,150,2|2|0
368,200,86767,1,0
384,272,86933,1,2
248,312,87267,1,0
184,336,87433,1,0
128,296,87600,1,0
272,247,87933,1,8
122,227,88267,1,8
184,48,88600,5,2
328,48,88933,1,2
184,48,89267,1,0
184,48,89433,2,0,B|160:128|208:192,1,150,2|0
264,232,89933,2,0,B|327:269|343:177|402:232,2,150
264,232,90933,1,0
144,312,91267,6,0,B|304:312,2,150,6|2|0
72,312,92100,1,0
144,312,92267,1,2
184,176,92600,1,0
248,136,92767,2,0,B|312:88|408:120,1,150
368,184,93267,2,0,B|447:195|492:285,2,150,8|8|2
256,336,94267,5,2
192,192,94600,1,0
256,224,94767,1,0
320,256,94933,1,2
480,104,95267,6,0,B|472:56|424:32,1,75,8|0
480,184,95600,2,0,B|472:232|424:256,1,75,0|0
400,144,95933,2,0,B|248:144,1,150,8|0
40,144,96600,5,2
96,280,96933,1,2
40,144,97267,1,0
80,208,97433,1,0
96,280,97600,1,2
240,280,97933,1,0
256,208,98100,1,0
296,144,98266,1,0
168,208,98600,2,0,B|168:360,1,150,8|8
344,336,99267,6,0,B|403:312|424:280,1,100,2|0
424,280,99600,2,0,B|364:256|344:224,1,100,2|0
344,224,99933,2,0,B|403:200|424:168,1,100,0|0
256,192,100267,12,4,101933
368,272,112600,6,0,B|332:304|256:304,1,120
256,304,113100,2,0,B|179:303|143:271,1,120
142,271,113600,1,0
143,271,113767,1,0
88,184,113933,6,0,B|144:219|200:184,1,120
144,128,114433,2,0,B|200:93|256:128,1,120
256,128,114933,1,0
256,128,115100,1,0
328,200,115267,6,0,B|448:200,1,120
416,272,115767,2,0,B|296:272,1,120,0|0
296,272,116267,1,0
296,272,116433,1,0
200,312,116600,6,0,B|200:254|200:254|160:208,1,120
120,280,117100,2,0,B|79:233|79:233|79:175,1,120,0|0
79,175,117600,1,0
79,175,117767,1,0
136,72,117933,6,0,B|184:48|232:104|264:72,1,134.999993562699
288,160,118433,2,0,B|240:184|192:128|160:160,1,134.999993562699
159,160,118933,1,0
159,160,119100,1,0
192,272,119267,6,0,B|224:327|304:336,1,134.999993562699
280,248,119767,2,0,B|338:273|408:233,1,134.999993562699
408,233,120267,1,0
408,233,120433,1,0
360,128,120600,6,0,B|333:62|256:56,1,134.999993562699
256,56,121100,2,0,B|178:62|151:128,1,134.999993562699
151,128,121600,1,0
151,128,121767,1,0
256,176,121933,5,0
331,299,122267,2,0,B|181:299,1,150,0|2
240,64,123267,5,0
312,48,123433,1,8
384,48,123600,1,0
456,64,123766,1,8
440,136,123933,1,0
368,120,124099,1,8
296,120,124266,1,0
224,136,124432,1,8
136,216,124600,6,0,B|64:280,1,75,0|8
72,368,124933,2,0,B|128:318,1,75,0|8
231,316,125267,2,0,B|287:365,1,75,0|8
280,264,125600,2,0,B|223:214,1,75,0|8
104,152,125933,5,0
168,112,126100,1,8
240,96,126267,1,0
312,96,126433,1,8
276,158,126600,1,0
348,158,126766,1,8
420,174,126933,1,0
484,214,127100,1,8
416,304,127267,6,0,B|392:344|336:360,1,75,0|8
264,320,127600,2,0,B|288:280|344:264,1,75,0|8
232,224,127933,2,0,B|208:264|152:280,1,75,0|8
80,240,128266,2,0,B|104:200|160:184,1,75,0|8
232,128,128600,5,0
296,88,128767,1,8
368,72,128933,1,0
440,72,129100,1,8
475,134,129267,1,0
403,134,129434,1,8
331,150,129600,1,0
267,190,129767,1,8
168,264,129933,6,0,B|104:312,1,75,0|8
200,344,130267,2,0,B|256:296,1,75,0|8
352,296,130600,2,0,B|408:344,1,75,0|8
504,306,130934,2,0,B|444:261,1,75,0|8
400,136,131267,6,0,B|363:172|312:176,1,100
312,176,131600,2,0,B|259:172|222:136,1,100
224,136,131933,2,0,B|187:100|136:96,1,100
136,96,132266,2,0,B|83:101|46:137,1,100
48,136,132600,2,0,B|85:172|136:176,1,100
136,176,132933,2,0,B|189:172|226:136,1,100
224,136,133266,2,0,B|261:100|312:96,1,100
312,96,133599,2,0,B|365:101|402:137,1,100
400,136,133933,6,0,B|445:173|445:226|400:264,1,150,4|0
352,200,134433,1,0
352,200,134600,2,0,B|504:200,2,150,2|0|0
224,136,135600,1,0
173,86,135767,1,0
156,153,135933,2,0,B|48:260,1,150,8|8
184,304,136600,6,0,B|224:368|312:368,1,150
312,296,137100,1,0
312,224,137267,2,0,B|399:224|439:288,2,150,2|0|0
168,224,138267,1,0
96,224,138433,1,0
56,288,138600,2,0,B|11:251|11:198|56:160,1,150,8|8
168,64,139267,6,0,B|208:128|296:128,1,150
368,152,139767,1,0
440,176,139933,2,0,B|400:240|312:240,1,150,2|0
240,264,140433,1,0
168,288,140599,2,0,B|208:352|296:352,2,150,0|0|8
168,288,141600,1,8
72,176,141933,6,0,B|144:128,1,75
160,64,142267,2,0,B|232:112,1,75
248,176,142600,2,0,B|320:128,1,75,2|0
336,64,142933,2,0,B|408:112,1,75
448,160,143267,2,0,B|472:256|360:288,1,150
312,296,143767,1,0
240,296,143933,1,4
312,296,144100,1,0
240,296,144267,1,4
256,64,144600,5,4
256,64,144933,1,0
256,136,145100,1,0
192,176,145267,2,0,B|224:222|288:219|320:176,1,150,8|0
368,120,145767,1,0
416,64,145933,1,4
472,200,146267,2,0,B|400:264,1,75
472,368,146600,2,0,B|400:304,1,75,8|0
352,284,146933,1,8
280,160,147267,6,0,B|280:80|216:112|216:32,1,150,4|0
152,64,147767,1,0
88,32,147933,2,8,B|88:112|24:80|24:160,1,150
23,159,148433,1,0
184,280,148767,5,0
256,296,148933,1,8
328,280,149100,1,0
328,352,149267,2,0,B|279:374|233:374|184:352,2,150,2|0|4
432,192,150267,6,0,B|387:155|387:102|432:64,1,150
480,128,150767,1,0
480,128,150933,2,0,B|312:128,1,150,8|4
200,184,151600,1,0
136,216,151767,2,0,B|152:264|208:272|288:272,1,150
328,304,152267,2,8,B|312:352|256:360|176:360,1,150,8|4
24,192,152933,5,0
80,152,153100,2,0,B|136:120|65:63|141:18,2,150
256,192,153933,12,6,155267
272,96,155600,5,2
336,224,155933,1,0
272,256,156100,1,0
208,224,156267,1,2
64,240,156600,1,0
120,288,156767,2,0,B|156:336|256:336,1,150
255,336,157267,2,0,B|356:336|392:288,1,150,8|8
464,88,157933,5,2
464,232,158267,1,2
464,88,158600,1,0
464,160,158767,1,0
464,232,158933,1,2
384,112,159267,2,0,B|368:80|320:80,1,75,8|0
176,80,159600,2,0,B|128:79|112:111,1,75
248,56,159933,2,0,B|248:240,1,150,8|0
328,328,160600,6,0,B|416:320|408:224,2,150,2|2|0
337,256,161433,1,0
284,206,161600,1,2
160,144,161933,5,0
96,192,162100,1,0
160,240,162267,1,0
224,112,162600,1,0
224,272,162933,1,0
376,112,163267,6,0,B|416:176|416:176|376:240,2,150,2|2|0
336,48,164100,1,2
264,48,164267,1,0
224,112,164433,1,0
224,208,164600,5,0
152,272,164767,1,8
80,208,164933,1,0
152,144,165100,1,0
224,208,165267,1,8
296,272,165434,1,0
368,208,165600,1,8
296,144,165767,1,8
224,208,165933,5,4
224,208,166267,1,4
