osu file format v5

[General]
AudioFilename: korn - take a look in the mirror - fuck that.mp3
AudioLeadIn: 0
PreviewTime: -1
Countdown: 1
SampleSet: None
StackLeniency: 0.7
Mode: 0
LetterboxInBreaks: 1

[Metadata]
Title:fuck that
Artist:Korn
Creator:duvan1991
Version:Hard
Source:
Tags:

[Difficulty]
HPDrainRate:6
CircleSize:6
OverallDifficulty:4
SliderMultiplier:2.6
SliderTickRate:1

[Events]
//Background and Video events
0,0,"korn.jpg"
//Break Periods
//Storyboard Layer 0 (Background)
//Storyboard Layer 1 (Failing)
//Storyboard Layer 2 (Passing)
//Storyboard Layer 3 (Foreground)
//Storyboard Sound Samples
//Background Colour Transformations
3,100,0,64,0

[TimingPoints]
0,1000,4,0,0,100,1

[Colours]
Combo1 : 1,254,216
Combo2 : 53,6,238
Combo3 : 0,0,0
Combo4 : 237,243,1

[HitObjects]
110,147,4500,1,0
173,268,5250,1,0
236,133,6000,1,0
363,104,6750,1,0
212,268,7750,1,0
106,145,8500,1,0
231,117,9500,1,0
223,162,9750,1,0
225,214,10000,1,0
227,267,10250,1,0
259,299,10500,1,0
306,307,10750,1,0
356,305,11000,1,0
359,253,11250,1,0
340,198,11500,1,0
245,155,11750,1,0
168,232,12250,1,0
136,299,13000,1,0
256,304,13750,1,0
224,192,14875,5,10
224,224,15250,1,10
256,256,15750,1,10
288,256,16125,1,10
320,224,16500,1,10
320,192,16875,1,10
288,160,17250,1,10
256,128,17750,1,10
224,128,18125,1,10
192,160,18500,1,10
224,192,18875,1,10
256,192,19250,1,10
256,160,19750,1,10
224,128,20125,1,10
192,96,20500,1,10
160,96,20875,1,10
128,128,21250,1,10
128,160,21750,1,10
160,192,22125,1,10
192,192,22500,1,10
224,192,22875,1,10
448,96,23750,1,10
64,160,24500,1,10
224,160,25250,1,10
384,128,25750,1,10
96,192,26500,2,10,B|352:320|32:256|-32:160,1,325
256,192,28875,1,10
256,32,29250,2,10,B|-32:160,5,260
104,139,35000,1,0
187,142,35750,1,0
328,65,36250,5,0
398,208,36750,1,0
152,293,37250,1,0
68,155,37750,1,0
205,89,38250,1,0
281,257,38750,1,0
352,96,39750,1,10
224,192,40125,1,10
128,256,40500,5,10
384,64,41250,1,10
256,256,42125,5,10
160,192,42875,1,10
224,96,43750,1,10
384,128,44000,5,14
256,224,44375,1,14
192,256,44750,1,14
256,160,45125,1,14
384,224,45625,1,14
352,128,46000,1,14
256,64,46375,1,14
96,192,46750,1,14
224,192,47125,1,14
224,320,47625,1,14
256,320,48000,1,14
288,320,48375,1,14
320,320,48750,1,14
352,320,49125,1,14
384,320,49625,1,14
384,256,50000,1,14
320,224,50375,2,14,B|0:160|-32:160,1,325
32,96,53125,1,14
96,96,53625,1,14
160,96,54000,1,14
224,96,54375,1,14
288,96,54750,1,14
352,96,55125,1,14
416,96,55625,1,14
480,96,56000,1,14
480,160,56375,1,14
320,160,57625,1,14
192,96,58000,1,14
288,64,58375,1,14
224,192,58750,1,14
256,128,59125,1,14
416,128,59625,1,14
384,224,60000,1,14
480,256,60375,1,14
512,160,60750,1,14
448,192,61125,1,14
384,96,61625,1,14
288,128,62000,1,14
224,224,62375,1,14
288,320,62750,1,14
384,288,63125,1,14
448,224,63625,1,14
416,128,64000,1,14
224,160,64375,1,14
256,256,64750,1,14
320,224,65125,1,14
352,192,65625,5,14
320,128,66000,1,14
192,160,66375,1,14
256,256,66750,1,14
416,160,67125,1,14
352,64,67625,1,14
256,128,68000,1,14
320,256,68375,5,14
192,224,68750,1,14
384,160,69125,1,14
288,128,70000,5,14
288,224,70375,1,14
128,192,70750,1,14
192,96,71125,1,14
256,192,72000,12,0,77000
250,164,77500,2,0,B|155:272|138:94|184:69|151:69,3,195
232,76,80500,2,0,B|300:76,12,65
294,138,84000,2,0,B|295:191|295:208,19,65
232,212,88750,2,0,B|163:212,21,65
99,140,94500,1,0
188,146,95250,1,0
270,150,96000,1,0
360,151,96750,1,0
442,153,97500,1,0
444,248,98250,1,0
289,272,99000,1,0
238,259,99250,1,0
251,208,99500,1,0
199,209,99750,1,0
197,157,100000,1,0
145,154,100250,1,0
152,102,100500,1,0
100,96,100750,1,0
95,44,101000,1,0
146,35,101250,1,0
198,35,101500,1,0
130,255,102250,5,0
301,265,102750,1,0
215,158,103500,1,0
104,267,104250,1,0
116,247,106500,1,0
165,232,106750,1,0
216,227,107000,1,0
266,213,107250,1,0
308,182,107500,1,0
320,131,107750,1,0
308,80,108000,1,0
259,60,108250,5,0
229,103,108500,1,0
197,144,108750,1,0
174,191,109000,1,0
205,232,109250,1,0
255,245,109500,1,0
299,218,109750,1,0
341,187,110000,5,0
331,135,110250,1,0
284,112,110500,1,0
233,122,110750,1,0
198,160,111000,1,0
170,204,111250,1,0
255,262,111750,1,0
316,178,112250,1,0
213,160,112750,1,0
163,251,113250,1,0
263,276,113750,1,0
321,189,114250,1,0
235,129,114750,1,0
176,214,115250,1,0
257,279,115750,1,0
325,200,116250,1,0
246,131,116750,1,0
179,210,117250,1,0
262,271,117750,1,0
328,191,118250,1,0
242,132,118750,1,0
177,213,119250,1,0
259,276,119750,1,0
331,201,120250,5,0
253,132,120750,1,0
302,115,121000,1,0
353,111,121250,1,0
400,133,121500,1,0
408,184,121750,1,0
308,214,122250,6,0,B|131:116|132:116,6,195
152,224,127500,6,0,B|230:164,7,65
265,267,129750,6,0,B|210:229|248:190,10,65
124,199,133000,5,0
192,160,133500,1,0
288,256,134000,1,0
288,160,134750,1,0
192,224,135500,1,0
288,288,136250,1,0
288,160,136750,1,0
128,192,137750,1,0
64,64,138750,2,0,B|480:64|480:320|32:320|0:288|512:352|480:160,1,780
352,128,143000,1,0
320,224,144250,1,0
96,224,145500,1,0
160,128,146750,1,0
224,288,147750,1,0
320,224,148750,1,0
192,192,149750,1,0
320,128,151000,1,0
128,256,152250,1,0
320,256,153500,1,0
256,192,154500,12,0,159250
192,192,159750,1,0
352,192,160500,1,0
256,64,161250,1,0
256,256,162250,1,0
352,160,163000,5,8
226,209,163750,1,2
264,129,164500,1,2
401,192,165250,1,2
221,218,166000,1,8
109,195,167000,1,8
277,184,168000,1,8
337,249,169000,1,8
128,286,170000,1,8
188,176,171000,1,8
128,192,172250,1,0
192,192,172500,1,0
256,192,172750,1,0
320,192,173000,1,0
384,192,173250,1,0
448,192,173500,1,0
448,128,173750,1,0
384,96,174000,1,0
320,96,174250,1,0
256,96,174500,1,0
224,128,174750,1,0
192,160,175000,1,0
224,192,175250,1,0
288,192,175500,1,0
352,192,175750,1,0
352,256,176000,1,0
352,320,176250,1,0
288,320,176500,1,0
224,320,176750,1,0
160,320,177000,1,0
96,320,177250,1,0
96,256,177500,1,0
96,192,177750,1,0
220,151,178750,1,8
229,290,179750,1,8
227,219,180250,1,0
226,164,180750,1,0
320,240,181250,1,0
320,240,181750,1,0
320,240,182500,1,0
320,240,182750,1,0
320,240,183750,1,0
320,240,184500,1,0
320,240,184750,1,0
320,240,185750,1,0
320,240,186000,1,0
320,240,187000,1,0
320,240,187500,1,0
320,240,188000,1,0
320,240,189000,1,0
320,240,190000,1,0
320,240,190250,1,0
324,235,191750,1,0
168,184,192250,1,0
280,125,193250,1,0
326,127,193500,1,0
375,139,193750,1,0
392,193,194000,1,0
364,251,194250,1,0
287,253,194500,1,0
234,227,194750,1,0
209,178,195000,1,0
231,120,195250,1,0
298,101,195500,1,0
359,128,195750,1,0
400,171,196000,1,0
374,220,196250,1,0
305,264,196500,1,0
