osu file format v6

[General]
AudioFilename: Korn - Word up.mp3
AudioLeadIn: 0
PreviewTime: 47460
Countdown: 1
SampleSet: Soft
StackLeniency: 0.7
Mode: 0
LetterboxInBreaks: 1

[Editor]
DistanceSpacing: 0.800000011920929
BeatDivisor: 4
GridSize: 8

[Metadata]
Title:Word Up
Artist:Korn
Creator:Thunderstorm
Version:Easy
Source:
Tags:Nu Metal

[Difficulty]
HPDrainRate:2
CircleSize:4
OverallDifficulty:2
SliderMultiplier:1.4
SliderTickRate:2

[Events]
//Background and Video events
0,0,"77270.jpg"
Video,6480,"28766.avi"
//Break Periods
2,50249,56247
2,65766,72799
2,115938,131247
//Storyboard Layer 0 (Background)
//Storyboard Layer 1 (Fail)
//Storyboard Layer 2 (Pass)
//Storyboard Layer 3 (Foreground)
//Storyboard Sound Samples
//Background Colour Transformations
3,100,255,255,255

[TimingPoints]
8670,517.241379310345,4,2,0,100,1,0
115740,-100,4,2,0,100,0,1
115805,-100,4,2,0,100,0,0
132809,-100,4,2,0,100,0,1

[Colours]
Combo1 : 255,255,128
Combo2 : 0,248,37
Combo3 : 51,93,255
Combo4 : 248,40,0
Combo5 : 255,173,0

[HitObjects]
472,192,16945,1,0
360,192,17463,1,8
304,192,17721,1,0
248,192,17980,1,0
136,192,18497,1,8
24,192,19014,5,0
24,192,19273,1,0
24,192,19532,2,0,L|24:40,1,140,8|4
136,56,20566,1,8
216,136,21083,5,0
296,56,21601,1,8
328,104,21859,1,0
368,136,22118,1,0
408,104,22376,1,0
440,56,22635,1,8
368,136,23152,5,0
368,136,23670,2,4,L|368:296,1,140
256,272,24704,5,8
200,272,24963,1,0
144,272,25221,1,0
144,160,25738,1,8
144,48,26256,5,0
200,48,26514,1,0
256,48,26773,1,8
368,48,27290,2,2,L|464:48,3,70
432,216,28842,5,8
400,264,29101,1,0
360,304,29359,1,0
256,304,29876,2,0,L|104:304,1,140,8|0
40,224,30911,5,8
96,128,31428,1,0
136,88,31687,1,0
176,48,31945,2,4,L|320:48,1,140
424,48,32980,5,8
352,128,33497,1,0
272,200,34014,1,8
232,232,34273,1,0
192,264,34532,1,0
192,264,35049,5,8
192,264,35566,2,2,L|192:32,2,210
312,336,37635,5,0
312,336,38152,1,8
368,336,38411,1,0
424,336,38670,1,0
464,232,39187,1,8
464,120,39704,2,4,L|344:32,2,140,4|8|4
464,232,41256,5,8
408,232,41514,1,0
352,232,41773,2,0,L|200:232,1,140,0|8
160,232,42549,5,0
104,232,42807,1,0
104,120,43325,1,8
104,232,43842,5,0
104,344,44359,1,8
216,344,44876,1,0
216,232,45394,2,0,L|216:80,1,140,8|0
320,88,46428,5,8
376,88,46687,1,0
432,88,46945,1,0
256,208,47463,12,4,50049
48,56,57807,6,2,L|208:56,1,140,8|0
296,56,58842,2,0,L|448:56,1,140,8|0
432,168,59876,5,8
432,224,60135,1,0
432,280,60394,1,0
336,224,60911,1,8
224,224,61428,1,0
112,224,61945,1,8
64,256,62204,5,0
16,280,62463,2,0,L|16:120,3,140,0|8|0|8
16,24,64532,5,4
128,24,65049,1,4
184,24,65307,1,0
240,24,65566,1,4
48,328,74359,5,0
136,256,74876,1,8
224,192,75394,1,0
272,160,75652,1,0
312,128,75911,1,8
400,56,76428,1,0
400,56,76945,6,0,L|400:352,1,280,8|4
304,272,78497,1,0
216,200,79014,5,8
128,120,79532,1,0
88,88,79790,1,0
48,48,80049,1,8
160,48,80566,5,0
272,48,81083,1,8
272,48,81342,1,4
272,48,81601,2,4,L|416:48,1,140
456,144,82635,5,0
376,224,83152,1,8
296,144,83669,1,0
256,184,83928,1,0
216,224,84187,1,8
136,144,84704,5,0
64,232,85221,1,8
128,328,85738,2,2,L|424:328,1,280,2|10
456,224,87290,5,0
384,136,87807,1,8
304,56,88325,1,0
192,56,88842,1,8
120,144,89359,5,0
120,200,89618,1,0
120,256,89876,2,0,L|120:336,2,70,8|0|0
232,256,90911,6,0,L|232:352,2,70,8|0|0
232,144,91945,1,8
232,144,92204,2,2,L|392:144,1,140
480,144,93497,5,0
480,200,93756,1,0
480,256,94014,1,8
480,144,94532,1,0
472,32,95049,6,0,L|304:32,1,140,8|0
216,32,96083,1,0
216,144,96601,1,8
256,208,97118,12,4,99704
256,192,101256,5,0
344,120,101773,1,0
432,48,102290,2,2,L|432:336,1,280
360,280,103842,5,0
248,280,104359,1,8
136,280,104876,1,0
136,280,105394,5,8
248,280,105911,1,0
304,280,106169,1,0
360,280,106428,2,4,L|360:208,2,70
360,160,107463,5,0
288,64,107980,1,8
216,160,108497,1,0
152,64,109014,1,8
88,160,109532,1,0
72,272,110049,2,2,L|304:272,2,210
64,160,112118,5,0
176,160,112635,1,8
232,160,112894,1,0
288,160,113152,2,0,L|288:16,2,140,0|8|0
288,272,114704,5,12
288,272,114963,1,0
288,272,115221,1,4
288,272,115738,1,4
256,192,132807,5,0
368,192,133325,1,8
312,192,133583,1,0
144,192,134359,5,8
144,72,134876,1,0
144,192,135394,2,0,L|144:344,2,140,8|0|8
144,80,136945,5,0
192,112,137204,1,0
240,144,137463,1,8
320,72,137980,1,0
392,152,138497,5,8
392,208,138756,1,0
392,264,139014,1,0
280,264,139532,2,4,L|120:264,1,140
32,264,140566,5,0
32,152,141083,1,8
32,40,141601,1,0
32,40,142118,2,0,L|312:40,1,280,8|8
432,40,143669,5,0
432,40,143928,1,2
432,40,144187,2,0,L|432:200,1,140,8|0
432,288,145221,5,8
344,216,145738,1,0
304,256,145997,1,0
264,296,146256,1,8
264,296,146773,1,0
152,312,147290,5,8
120,272,147549,1,0
152,224,147807,2,0,L|152:72,1,140,4|4
280,80,148842,5,8
392,80,149359,1,0
472,160,149876,1,8
408,256,150394,1,0
408,256,150911,2,0,L|104:256,2,280,8|8|8
408,152,153497,5,0
320,224,154014,1,8
232,296,154532,1,0
232,296,155049,5,8
320,224,155566,1,0
408,152,156083,1,4
408,152,156342,1,4
408,152,156601,1,4
408,40,157118,6,0,L|120:40,2,280,8|8|8
408,152,159704,1,0
408,264,160221,1,8
320,336,160738,1,0
208,336,161256,1,8
168,304,161514,1,0
120,272,161773,5,0
120,160,162290,1,8
120,160,162549,1,0
120,160,162807,2,2,L|264:160,1,140
376,160,163842,5,4
376,160,164359,1,4
376,160,164618,1,4
376,160,164876,1,4
