osu file format v4

[General]
AudioFilename: Dred & I - Kookie Dough.mp3
AudioLeadIn: 0
AudioHash: 81414b152f3c70c174cc61cc867df6d9
PreviewTime: -1
SampleSet: Normal

[Metadata]
Title:Dred & I
Artist:Kookie Dough
Creator:EiJi
Version:Hard

[Difficulty]
HPDrainRate:5
CircleSize:5
OverallDifficulty:5
SliderMultiplier: 1.4
SliderTickRate: 1

[Events]
0,0,"cookie.jpg"
2,68978,83228
3,0,163,162,255

[TimingPoints]
3044,521.693765759499,4,1,0

[HitObjects]
80,80,3044,1,2
80,192,3565,1,0
80,304,4087,1,2
192,304,4609,5,0
192,248,4869,1,0
192,192,5130,1,2
192,136,5391,1,0
192,80,5652,1,2
192,24,5913,1,0
192,24,6174,1,2
304,24,6695,5,0
416,24,7217,1,2
416,136,7739,1,0
416,248,8260,1,2
416,360,8782,5,0
376,320,9043,1,0
336,280,9304,1,2
280,280,9565,1,0
248,328,9826,1,2
192,328,10086,1,0
160,280,10347,1,2
160,168,10869,5,0
160,56,11391,1,2
272,56,11912,1,0
384,56,12434,1,2
384,168,12956,5,0
384,224,13217,1,0
328,224,13477,1,2
280,256,13738,1,0
280,312,13999,1,2
328,336,14260,1,0
384,336,14521,1,2
432,232,15042,5,0
432,120,15564,1,2
320,120,16086,1,0
208,112,16608,1,2
200,224,17129,5,0
240,256,17390,1,0
200,296,17651,1,2
160,256,17912,1,0
128,208,18173,1,2
176,176,18433,1,0
232,176,18694,1,2
344,184,19216,5,0
344,72,19738,1,0
256,72,20129,1,2
136,64,20520,1,2
136,200,21172,5,2
136,280,21564,1,2
192,280,21824,5,4
272,280,22216,1,2
352,280,22607,1,2
352,224,22868,5,4
352,136,23259,1,2
264,136,23650,1,2
208,136,23911,5,4
120,136,24303,1,6
120,216,24694,1,6
120,352,25346,5,2
200,352,25737,1,2
256,352,25998,5,4
256,264,26389,1,2
336,264,26781,1,2
392,264,27041,5,4
392,176,27433,1,2
392,88,27824,1,2
336,88,28085,5,4
248,88,28476,1,6
160,88,28867,5,6
160,144,29128,1,6
160,224,29519,1,2
160,304,29911,5,6
216,304,30172,1,6
272,304,30432,5,2
272,304,30563,1,4
328,304,30824,5,2
328,304,30954,1,4
384,304,31215,5,2
384,216,31606,1,2
384,128,31998,1,2
328,128,32258,1,4
240,128,32650,1,2
152,128,33041,1,2
152,184,33302,1,4
152,264,33693,1,2
232,264,34084,1,2
288,264,34345,5,4
328,264,34519,1,4
328,224,34693,1,4
288,224,34867,1,4
288,184,35041,1,4
328,184,35215,1,4
328,144,35389,1,4
256,192,35475,12,0,36432
104,96,36954,1,2
104,208,37475,1,2
104,320,37997,5,2
160,320,38258,1,2
160,264,38519,1,4
216,264,38780,1,2
216,264,38910,1,2
272,264,39171,1,2
272,264,39301,1,2
328,264,39562,1,4
384,264,39823,1,2
384,264,39953,1,2
384,208,40214,1,2
384,208,40345,1,2
384,152,40605,1,4
272,152,41127,5,2
272,40,41649,1,2
160,40,42171,5,2
160,96,42431,1,2
160,40,42692,1,4
72,40,43083,1,2
72,120,43475,1,0
72,176,43736,1,6
72,256,44127,1,0
152,256,44518,1,0
208,256,44779,1,6
320,256,45301,5,4
432,256,45822,1,4
320,256,46344,5,2
320,200,46605,1,2
320,256,46866,1,4
264,256,47127,1,2
208,256,47387,1,2
208,200,47648,1,2
208,256,47909,1,4
96,256,48431,5,6
96,144,48953,1,6
208,144,49474,1,4
320,144,49996,1,4
432,144,50518,5,0
432,200,50778,1,0
432,256,51039,1,6
432,336,51431,1,0
344,336,51822,1,0
288,336,52083,1,6
232,336,52344,5,0
232,336,52474,1,0
232,336,52604,1,0
176,336,52865,5,0
120,336,53126,1,6
120,224,53648,1,4
232,224,54169,1,4
232,112,54691,5,0
288,112,54952,1,0
232,112,55213,1,4
232,24,55604,1,0
312,24,55995,1,0
368,24,56256,1,4
368,104,56648,1,0
368,184,57039,1,0
368,240,57300,1,4
256,240,57821,5,6
368,240,58343,1,6
368,352,58865,5,0
328,312,59126,1,0
368,352,59386,1,6
328,312,59647,1,0
288,272,59908,1,0
328,312,60169,1,0
368,272,60430,1,6
368,160,60952,5,4
256,160,61473,1,4
144,160,61995,1,6
144,272,62517,1,6
256,272,63038,5,0
312,272,63299,1,0
368,272,63560,1,6
424,272,63821,1,0
424,272,63951,1,0
424,216,64212,1,0
424,216,64343,1,0
424,160,64603,1,6
312,160,65125,5,4
200,160,65647,1,4
88,160,66168,1,6
88,272,66690,1,6
200,272,67212,5,0
256,272,67473,1,0
312,264,67734,5,4
352,264,67908,1,4
312,264,68082,1,4
312,224,68256,1,4
352,224,68430,1,4
312,224,68604,1,4
312,184,68778,1,4
168,168,84428,5,4
168,168,84602,1,4
208,168,84776,1,4
248,168,84950,1,4
248,168,85124,1,4
288,168,85298,1,4
328,168,85472,1,4
160,320,86515,5,4
272,320,87036,1,4
384,320,87558,1,4
384,208,88080,5,2
328,208,88340,1,2
328,152,88601,1,2
384,152,88862,1,0
384,152,88993,5,6
384,96,89253,1,0
384,96,89384,1,6
328,96,89645,1,0
272,96,89906,1,0
272,96,90036,5,6
272,152,90297,1,0
272,152,90427,1,6
216,152,90688,1,0
216,96,90949,1,0
216,96,91079,5,6
160,96,91340,1,0
160,96,91471,1,6
160,152,91731,1,0
104,152,91992,1,0
104,152,92123,5,6
104,96,92384,1,0
104,96,92514,1,6
160,96,92775,1,0
216,96,93036,1,0
216,96,93166,5,6
296,96,93557,1,2
352,96,93818,1,2
352,176,94209,1,2
352,256,94601,1,2
296,256,94862,1,4
208,256,95253,1,4
120,256,95644,1,4
120,200,95905,1,6
200,200,96296,5,2
200,112,96688,1,2
256,112,96948,1,6
312,112,97209,1,0
312,112,97340,1,0
392,112,97731,5,4
392,168,97992,1,4
392,248,98383,1,4
392,328,98774,5,4
336,328,99035,1,4
248,328,99426,1,4
160,328,99818,5,4
104,328,100079,1,4
104,240,100470,1,2
104,152,100861,5,0
160,152,101122,1,0
216,152,101383,1,0
216,152,101513,1,6
296,152,101904,1,0
352,152,102165,1,0
136,96,103209,5,4
136,208,103730,1,4
136,96,104252,1,4
136,208,104774,5,0
192,208,105035,1,0
136,208,105295,1,4
80,208,105556,1,0
80,208,105687,1,0
80,264,105948,1,0
80,264,106078,1,0
136,264,106339,1,4
248,264,106861,5,6
248,152,107382,1,6
360,152,107904,1,6
360,264,108426,1,6
248,264,108947,5,0
192,264,109208,1,0
136,264,109469,1,4
136,208,109730,1,0
192,208,109991,1,0
192,264,110252,1,0
136,264,110512,1,4
24,264,111034,5,2
112,192,111556,1,4
216,144,112077,1,4
312,88,112599,1,6
312,200,113121,5,2
312,256,113382,1,2
312,312,113643,1,4
224,312,114034,1,2
136,312,114425,1,2
80,312,114686,1,4
80,224,115077,1,2
80,136,115469,1,2
136,136,115729,1,4
248,136,116251,5,6
360,136,116773,1,6
360,248,117294,5,2
304,248,117555,1,2
248,248,117816,1,2
160,248,118207,1,4
72,248,118599,1,4
72,192,118860,5,4
72,192,118990,1,4
72,192,119120,1,4
72,192,119251,1,4
72,192,119381,1,4
72,136,119642,5,4
128,136,119903,1,4
240,136,120425,1,4
352,136,120946,1,4
352,248,121468,5,2
296,248,121729,1,2
240,248,121990,1,4
184,248,122251,1,2
240,248,122511,1,2
240,304,122772,1,2
184,304,123033,1,4
184,192,123555,5,4
184,80,124076,1,4
296,80,124598,1,4
296,192,125120,1,6
296,304,125642,5,0
240,304,125902,1,0
184,304,126163,1,2
96,304,126554,1,2
96,216,126946,1,2
96,160,127207,1,2
96,72,127598,1,2
176,72,127989,1,2
232,72,128250,1,2
344,72,128772,5,2
344,184,129293,1,2
344,296,129815,5,2
288,296,130076,1,0
232,296,130337,1,4
176,296,130598,1,0
176,296,130728,1,6
88,296,131119,1,2
88,240,131380,1,2
88,184,131641,1,0
88,184,131771,1,6
88,96,132163,1,4
144,96,132424,1,4
256,104,132945,5,6
368,104,133467,1,6
368,216,133989,5,2
368,160,134249,1,2
368,104,134510,1,0
280,104,134902,5,4
192,104,135293,1,4
192,160,135554,5,4
192,184,135684,1,4
192,208,135815,1,4
192,232,135945,1,4
192,256,136075,1,4
192,312,136336,5,4
192,368,136597,1,4
