osu file format v14

[General]
AudioFilename: ToumeiElegy.mp3
AudioLeadIn: 0
PreviewTime: 53148
Countdown: 0
SampleSet: Normal
StackLeniency: 1
Mode: 2
LetterboxInBreaks: 1
WidescreenStoryboard: 0

[Editor]
Bookmarks: 9853,27307,53489,70944,79671,81853,90580,99307,108035,125489,142944,160398,162580,171307,178944,180035,198580,199671
DistanceSpacing: 1.7
BeatDivisor: 4
GridSize: 8
TimelineZoom: 2.6

[Metadata]
Title:Toumei Elegy
TitleUnicode:透明エレジー
Artist:Konuko
ArtistUnicode:こぬこ
Creator:Kyptoric
Version:Forever Since
Source:
Tags:櫻花アリス ナブナ n-buna ouka alice megpoid gumi utau vocaloid rock japanese
BeatmapID:805840
BeatmapSetID:367425

[Difficulty]
HPDrainRate:7
CircleSize:4
OverallDifficulty:9.5
ApproachRate:9.5
SliderMultiplier:1.6
SliderTickRate:2

[Events]
//Background and Video events
0,0,"Toumei Elegy BG.jpg",0,0
//Break Periods
2,160462,162055
//Storyboard Layer 0 (Background)
//Storyboard Layer 1 (Fail)
//Storyboard Layer 2 (Pass)
//Storyboard Layer 3 (Foreground)
//Storyboard Layer 4 (Overlay)
//Storyboard Sound Samples

[TimingPoints]
1126,272.727272727273,4,1,0,50,1,0
1126,-166.666666666667,4,1,0,50,0,0
9853,-100,4,1,0,50,0,0
27307,-166.666666666667,4,1,0,50,0,0
53489,-100,4,1,0,50,0,1
70944,-166.666666666667,4,1,0,50,0,0
107489,-100,4,1,0,50,0,0
108035,-100,4,1,0,50,0,1
125353,-100,4,1,0,50,0,0
125489,-100,4,1,0,50,0,1
142944,-166.666666666667,4,1,0,50,0,0
180035,-100,4,1,0,50,0,1
180035,-100,4,1,0,50,0,1
187671,-100,4,1,0,50,0,0
187944,-100,4,1,0,50,0,1
198580,-100,4,1,0,50,0,0

[HitObjects]
224,192,1126,5,0,0:0:0:0:
96,192,1535,1,0,0:0:0:0:
32,192,1671,1,0,0:0:0:0:
416,64,1944,5,0,0:0:0:0:
224,64,2216,2,0,P|288:64|368:160,1,191.999994140625
184,192,3035,6,0,L|128:192,2,47.9999985351563
328,192,3580,2,0,L|384:192,2,47.9999985351563
168,160,4126,5,0,0:0:0:0:
344,160,4398,1,0,0:0:0:0:
152,128,4671,1,0,0:0:0:0:
360,128,4944,1,0,0:0:0:0:
8,96,5216,1,0,0:0:0:0:
144,32,5489,6,0,L|40:32,1,95.9999970703126
176,64,5898,2,0,L|272:64,1,95.9999970703126
368,64,6307,2,0,L|312:64,2,47.9999985351563
448,64,6853,5,0,0:0:0:0:
416,64,7126,1,0,0:0:0:0:
512,64,7398,1,0,0:0:0:0:
96,160,7671,6,0,P|136:184|80:296,1,191.999994140625
328,160,8489,1,0,0:0:0:0:
256,160,8762,5,0,0:0:0:0:
256,96,9853,6,0,L|360:96,2,80
32,184,10262,1,0,0:0:0:0:
176,184,10398,2,0,L|88:184,2,80
384,264,10807,6,0,L|464:264,1,80
208,184,11080,2,0,L|312:184,1,80
64,32,11353,5,0,0:0:0:0:
360,32,11489,2,0,L|440:32,1,80
224,64,11762,2,0,L|144:64,1,80
440,96,12035,6,0,P|480:136|416:224,1,160
224,128,12444,1,0,0:0:0:0:
128,128,12580,2,0,P|88:168|152:256,1,160
264,256,12989,6,0,L|352:256,2,80
56,192,13398,6,0,L|0:135,1,80
256,192,13671,2,0,L|199:135,1,80
432,40,13944,6,0,L|488:40,1,40
312,40,14080,2,0,L|272:40,1,40
112,40,14216,2,0,P|64:48|64:168,1,160
360,240,14626,5,0,0:0:0:0:
152,240,14762,1,0,0:0:0:0:
360,208,14898,1,0,0:0:0:0:
152,208,15035,1,0,0:0:0:0:
408,160,15171,6,0,L|520:160,2,80
144,96,15580,5,0,0:0:0:0:
352,96,15716,2,0,L|256:96,1,80
480,96,15989,2,0,L|520:0,1,80
144,304,16262,5,0,0:0:0:0:
240,304,16398,2,0,P|288:272|224:208,1,160
160,200,16807,5,0,0:0:0:0:
408,192,16944,2,0,P|456:160|392:96,1,160
208,40,17353,5,0,0:0:0:0:
304,40,17489,1,0,0:0:0:0:
40,96,17626,5,0,0:0:0:0:
240,96,17762,1,0,0:0:0:0:
144,96,17898,1,0,0:0:0:0:
472,160,18035,5,0,0:0:0:0:
272,160,18171,1,0,0:0:0:0:
368,160,18307,1,0,0:0:0:0:
64,224,18444,1,0,0:0:0:0:
176,224,18580,6,0,L|80:224,2,80
408,32,18989,1,0,0:0:0:0:
408,96,19262,6,0,L|496:168,1,80
232,96,19535,2,0,L|312:96,1,80
112,96,19807,2,0,L|48:168,2,80
240,192,20216,5,0,0:0:0:0:
16,192,20353,1,0,0:0:0:0:
240,224,20489,1,0,0:0:0:0:
16,224,20626,1,0,0:0:0:0:
288,352,20762,6,0,L|376:352,1,80
480,352,21035,2,0,L|432:264,1,80
288,88,21307,6,0,L|200:88,1,80
0,32,21580,2,0,L|88:32,1,80
432,88,21853,6,0,L|384:0,1,80
192,192,22126,6,0,L|88:192,1,80
320,192,22398,2,0,L|424:192,1,80
192,248,22671,6,0,L|136:248,1,40
16,168,22807,2,0,L|-8:128,1,40
192,32,22944,6,0,P|240:64|184:128,1,160
432,128,23353,2,0,P|480:160|424:224,1,160
328,224,23762,1,0,0:0:0:0:
128,96,23898,6,0,L|48:96,1,80
376,32,24171,5,0,0:0:0:0:
280,32,24307,1,0,0:0:0:0:
376,64,24444,1,0,0:0:0:0:
128,160,24580,6,0,L|232:160,1,80
480,224,24853,2,0,L|400:224,1,80
72,224,25126,6,0,P|96:152|192:128,1,160
480,168,25535,1,0,0:0:0:0:
384,168,25671,2,0,P|432:128|368:64,1,160
384,64,26216,6,0,L|320:152,1,80
128,64,26489,2,0,L|192:152,1,80
432,64,26762,6,0,L|512:64,1,80
80,64,27035,2,0,L|0:64,1,80
256,192,27307,5,0,0:0:0:0:
256,224,28398,5,0,0:0:0:0:
112,192,29489,6,0,L|16:56,2,143.999995605469
448,192,30580,1,0,0:0:0:0:
448,128,31671,6,0,B|408:128|408:128|464:128|464:128|488:128|488:128|448:128,2,143.999995605469
256,192,32762,1,0,0:0:0:0:
256,224,33853,6,0,L|112:224,2,143.999995605469
424,224,34944,2,0,L|496:144,1,95.9999970703126
416,152,35353,2,0,L|368:104,3,47.9999985351563
256,120,36035,6,0,L|144:120,1,95.9999970703126
80,120,36444,2,0,L|152:40,1,95.9999970703126
224,48,36853,6,0,L|264:96,2,47.9999985351563
336,40,37262,2,0,P|368:56|344:104,1,95.9999970703126
352,160,37671,5,0,0:0:0:0:
488,160,37944,1,0,0:0:0:0:
144,264,38216,6,0,L|64:176,1,95.9999970703126
192,192,38626,2,0,L|272:104,1,95.9999970703126
480,280,39035,5,0,0:0:0:0:
480,216,39307,2,0,L|376:216,1,95.9999970703126
256,280,39716,2,0,L|360:280,1,95.9999970703126
72,128,40126,5,0,0:0:0:0:
72,64,40398,2,0,L|136:144,1,95.9999970703126
232,136,40807,2,0,L|328:136,1,95.9999970703126
408,136,41216,5,0,0:0:0:0:
48,256,41489,1,0,0:0:0:0:
192,256,42307,6,0,L|264:176,2,95.9999970703126
112,256,43126,1,0,0:0:0:0:
480,192,43398,5,0,0:0:0:0:
432,192,43535,1,0,0:0:0:0:
384,192,43671,1,0,0:0:0:0:
176,128,43944,5,0,0:0:0:0:
224,128,44081,1,0,0:0:0:0:
272,128,44217,1,0,0:0:0:0:
32,128,44489,1,0,0:0:0:0:
256,192,44762,6,0,P|304:192|248:264,1,191.999994140625
424,264,45580,6,0,L|464:224,2,47.9999985351563
280,144,46126,1,0,0:0:0:0:
480,160,46398,6,0,L|408:96,1,95.9999970703126
296,96,46944,2,0,L|352:16,1,95.9999970703126
216,160,47489,2,0,L|136:104,1,95.9999970703126
40,104,48035,1,0,0:0:0:0:
40,168,48580,5,0,0:0:0:0:
72,168,48853,1,0,0:0:0:0:
104,168,49126,1,0,0:0:0:0:
328,168,49262,6,0,P|392:160|352:64,1,191.999994140625
264,64,49944,2,0,L|216:64,2,47.9999985351563
472,64,50489,5,0,0:0:0:0:
104,240,50762,1,0,0:0:0:0:
288,240,51035,6,0,L|400:240,1,95.9999970703126
224,240,51580,2,0,L|112:240,1,95.9999970703126
424,192,52126,5,0,0:0:0:0:
88,192,52398,1,0,0:0:0:0:
456,160,52671,5,0,0:0:0:0:
56,160,52944,1,0,0:0:0:0:
256,176,53216,6,0,L|256:64,1,95.9999970703126
32,224,53626,5,0,0:0:0:0:
288,224,53762,2,0,L|200:224,2,80
176,224,54171,1,0,0:0:0:0:
480,80,54307,5,0,0:0:0:0:
368,80,54444,2,0,L|456:80,1,80
152,80,54716,1,0,0:0:0:0:
248,80,54853,2,0,L|328:80,2,80
16,160,55262,5,0,0:0:0:0:
304,224,55398,1,0,0:0:0:0:
208,224,55535,1,0,0:0:0:0:
512,320,55671,6,0,P|464:296|416:176,1,160
304,208,56080,2,0,L|392:208,1,80
160,192,56353,5,0,0:0:0:0:
360,120,56489,1,0,0:0:0:0:
112,152,56626,2,0,L|32:152,1,80
360,72,56898,1,0,0:0:0:0:
456,128,57035,6,0,P|520:168|480:216,1,120
160,304,57307,2,0,L|112:232,1,80
424,56,57580,6,0,L|480:56,1,40
88,56,57716,2,0,L|32:56,1,40
304,120,57853,6,0,L|480:120,1,160
32,192,58262,5,0,0:0:0:0:
288,224,58398,2,0,L|120:224,1,160
480,224,58807,5,0,0:0:0:0:
368,224,58944,2,0,L|480:224,1,80
200,160,59216,2,0,L|304:160,1,80
32,96,59489,2,0,L|136:96,1,80
336,96,59762,6,0,L|232:96,1,80
456,128,60035,2,0,L|520:56,1,80
48,256,60307,5,0,0:0:0:0:
144,256,60444,1,0,0:0:0:0:
48,288,60580,1,0,0:0:0:0:
480,232,60716,5,0,0:0:0:0:
384,232,60853,1,0,0:0:0:0:
480,200,60989,1,0,0:0:0:0:
256,32,61126,2,0,L|256:184,1,120
80,152,61398,6,0,L|-16:152,1,80
432,152,61671,2,0,L|528:152,2,80
136,152,62080,5,0,0:0:0:0:
280,152,62216,2,0,L|176:152,1,80
480,224,62489,5,0,0:0:0:0:
256,224,62626,2,0,L|344:224,2,80
480,288,63035,5,0,0:0:0:0:
256,288,63171,1,0,0:0:0:0:
480,168,63307,6,0,L|528:88,1,80
256,160,63580,2,0,L|256:72,1,80
32,168,63853,2,0,L|-16:88,1,80
304,32,64126,5,0,0:0:0:0:
208,32,64262,1,0,0:0:0:0:
408,32,64398,1,0,0:0:0:0:
104,32,64535,1,0,0:0:0:0:
304,96,64671,2,0,L|392:96,2,80
208,96,65080,1,0,0:0:0:0:
424,184,65216,6,0,L|496:240,1,80
160,224,65489,5,0,0:0:0:0:
384,224,65626,1,0,0:0:0:0:
64,160,65762,5,0,0:0:0:0:
160,160,65898,1,0,0:0:0:0:
64,224,66035,5,0,0:0:0:0:
384,288,66171,1,0,0:0:0:0:
136,288,66307,5,0,0:0:0:0:
232,288,66444,1,0,0:0:0:0:
136,32,66580,6,0,P|88:48|160:96,1,160
400,112,66989,6,0,L|512:112,1,80
96,184,67262,2,0,L|-16:184,1,80
240,184,67535,5,0,0:0:0:0:
144,184,67671,1,0,0:0:0:0:
368,184,67807,1,0,0:0:0:0:
144,152,67944,1,0,0:0:0:0:
368,152,68080,1,0,0:0:0:0:
144,120,68216,6,0,L|8:16,1,160
376,32,68626,2,0,L|456:32,2,80
168,32,69035,2,0,L|80:32,2,80
496,224,69444,5,0,0:0:0:0:
288,224,69580,1,0,0:0:0:0:
384,224,69716,1,0,0:0:0:0:
16,224,69853,5,0,0:0:0:0:
224,224,69989,1,0,0:0:0:0:
128,224,70126,1,0,0:0:0:0:
224,160,70262,5,0,0:0:0:0:
128,160,70398,1,0,0:0:0:0:
336,128,70535,1,0,0:0:0:0:
128,128,70671,2,0,L|40:128,1,80
256,160,70944,5,0,0:0:0:0:
352,104,71353,2,0,L|400:104,1,47.9999985351563
192,104,71762,1,0,0:0:0:0:
432,104,72035,6,0,L|512:232,1,143.999995605469
304,352,72716,5,0,0:0:0:0:
224,352,72853,2,0,L|184:304,2,47.9999985351563
32,256,73398,2,0,L|72:208,2,47.9999985351563
224,160,73944,5,0,0:0:0:0:
32,160,74216,1,0,0:0:0:0:
224,128,74489,1,0,0:0:0:0:
32,128,74762,1,0,0:0:0:0:
256,64,75035,1,0,0:0:0:0:
416,120,75307,6,0,L|512:232,2,143.999995605469
320,120,76262,6,0,L|288:176,2,47.9999985351563
168,128,76671,2,0,L|222:219,1,95.9999970703126
32,128,77216,1,0,0:0:0:0:
424,32,77489,6,0,P|472:72|416:112,1,143.999995605469
384,112,78035,1,0,0:0:0:0:
255,167,78307,6,0,L|191:167,1,47.9999985351563
112,112,78580,2,0,L|136:56,1,47.9999985351563
216,112,78853,2,0,L|240:56,1,47.9999985351563
320,112,79126,2,0,L|344:56,2,47.9999985351563
80,224,79671,6,0,L|184:224,1,95.9999970703126
336,224,80216,6,0,L|272:224,2,47.9999985351563
440,224,80626,2,0,L|504:224,2,47.9999985351563
144,160,81035,6,0,L|32:160,2,95.9999970703126
256,160,81853,5,0,0:0:0:0:
256,96,82944,5,0,0:0:0:0:
256,224,84035,6,0,L|112:224,2,143.999995605469
184,160,85126,1,0,0:0:0:0:
256,96,86216,6,0,L|400:96,2,143.999995605469
328,160,87307,1,0,0:0:0:0:
144,32,88126,5,0,0:0:0:0:
48,32,88398,2,0,L|216:144,1,191.999994140625
32,144,89216,1,0,0:0:0:0:
432,160,89489,6,0,L|448:200,7,23.9999992675781
384,160,90035,6,0,L|400:200,4,23.9999992675781
336,160,90376,5,0,0:0:0:0:
304,160,90444,1,0,0:0:0:0:
272,160,90512,1,0,0:0:0:0:
240,160,90580,6,0,P|200:144|248:80,1,143.999995605469
336,88,91126,2,0,P|360:40|328:24,1,95.9999970703126
416,24,91535,1,0,0:0:0:0:
144,32,91671,6,0,L|32:32,1,95.9999970703126
176,96,92080,2,0,L|272:96,1,95.9999970703126
336,96,92489,2,0,L|368:56,1,47.9999985351563
336,128,92762,6,0,L|240:128,1,95.9999970703126
144,192,93171,2,0,L|248:192,1,95.9999970703126
360,192,93580,2,0,L|328:248,1,47.9999985351563
472,208,93853,6,0,P|504:168|504:104,1,95.9999970703126
368,128,94262,2,0,P|336:88|336:24,1,95.9999970703126
208,48,94671,2,0,L|240:88,1,47.9999985351563
112,48,94944,6,0,L|8:48,1,95.9999970703126
152,112,95353,2,0,L|264:112,1,95.9999970703126
360,112,95762,2,0,L|312:64,2,47.9999985351563
464,120,96444,6,0,L|408:200,1,95.9999970703126
344,200,96853,5,0,0:0:0:0:
184,200,97126,1,0,0:0:0:0:
344,168,97398,5,0,0:0:0:0:
120,168,97671,1,0,0:0:0:0:
344,136,97944,5,0,0:0:0:0:
64,136,98216,2,0,P|32:112|120:48,1,191.999994140625
256,32,99035,6,0,L|208:32,1,47.9999985351563
408,32,99307,2,0,P|448:56|472:112,1,95.9999970703126
344,120,99716,5,0,0:0:0:0:
280,168,99853,2,0,L|392:168,1,95.9999970703126
152,176,100262,5,0,0:0:0:0:
112,144,100330,1,0,0:0:0:0:
96,104,100398,2,0,P|104:72|176:48,1,95.9999970703126
256,40,100807,6,0,L|192:128,1,95.9999970703126
296,128,101216,2,0,L|360:40,1,95.9999970703126
416,48,101626,1,0,0:0:0:0:
200,232,101762,6,0,L|104:232,2,95.9999970703126
400,200,102444,5,0,0:0:0:0:
464,200,102580,2,0,P|496:168|464:144,1,95.9999970703126
192,144,102989,5,0,0:0:0:0:
128,144,103125,2,0,P|96:112|128:88,1,95.9999970703126
304,48,103671,6,0,L|304:160,1,95.9999970703126
224,144,104080,1,0,0:0:0:0:
432,128,104216,6,0,L|520:192,1,95.9999970703126
240,272,104626,2,0,L|280:224,2,47.9999985351563
112,208,105035,2,0,L|72:96,1,95.9999970703126
352,32,105580,5,0,0:0:0:0:
160,32,105853,1,0,0:0:0:0:
384,96,106126,1,0,0:0:0:0:
128,96,106398,1,0,0:0:0:0:
352,160,106671,5,0,0:0:0:0:
152,160,106944,1,0,0:0:0:0:
384,224,107216,2,0,L|464:224,1,71.9999978027344
120,224,107489,6,0,L|80:224,1,40
352,288,107626,2,0,L|392:288,1,40
152,288,107762,2,0,L|104:288,1,40
384,352,107898,2,0,L|424:352,1,40
120,352,108035,6,0,L|8:352,2,80
376,80,108444,1,0,0:0:0:0:
264,80,108580,2,0,L|352:80,2,80
496,80,108989,5,0,0:0:0:0:
152,192,109126,2,0,L|56:192,1,80
360,192,109398,2,0,L|456:192,1,80
24,128,109671,2,0,L|104:128,1,80
488,128,109944,6,0,L|408:128,1,80
256,192,110216,2,0,P|208:152|280:88,1,160
184,88,110762,5,0,0:0:0:0:
320,88,110898,1,0,0:0:0:0:
120,152,111035,1,0,0:0:0:0:
384,152,111171,1,0,0:0:0:0:
120,216,111307,6,0,P|80:240|136:272,1,120
256,280,111580,2,0,P|296:304|240:336,1,120
416,272,111853,2,0,L|520:200,1,120
256,192,112126,6,0,L|208:192,1,40
40,192,112262,2,0,L|16:144,1,40
288,32,112398,6,0,L|376:32,1,80
152,64,112671,2,0,L|104:144,1,80
416,96,112944,6,0,L|336:16,2,80
512,96,113353,1,0,0:0:0:0:
88,152,113489,6,0,L|-8:152,1,80
288,192,113762,2,0,L|184:192,1,80
464,280,114035,2,0,L|512:216,1,80
208,32,114307,5,0,0:0:0:0:
304,32,114444,1,0,0:0:0:0:
80,96,114580,2,0,L|-8:96,1,80
320,240,114853,5,0,0:0:0:0:
120,240,114989,1,0,0:0:0:0:
320,272,115126,1,0,0:0:0:0:
120,272,115262,1,0,0:0:0:0:
416,304,115398,5,0,0:0:0:0:
320,320,115535,1,0,0:0:0:0:
416,336,115671,1,0,0:0:0:0:
120,336,115807,2,0,L|32:336,1,80
392,32,116080,6,0,L|480:32,1,80
64,32,116489,1,0,0:0:0:0:
288,192,116762,6,0,L|200:192,2,80
56,200,117171,2,0,L|-8:128,1,80
304,96,117444,2,0,L|224:96,1,80
504,160,117716,6,0,L|392:160,1,80
104,160,117989,2,0,L|208:160,1,80
424,224,118262,2,0,L|312:224,1,80
32,224,118535,5,0,0:0:0:0:
144,224,118671,2,0,L|40:224,2,80
8,288,119080,1,0,0:0:0:0:
320,288,119216,2,0,L|232:288,2,80
192,288,119626,1,0,0:0:0:0:
480,192,119762,5,0,0:0:0:0:
384,192,119898,1,0,0:0:0:0:
480,160,120035,1,0,0:0:0:0:
208,160,120171,5,0,0:0:0:0:
304,160,120307,1,0,0:0:0:0:
32,128,120444,5,0,0:0:0:0:
128,128,120580,1,0,0:0:0:0:
32,96,120716,5,0,0:0:0:0:
256,96,120853,1,0,0:0:0:0:
32,64,120989,1,0,0:0:0:0:
256,64,121126,2,0,B|344:64|344:64|384:88|400:128,1,160
152,232,121535,6,0,L|56:232,1,80
360,232,121807,2,0,L|456:232,2,80
200,160,122216,1,0,0:0:0:0:
312,160,122353,1,0,0:0:0:0:
200,112,122489,1,0,0:0:0:0:
312,112,122626,1,0,0:0:0:0:
64,32,122762,6,0,P|8:56|64:112,1,160
272,32,123171,2,0,L|368:32,1,80
208,32,123444,1,0,0:0:0:0:
432,88,123580,2,0,L|536:88,2,80
160,192,123989,6,0,L|80:112,1,80
352,192,124262,2,0,L|432:112,1,80
80,240,124535,6,0,L|-24:240,1,80
432,240,124807,2,0,L|536:240,2,80
48,168,125216,2,0,L|0:96,1,80
368,32,125489,6,0,L|472:32,1,80
224,32,125762,2,0,L|296:112,1,80
16,32,126035,1,0,0:0:0:0:
96,32,126171,1,0,0:0:0:0:
16,64,126307,1,0,0:0:0:0:
336,144,126444,6,0,P|384:176|320:248,1,160
424,248,126853,1,0,0:0:0:0:
128,248,126989,1,0,0:0:0:0:
256,248,127126,6,0,L|216:248,1,40
0,216,127262,2,0,L|40:216,1,40
256,184,127398,2,0,L|192:184,1,40
0,152,127535,2,0,L|56:152,1,40
352,32,127671,5,0,0:0:0:0:
440,32,127807,1,0,0:0:0:0:
160,32,127944,1,0,0:0:0:0:
384,96,128080,5,0,0:0:0:0:
472,96,128216,1,0,0:0:0:0:
128,96,128353,1,0,0:0:0:0:
416,168,128489,5,0,0:0:0:0:
504,168,128626,1,0,0:0:0:0:
368,168,128762,5,0,0:0:0:0:
280,168,128898,1,0,0:0:0:0:
152,168,129035,5,0,0:0:0:0:
240,168,129171,1,0,0:0:0:0:
40,176,129307,6,0,L|0:96,1,80
240,104,129580,2,0,L|288:16,1,80
504,224,129853,5,0,0:0:0:0:
408,224,129989,1,0,0:0:0:0:
504,256,130126,1,0,0:0:0:0:
224,288,130262,6,0,L|128:288,1,80
384,160,130535,2,0,L|440:96,2,80
144,160,130944,6,0,L|56:160,2,80
256,192,131353,2,0,L|256:32,1,160
336,32,131762,1,0,0:0:0:0:
416,32,131898,1,0,0:0:0:0:
136,32,132035,6,0,L|96:32,1,40
272,32,132171,2,0,L|312:32,1,40
104,96,132307,2,0,L|64:128,1,40
240,96,132443,2,0,L|288:128,1,40
72,152,132580,6,0,L|40:192,1,40
208,152,132716,2,0,L|240:192,1,40
40,216,132852,2,0,L|16:272,1,40
176,216,132988,2,0,L|224:216,1,40
480,216,133126,6,0,L|384:216,2,80
280,352,133535,2,0,L|184:352,2,80
32,288,133944,2,0,L|128:288,1,80
360,160,134216,1,0,0:0:0:0:
256,160,134353,1,0,0:0:0:0:
480,80,134489,5,0,0:0:0:0:
376,80,134626,1,0,0:0:0:0:
480,48,134762,1,0,0:0:0:0:
96,32,134898,5,0,0:0:0:0:
304,32,135035,1,0,0:0:0:0:
200,32,135171,1,0,0:0:0:0:
480,192,135307,1,0,0:0:0:0:
200,224,135444,1,0,0:0:0:0:
256,224,135512,1,0,0:0:0:0:
304,224,135580,1,0,0:0:0:0:
32,160,135716,5,0,0:0:0:0:
136,160,135853,1,0,0:0:0:0:
32,128,135989,1,0,0:0:0:0:
288,160,136126,5,0,0:0:0:0:
184,160,136262,1,0,0:0:0:0:
288,128,136398,1,0,0:0:0:0:
80,96,136535,1,0,0:0:0:0:
384,32,136671,5,0,0:0:0:0:
280,32,136807,1,0,0:0:0:0:
384,96,136944,1,0,0:0:0:0:
280,96,137080,1,0,0:0:0:0:
504,160,137216,5,0,0:0:0:0:
208,224,137353,1,0,0:0:0:0:
312,224,137489,1,0,0:0:0:0:
32,288,137626,5,0,0:0:0:0:
240,288,137762,1,0,0:0:0:0:
32,320,137898,1,0,0:0:0:0:
360,336,138035,5,0,0:0:0:0:
256,336,138171,1,0,0:0:0:0:
480,336,138307,2,0,L|512:216,1,120
256,176,138580,6,0,B|168:176|168:176|128:152|128:112,1,160
368,32,138989,2,0,L|416:96,2,80
480,32,139398,1,0,0:0:0:0:
144,32,139535,5,0,0:0:0:0:
240,32,139671,1,0,0:0:0:0:
144,64,139807,1,0,0:0:0:0:
400,64,139944,2,0,L|304:64,1,80
224,64,140216,5,0,0:0:0:0:
456,200,140353,1,0,0:0:0:0:
336,200,140489,2,0,L|168:200,1,160
136,200,140830,1,0,0:0:0:0:
336,328,140898,6,0,L|376:328,1,40
56,264,141035,2,0,L|16:264,1,40
456,272,141171,2,0,L|496:272,1,40
136,328,141307,2,0,L|88:328,1,40
336,208,141444,2,0,L|392:208,1,40
136,144,141580,6,0,L|64:144,1,40
376,144,141716,2,0,L|448:144,1,40
112,120,141853,2,0,L|56:80,1,40
400,120,141989,2,0,L|456:80,1,40
88,96,142126,6,0,L|48:40,1,40
424,96,142262,2,0,L|464:40,1,40
72,80,142398,2,0,L|64:32,1,40
440,80,142535,2,0,L|448:32,1,40
56,56,142671,6,0,L|96:0,1,40
456,56,142807,2,0,L|416:0,1,40
256,192,142944,5,0,0:0:0:0:
144,192,144035,5,0,0:0:0:0:
336,192,144853,6,0,L|288:192,2,47.9999985351563
464,192,146216,5,0,0:0:0:0:
288,112,146898,6,0,L|232:88,1,47.9999985351563
144,112,147171,6,0,L|200:88,1,47.9999985351563
352,192,148126,2,0,L|400:192,2,47.9999985351563
168,192,149489,5,0,0:0:0:0:
200,192,150580,6,0,L|96:192,1,95.9999970703126
264,192,151126,2,0,L|368:192,1,95.9999970703126
272,112,151671,6,0,L|232:64,2,47.9999985351563
360,112,152080,2,0,L|424:112,1,47.9999985351563
336,256,152489,5,0,0:0:0:0:
256,256,152626,2,0,L|160:256,1,95.9999970703126
32,256,153171,2,0,L|88:152,1,95.9999970703126
208,160,153580,6,0,L|160:160,1,47.9999985351563
272,160,153853,2,0,L|376:160,2,95.9999970703126
440,160,154671,5,0,0:0:0:0:
256,352,154944,1,0,0:0:0:0:
176,288,155626,6,0,L|232:248,1,47.9999985351563
336,288,155898,2,0,L|280:248,1,47.9999985351563
256,200,156171,1,0,0:0:0:0:
256,136,156853,6,0,L|312:136,1,47.9999985351563
176,136,157126,2,0,P|128:160|192:256,1,191.999994140625
256,192,158216,12,0,160262,0:0:0:0:
256,192,162580,5,0,0:0:0:0:
216,192,163126,5,0,0:0:0:0:
176,192,163671,5,0,0:0:0:0:
136,192,164216,5,0,0:0:0:0:
256,128,164762,5,0,0:0:0:0:
368,128,165308,5,0,0:0:0:0:
312,128,165853,5,0,0:0:0:0:
424,128,166398,5,0,0:0:0:0:
256,352,166944,5,0,0:0:0:0:
144,352,167489,5,0,0:0:0:0:
344,352,168035,5,0,0:0:0:0:
256,288,168580,5,0,0:0:0:0:
480,288,169126,5,0,0:0:0:0:
256,32,169671,5,0,0:0:0:0:
248,88,170216,6,0,L|272:152,6,47.9999985351563
256,200,171307,6,0,L|152:200,1,95.9999970703126
64,128,171716,2,0,L|160:128,1,95.9999970703126
256,128,172126,2,0,P|256:80|208:48,1,95.9999970703126
408,32,172671,6,0,L|512:32,2,95.9999970703126
264,32,173353,1,0,0:0:0:0:
312,32,173489,2,0,L|224:112,1,95.9999970703126
288,96,173898,1,0,0:0:0:0:
176,96,174035,6,0,L|104:184,1,95.9999970703126
248,208,174580,2,0,L|296:304,1,95.9999970703126
424,288,175126,1,0,0:0:0:0:
256,160,175398,2,0,L|216:112,2,47.9999985351563
352,208,176489,6,0,L|384:160,1,47.9999985351563
472,160,176761,2,0,L|512:112,1,47.9999985351563
504,88,177171,6,0,L|456:48,2,47.9999985351563
360,88,177580,1,0,0:0:0:0:
296,88,177853,2,0,P|248:112|304:160,1,143.999995605469
104,192,178671,1,0,0:0:0:0:
256,192,178944,1,0,0:0:0:0:
240,32,179216,5,0,0:0:0:0:
288,56,179489,1,0,0:0:0:0:
208,80,179762,1,0,0:0:0:0:
320,104,180035,5,0,0:0:0:0:
56,192,180171,2,0,L|136:192,2,80
296,192,180580,1,0,0:0:0:0:
200,192,180716,2,0,L|280:192,1,80
504,136,180989,6,0,L|416:136,2,80
208,24,181398,2,0,L|120:24,1,80
328,24,181671,2,0,L|408:24,1,80
24,296,181944,5,0,0:0:0:0:
120,296,182080,1,0,0:0:0:0:
216,296,182216,2,0,L|128:296,1,80
400,296,182489,2,0,L|504:296,1,80
256,232,182762,5,0,0:0:0:0:
360,232,182898,1,0,0:0:0:0:
32,192,183035,1,0,0:0:0:0:
136,192,183171,2,0,P|192:160|120:128,1,160
432,120,183580,6,0,L|520:120,1,80
264,96,183853,2,0,L|312:16,1,80
56,32,184126,2,0,L|8:32,1,40
200,32,184262,2,0,L|256:32,1,40
448,32,184398,6,0,L|360:32,2,80
144,96,184807,2,0,L|232:96,2,80
280,96,185216,1,0,0:0:0:0:
16,224,185353,5,0,0:0:0:0:
464,192,185489,2,0,L|512:104,1,80
48,192,185762,2,0,L|0:104,1,80
504,32,186034,2,0,L|465:102,1,80
176,192,186307,6,0,L|272:192,1,80
336,128,186580,2,0,L|240:128,1,80
480,224,186853,5,0,0:0:0:0:
384,224,186989,1,0,0:0:0:0:
480,256,187126,1,0,0:0:0:0:
208,272,187262,1,0,0:0:0:0:
304,272,187398,1,0,0:0:0:0:
64,224,187535,2,0,L|16:136,1,80
32,24,187944,6,0,L|70:94,1,80
288,24,188216,2,0,L|249:94,1,80
480,192,188489,2,0,L|384:192,1,80
192,192,188762,5,0,0:0:0:0:
288,192,188898,2,0,L|192:192,1,80
440,128,189171,5,0,0:0:0:0:
328,128,189307,2,0,L|496:128,1,160
72,128,189716,5,0,0:0:0:0:
184,128,189852,2,0,L|80:128,1,80
344,64,190126,2,0,L|248:64,1,80
464,184,190398,2,0,P|432:208|496:296,1,160
160,296,190807,5,0,0:0:0:0:
256,296,190944,2,0,P|304:256|264:176,1,160
64,136,191353,1,0,0:0:0:0:
160,136,191489,2,0,L|64:136,1,80
360,136,191762,5,0,0:0:0:0:
256,136,191898,1,0,0:0:0:0:
360,104,192035,1,0,0:0:0:0:
64,72,192171,1,0,0:0:0:0:
416,72,192307,2,0,L|248:72,1,160
496,136,192716,5,0,0:0:0:0:
256,200,192853,1,0,0:0:0:0:
496,264,192989,1,0,0:0:0:0:
256,328,193126,6,0,B|176:328|176:328|120:304|128:240,1,160
224,264,193535,1,0,0:0:0:0:
80,200,193671,6,0,L|16:128,1,80
256,144,193944,2,0,L|192:72,1,80
480,192,194216,5,0,0:0:0:0:
384,192,194353,1,0,0:0:0:0:
480,224,194489,1,0,0:0:0:0:
160,200,194626,1,0,0:0:0:0:
256,144,194762,2,0,L|424:144,1,160
496,144,195171,1,0,0:0:0:0:
96,32,195307,6,0,L|8:32,1,80
304,32,195580,1,0,0:0:0:0:
208,32,195716,1,0,0:0:0:0:
416,32,195853,2,0,L|504:32,1,80
136,136,196126,5,0,0:0:0:0:
368,136,196262,1,0,0:0:0:0:
136,168,196398,1,0,0:0:0:0:
368,168,196535,1,0,0:0:0:0:
480,200,196671,6,0,L|384:200,1,80
32,200,196944,2,0,L|128:200,2,80
272,200,197353,5,0,0:0:0:0:
176,200,197489,1,0,0:0:0:0:
480,264,197626,5,0,0:0:0:0:
272,264,197762,1,0,0:0:0:0:
480,320,197898,1,0,0:0:0:0:
208,32,198035,5,0,0:0:0:0:
312,32,198171,1,0,0:0:0:0:
48,96,198307,5,0,0:0:0:0:
464,96,198444,1,0,0:0:0:0:
160,32,198580,2,0,L|160:200,1,160
160,224,199262,1,0,0:0:0:0:
176,248,199330,1,0,0:0:0:0:
192,272,199398,1,0,0:0:0:0:
320,272,199535,1,0,0:0:0:0:
256,272,199671,1,0,0:0:0:0:
