osu file format v14

[General]
AudioFilename: Elegy.mp3
AudioLeadIn: 0
PreviewTime: 53084
Countdown: 0
SampleSet: Soft
StackLeniency: 0.7
Mode: 0
LetterboxInBreaks: 0
WidescreenStoryboard: 0

[Editor]
DistanceSpacing: 1
BeatDivisor: 4
GridSize: 4
TimelineZoom: 1.4

[Metadata]
Title:Toumei Elegy
TitleUnicode:透明エレジー
Artist:Konuko
ArtistUnicode:こぬこ
Creator:Awaken
Version:Riziawa's Couple Extra
Source:
Tags:櫻花アリス ナブナ Regraz Kawaiwkyik Rizia Evil_Twilight skystar amamiya yuko n-buna ouka alice megpoid gumi utau vocaloid
BeatmapID:555965
BeatmapSetID:219380

[Difficulty]
HPDrainRate:5
CircleSize:4
OverallDifficulty:8
ApproachRate:9.2
SliderMultiplier:1.7
SliderTickRate:1

[Events]
//Background and Video events
0,0,"Itai.jpg",0,0
//Break Periods
2,10048,17461
2,71140,78824
2,143139,151097
2,160458,162006
//Storyboard Layer 0 (Background)
//Storyboard Layer 1 (Fail)
//Storyboard Layer 2 (Pass)
//Storyboard Layer 3 (Foreground)
//Storyboard Sound Samples

[TimingPoints]
1122,272.727272727273,4,2,2,70,1,0
1122,-200,4,2,2,70,0,0
8758,-200,4,2,2,60,0,0
9849,-200,4,2,2,80,0,0
18303,-100,4,2,1,80,0,0
27303,-200,4,2,2,60,0,0
36031,-133.333333333333,4,2,2,65,0,0
44758,-200,4,2,2,60,0,0
53212,-200,4,2,1,70,0,0
53485,-100,4,1,2,90,0,1
53553,-100,4,2,1,90,0,1
61122,-200,4,2,1,90,0,1
61394,-100,4,2,1,90,0,1
70940,-133.333333333333,4,2,1,60,0,0
79667,-100,4,2,1,70,0,0
81849,-200,4,2,2,60,0,0
100667,-100,4,2,1,70,0,0
105576,-66.6666666666667,4,2,1,80,0,0
105849,-133.333333333333,4,2,1,70,0,0
106122,-66.6666666666667,4,2,1,70,0,0
106394,-133.333333333333,4,2,1,65,0,0
106940,-200,4,2,1,60,0,0
108031,-100,4,1,2,90,0,1
108099,-100,4,2,1,90,0,1
125485,-100,4,2,1,90,0,0
141849,-83.3333333333333,4,2,1,90,0,0
151667,-133.333333333333,4,2,2,65,0,0
162576,-200,4,2,2,60,0,0
171303,-100,4,2,2,60,0,0
180031,-100,4,1,2,90,0,1
180099,-100,4,2,1,90,0,1
187667,-153.846153846153,4,2,1,90,0,1
187940,-83.3333333333333,4,2,1,90,0,1
188212,-71.4285714285714,4,2,1,90,0,1
188758,-100,4,2,1,90,0,1
199667,-100,4,1,2,90,0,0

[Colours]
Combo1 : 243,7,7
Combo2 : 107,196,98
Combo3 : 77,193,185
Combo4 : 99,216,169
Combo5 : 201,198,186
Combo6 : 126,123,116

[HitObjects]
86,53,1122,6,0,P|77:138|151:182,1,170,8|0,0:0|0:0,0:0:0:0:
139,181,1940,1,8,0:0:0:0:
271,127,2212,2,0,B|348:126|348:126|439:149,1,170,0|0,0:0|0:0,0:0:0:0:
438,148,3031,1,8,0:0:0:0:
512,320,3303,6,0,B|435:321|435:321|344:298,1,170
344,298,4122,1,8,0:0:0:0:
331,208,4394,2,0,P|336:263|239:312,2,170,0|0|8,0:0|0:0|0:0,0:0:0:0:
139,300,6031,2,0,L|147:384,1,85
147,384,6576,5,8,0:0:0:0:
39,306,7122,2,0,B|59:237|59:237|46:133,2,170,0|0|0,0:0|0:0|0:0,0:0:0:0:
256,192,8758,5,8,0:0:0:0:
256,192,9576,1,8,0:0:0:0:
333,85,9712,2,0,L|338:123,2,21.25,8|8|4,0:0|0:0|0:0,0:0:0:0:
149,84,18031,5,0,0:0:0:0:
153,93,18099,1,0,0:0:0:0:
156,103,18167,1,0,0:0:0:0:
158,113,18235,1,0,0:0:0:0:
164,122,18303,2,0,L|157:176,3,42.5,2|0|0|0,0:0|0:0|0:0|0:0,0:0:0:0:
242,163,18576,6,0,L|254:260,1,85,4|0,0:0|0:0,0:0:0:0:
182,314,18849,1,8,0:0:0:0:
325,295,18985,1,2,0:0:0:0:
110,365,19122,2,0,P|95:319|102:276,1,85,2|0,0:0|0:0,0:0:0:0:
403,261,19394,2,0,P|407:309|392:344,1,85,8|0,0:0|0:0,0:0:0:0:
346,188,19667,6,0,P|430:174|492:236,1,170,2|8,0:0|0:0,0:0:0:0:
498,71,20076,1,0,0:0:0:0:
498,71,20144,1,0,0:0:0:0:
498,71,20212,2,0,L|397:84,1,85,2|0,0:0|0:0,0:0:0:0:
305,38,20485,1,8,0:0:0:0:
286,49,20553,1,0,0:0:0:0:
267,60,20622,1,2,0:0:0:0:
249,71,20690,1,0,0:0:0:0:
231,83,20758,6,0,L|136:71,1,85,2|0,0:0|0:0,0:0:0:0:
59,181,21031,2,0,L|150:169,1,85,8|0,0:0|0:0,0:0:0:0:
320,242,21303,2,0,P|269:223|201:307,1,170,2|8,0:0|0:0,0:0:0:0:
369,366,21712,1,2,0:0:0:0:
369,366,21781,1,0,0:0:0:0:
369,366,21849,5,0,0:0:0:0:
273,297,21985,1,0,0:0:0:0:
422,303,22122,2,0,P|448:341|456:386,1,85,8|0,0:0|0:0,0:0:0:0:
506,264,22394,2,0,P|441:262|400:172,1,170,2|8,0:0|0:0,0:0:0:0:
463,86,22803,1,0,0:0:0:0:
321,231,22940,5,2,0:0:0:0:
482,188,23076,1,0,0:0:0:0:
482,188,23144,1,0,0:0:0:0:
482,188,23212,1,10,0:0:0:0:
345,152,23349,2,0,B|291:138|256:181|256:181|176:139,1,170,2|0,0:0|0:0,0:0:0:0:
41,210,23758,2,0,P|30:288|94:352,1,170,8|0,0:0|0:0,0:0:0:0:
219,265,24167,1,0,0:0:0:0:
219,265,24235,1,0,0:0:0:0:
219,265,24303,2,0,L|131:262,1,85,8|0,0:0|0:0,0:0:0:0:
202,357,24576,5,2,0:0:0:0:
302,244,24712,1,0,0:0:0:0:
202,357,24849,1,8,0:0:0:0:
203,133,24985,1,0,0:0:0:0:
394,236,25122,6,0,B|357:267|316:257|316:257|286:298|311:366,1,170,6|8,0:0|0:0,0:0:0:0:
331,164,25531,1,0,0:0:0:0:
331,164,25599,1,0,0:0:0:0:
331,164,25667,2,0,L|323:57,1,85,2|0,0:0|0:0,0:0:0:0:
447,45,25940,2,0,L|442:136,1,85,8|0,0:0|0:0,0:0:0:0:
302,272,26212,6,0,P|241:290|163:215,1,170,4|10,0:0|0:0,0:0:0:0:
386,321,26622,1,0,0:0:0:0:
386,321,26690,1,0,0:0:0:0:
386,321,26758,1,0,0:0:0:0:
157,369,26894,1,0,0:0:0:0:
249,212,27031,1,8,0:0:0:0:
317,384,27167,1,0,0:0:0:0:
260,86,27303,5,4,0:0:0:0:
242,346,28394,1,8,0:0:0:0:
258,184,29485,2,0,P|210:188|147:124,2,127.5,8|8|2,0:0|0:0|0:0,0:0:0:0:
332,140,30576,1,8,0:0:0:0:
79,305,31667,6,0,P|127:309|190:245,2,127.5,8|8|2,0:0|0:0|0:0,0:0:0:0:
5,261,32758,1,8,0:0:0:0:
389,249,33849,2,0,B|399:292|399:292|396:342,1,85,8|0,0:0|0:0,0:0:0:0:
209,128,34394,2,0,B|199:85|199:85|202:35,1,85,8|8,0:0|0:0,0:0:0:0:
364,121,34940,1,8,0:0:0:0:
364,121,35212,6,2,B|320:106|320:106|270:162|201:125,1,170,2|4,1:0|0:0,1:0:0:0:
191,119,36031,6,0,P|147:102|67:126,1,127.500004863739,8|0,0:0|0:0,0:0:0:0:
34,203,36440,2,0,L|48:333,1,127.500004863739,8|0,0:0|0:0,0:0:0:0:
131,353,36849,2,0,P|164:352|202:334,1,63.7500024318696,2|0,0:0|0:0,0:0:0:0:
266,296,37122,6,0,L|401:316,1,127.500004863739,8|0,0:0|0:0,0:0:0:0:
233,212,37531,2,0,L|376:193,1,127.500004863739,8|0,0:0|0:0,0:0:0:0:
474,278,37940,2,0,P|478:313|475:345,1,63.7500024318696,2|0,2:0|0:0,0:0:0:0:
459,185,38212,6,0,B|449:133|449:133|465:45,1,127.500004863739,8|0,0:0|0:0,0:0:0:0:
366,0,38622,2,0,B|376:52|376:52|360:140,1,127.500004863739,8|0,0:0|0:0,0:0:0:0:
289,189,39031,2,0,L|218:182,1,63.7500024318696,2|0,0:0|0:0,0:0:0:0:
140,227,39303,6,0,P|138:261|192:338,1,127.500004863739,8|0,0:0|0:0,0:0:0:0:
226,258,39712,2,0,P|266:277|357:262,1,127.500004863739,8|0,0:0|0:0,0:0:0:0:
391,198,40122,1,2,0:0:0:0:
391,198,40394,6,0,L|386:353,1,127.500004863739,12|0,0:0|0:0,0:0:0:0:
480,202,40803,2,0,P|470:150|401:110,1,127.500004863739,8|0,0:0|0:0,0:0:0:0:
330,126,41212,1,2,0:0:0:0:
330,126,41485,6,0,B|383:117|383:117|446:75,1,127.500004863739,8|0,0:0|0:0,0:0:0:0:
219,25,41894,2,0,B|269:43|269:43|344:38,1,127.500004863739,8|0,0:0|0:0,0:0:0:0:
236,123,42303,2,0,L|167:129,1,63.7500024318696,2|0,0:0|0:0,0:0:0:0:
102,185,42576,6,0,P|92:233|136:297,1,127.500004863739,8|0,0:0|0:0,0:0:0:0:
222,303,42985,1,8,0:0:0:0:
242,213,43122,2,0,L|160:223,1,63.7500024318696,0|0,0:0|0:0,0:0:0:0:
315,273,43394,2,0,L|383:273,1,63.7500024318696,8|0,0:0|0:0,0:0:0:0:
444,218,43667,6,0,P|466:264|439:341,1,127.500004863739,8|8,0:0|0:0,0:0:0:0:
360,361,44076,1,0,0:0:0:0:
360,361,44144,1,0,0:0:0:0:
360,361,44212,2,0,L|295:356,1,63.7500024318696,0|0,0:0|0:0,0:0:0:0:
205,378,44485,2,0,L|134:378,1,63.7500024318696,8|0,2:0|0:0,0:0:0:0:
66,318,44758,6,0,P|41:276|183:218,1,255,12|8,0:0|0:0,0:0:0:0:
229,286,45849,2,0,B|310:288|310:288|396:249,2,170,8|8|8,0:0|0:0|0:0,0:0:0:0:
311,158,47212,1,8,0:0:0:0:
392,344,47485,1,2,0:0:0:0:
311,158,47758,1,2,0:0:0:0:
179,356,48031,1,8,0:0:0:0:
179,356,48576,5,8,0:0:0:0:
368,253,48849,1,2,0:0:0:0:
238,100,49122,6,0,P|221:173|291:244,1,170,4|8,0:0|0:0,0:0:0:0:
465,134,49940,1,0,0:0:0:0:
353,17,50212,1,8,0:0:0:0:
368,253,50485,1,0,0:0:0:0:
374,159,50758,1,0,0:0:0:0:
452,354,51031,1,2,0:0:0:0:
263,313,51303,6,0,B|229:309|229:309|164:322,1,85,0|2,0:0|0:0,0:0:0:0:
103,237,51849,2,0,B|137:241|137:241|202:228,1,85,0|2,0:0|0:0,0:0:0:0:
264,163,52394,1,0,0:0:0:0:
266,152,52667,1,2,0:0:0:0:
268,141,52940,1,2,0:0:0:0:
132,58,53212,5,2,0:0:0:0:
132,58,53485,6,0,L|146:232,1,170,4|8,0:0|0:0,0:0:0:0:
226,305,53894,1,0,0:0:0:0:
226,305,53962,1,0,0:0:0:0:
226,305,54031,1,2,0:0:0:0:
60,258,54167,1,0,0:0:0:0:
266,141,54303,1,8,0:0:0:0:
345,370,54440,1,0,0:0:0:0:
263,224,54576,6,0,P|189:223|142:324,1,170,2|8,0:0|0:0,0:0:0:0:
261,379,54985,1,0,0:0:0:0:
261,379,55053,1,0,0:0:0:0:
261,379,55122,2,0,L|354:370,1,85,2|0,0:0|0:0,0:0:0:0:
471,339,55394,1,8,0:0:0:0:
335,284,55531,1,2,0:0:0:0:
512,164,55667,6,0,P|487:209|373:199,1,170,2|8,0:0|0:0,0:0:0:0:
352,88,56076,1,0,0:0:0:0:
352,88,56144,1,0,0:0:0:0:
352,88,56212,1,2,0:0:0:0:
277,221,56349,1,0,0:0:0:0:
360,63,56485,1,10,0:0:0:0:
399,228,56622,1,2,0:0:0:0:
277,131,56758,6,0,L|182:138,1,85,2|0,0:0|0:0,0:0:0:0:
462,296,57031,2,0,P|485:218|437:152,1,170,8|2,0:0|0:0,0:0:0:0:
320,295,57440,1,0,0:0:0:0:
320,295,57508,1,0,0:0:0:0:
320,295,57576,1,8,0:0:0:0:
277,131,57712,1,2,0:0:0:0:
341,183,57849,6,0,P|258:217|194:156,1,170,4|8,0:0|0:0,0:0:0:0:
444,126,58258,1,0,0:0:0:0:
444,126,58326,1,0,0:0:0:0:
444,126,58394,2,0,L|458:218,1,85,2|0,0:0|0:0,0:0:0:0:
372,360,58667,1,8,0:0:0:0:
512,269,58803,1,0,0:0:0:0:
360,221,58940,6,0,P|300:211|230:299,1,170,2|8,0:0|0:0,0:0:0:0:
445,329,59349,1,0,0:0:0:0:
445,329,59417,1,0,0:0:0:0:
445,329,59485,1,2,0:0:0:0:
320,295,59622,1,0,0:0:0:0:
427,169,59758,6,0,P|441:211|429:269,1,85,8|2,0:0|0:0,0:0:0:0:
237,344,60031,2,0,P|300:324|379:385,1,170,2|8,0:0|0:0,0:0:0:0:
359,258,60440,1,2,0:0:0:0:
137,110,60576,5,0,0:0:0:0:
312,152,60712,1,2,0:0:0:0:
149,220,60849,1,8,0:0:0:0:
237,52,60985,1,2,0:0:0:0:
251,251,61122,6,0,L|258:314,1,63.75,2|0,0:0|0:0,0:0:0:0:
200,377,61394,6,0,P|140:387|73:333,1,127.5,14|0,0:0|0:0,0:0:0:0:
46,273,61667,2,0,L|54:124,1,127.5,4|0,0:0|0:0,0:0:0:0:
129,68,61940,2,0,L|137:110,3,42.5,2|0|0|0,0:0|0:0|0:0|0:0,0:0:0:0:
237,52,62212,6,0,B|277:38|322:49|322:49|352:83|403:76,1,170,4|8,0:0|0:0,0:0:0:0:
316,167,62622,1,0,0:0:0:0:
316,167,62690,1,0,0:0:0:0:
316,167,62758,2,0,B|363:174|388:205|388:205|399:249|459:271,1,170,2|8,0:0|0:0,0:0:0:0:
310,339,63167,1,0,0:0:0:0:
310,339,63235,1,0,0:0:0:0:
310,339,63303,2,0,B|307:293|307:293|315:245,1,85,2|0,0:0|0:0,0:0:0:0:
202,109,63576,2,0,L|213:251,1,127.5,10|0,0:0|0:0,0:0:0:0:
213,262,63849,5,2,0:0:0:0:
294,88,63985,1,0,0:0:0:0:
119,193,64122,1,8,0:0:0:0:
294,215,64258,1,2,0:0:0:0:
294,215,64326,1,0,0:0:0:0:
294,215,64394,6,0,P|308:271|268:337,1,127.5,2|0,0:0|0:0,0:0:0:0:
250,341,64667,1,8,0:0:0:0:
123,275,64803,1,2,0:0:0:0:
215,185,64940,2,0,L|350:204,1,127.5,2|0,0:0|0:0,0:0:0:0:
378,208,65212,1,8,0:0:0:0:
282,86,65349,1,2,0:0:0:0:
452,172,65485,6,0,P|458:214|440:258,1,85,0|2,0:0|0:0,0:0:0:0:
353,127,65758,1,8,0:0:0:0:
486,42,65894,1,0,0:0:0:0:
378,208,66031,5,2,0:0:0:0:
290,6,66167,1,2,0:0:0:0:
426,98,66303,1,8,0:0:0:0:
271,189,66440,1,2,0:0:0:0:
381,294,66576,6,0,P|451:253|451:172,1,170,2|10,0:0|0:0,0:0:0:0:
150,209,66985,1,0,0:0:0:0:
150,209,67053,1,0,0:0:0:0:
150,209,67122,1,2,0:0:0:0:
130,324,67258,1,0,0:0:0:0:
217,272,67394,1,8,0:0:0:0:
63,202,67531,1,2,0:0:0:0:
225,79,67667,6,0,B|231:124|231:124|217:172,1,85,2|0,0:0|0:0,0:0:0:0:
130,324,67940,1,8,0:0:0:0:
107,130,68076,1,2,0:0:0:0:
217,272,68212,1,2,0:0:0:0:
45,280,68349,1,0,0:0:0:0:
285,220,68485,2,0,P|302:269|292:307,1,85,8|2,0:0|0:0,0:0:0:0:
221,181,68758,6,0,L|369:157,1,127.5,2|0,0:0|0:0,0:0:0:0:
381,152,69031,1,8,0:0:0:0:
270,56,69167,1,2,0:0:0:0:
467,143,69303,2,0,P|458:192|429:217,1,85,2|0,0:0|0:0,0:0:0:0:
192,97,69576,5,8,0:0:0:0:
381,152,69712,1,0,0:0:0:0:
115,154,69849,2,0,P|100:108|106:72,1,85,2|0,0:0|0:0,0:0:0:0:
169,295,70122,2,0,P|123:310|87:303,1,85,10|0,0:0|0:0,0:0:0:0:
318,234,70394,2,0,P|333:280|326:316,1,85,2|0,0:0|0:0,0:0:0:0:
284,90,70667,2,0,P|330:74|366:81,1,85,8|0,0:0|0:0,0:0:0:0:
217,189,70940,5,4,0:0:0:0:
128,140,79394,5,8,0:0:0:0:
128,140,79667,2,0,L|226:133,1,85,4|0,0:0|0:0,0:0:0:0:
327,261,79940,2,0,L|226:256,1,85,8|0,0:0|0:0,0:0:0:0:
386,154,80212,1,0,0:0:0:0:
441,245,80349,1,0,0:0:0:0:
296,178,80485,1,8,0:0:0:0:
447,90,80622,1,0,0:0:0:0:
222,136,80758,6,0,P|209:182|219:218,1,85,0|0,0:0|0:0,0:0:0:0:
299,345,81031,2,0,L|395:336,1,85,8|0,0:0|0:0,0:0:0:0:
296,178,81303,5,0,0:0:0:0:
169,281,81440,1,0,0:0:0:0:
127,128,81576,1,8,0:0:0:0:
242,238,81712,1,0,0:0:0:0:
146,365,81849,5,4,0:0:0:0:
66,341,82940,1,10,0:0:0:0:
150,363,84031,6,0,L|152:228,2,127.5,8|0|2,0:0|0:0|0:0,0:0:0:0:
108,165,85122,1,8,0:0:0:0:
194,147,86212,6,0,B|159:137|131:144|131:144|107:173|71:172,2,127.5,8|0|2,0:0|0:0|0:0,0:0:0:0:
0,117,87303,1,8,0:0:0:0:
0,117,88394,6,0,L|9:245,2,127.5,8|0|2,0:0|0:0|0:0,0:0:0:0:
109,258,89485,2,0,L|103:286,11,21.25,8|0|0|0|0|0|0|0|0|0|0|0,0:0|0:0|0:0|0:0|0:0|0:0|0:0|0:0|0:0|0:0|0:0|0:0,0:0:0:0:
156,335,90303,2,0,L|158:358,3,21.25
236,377,90576,6,0,L|325:368,1,85,8|0,0:0|0:0,0:0:0:0:
352,290,90985,2,0,L|446:290,1,85,8|0,0:0|0:0,0:0:0:0:
509,332,91394,1,2,0:0:0:0:
454,129,91667,6,0,L|464:214,1,85,8|0,0:0|0:0,0:0:0:0:
334,149,92076,2,0,L|337:62,1,85,8|0,0:0|0:0,0:0:0:0:
246,230,92485,1,2,0:0:0:0:
246,230,92758,6,0,P|200:231|159:208,1,85,8|0,0:0|0:0,0:0:0:0:
116,303,93167,2,0,P|77:304|36:324,1,85,8|0,0:0|0:0,0:0:0:0:
16,198,93576,1,2,0:0:0:0:
16,198,93849,6,0,L|1:106,1,85,8|0,0:0|0:0,0:0:0:0:
101,126,94258,2,0,L|99:33,1,85,8|0,0:0|0:0,0:0:0:0:
179,190,94667,1,2,0:0:0:0:
179,190,94940,6,0,L|320:183,2,127.5,8|8|2,0:0|0:0|0:0,0:0:0:0:
369,113,96031,2,0,P|399:154|386:238,2,127.5,8|8|2,0:0|0:0|0:0,0:0:0:0:
318,292,97122,5,4,0:0:0:0:
318,292,97394,2,0,L|324:335,1,42.5,8|0,0:0|0:0,0:0:0:0:
225,289,97667,2,0,L|221:191,2,85,0|8|8,0:0|0:0|0:0,0:0:0:0:
311,198,98349,1,0,0:0:0:0:
256,133,98485,1,8,0:0:0:0:
321,78,98622,1,8,0:0:0:0:
272,8,98758,1,8,0:0:0:0:
272,8,99031,6,0,L|219:3,1,42.5,2|0,0:0|0:0,0:0:0:0:
321,78,99303,2,0,B|380:123|441:51|441:51|462:94,1,170,4|8,0:0|0:0,0:0:0:0:
460,273,100258,2,0,L|457:307,1,21.25,0|0,0:0|0:0,0:0:0:0:
402,354,100394,1,0,0:0:0:0:
392,371,100667,6,0,B|350:377|350:377|296:356,1,85,8|0,0:0|0:0,0:0:0:0:
282,235,100940,2,0,B|309:269|309:269|349:285,1,85,0|0,0:0|0:0,0:0:0:0:
359,186,101212,2,0,B|332:152|332:152|323:95,1,85,8|0,0:0|0:0,0:0:0:0:
466,30,101485,6,0,B|466:72|466:72|446:109,1,85,0|0,0:0|0:0,0:0:0:0:
250,125,101758,1,8,0:0:0:0:
321,13,101894,1,0,0:0:0:0:
359,186,102031,1,0,0:0:0:0:
321,13,102167,1,0,0:0:0:0:
444,223,102303,6,0,P|408:263|359:269,1,85,8|0,0:0|0:0,0:0:0:0:
222,324,102576,2,0,B|261:299|308:314|308:314|336:355|376:352,1,170,0|8,0:0|0:0,0:0:0:0:
269,223,102985,1,2,0:0:0:0:
269,223,103053,1,2,0:0:0:0:
269,223,103122,2,0,L|173:211,1,85,0|0,0:0|0:0,0:0:0:0:
40,296,103394,2,0,L|132:285,1,85,8|0,0:0|0:0,0:0:0:0:
1,124,103667,5,0,0:0:0:0:
141,152,103803,1,0,0:0:0:0:
40,42,103940,1,8,0:0:0:0:
62,192,104076,1,0,0:0:0:0:
123,67,104212,2,0,L|209:73,1,85,0|0,0:0|0:0,0:0:0:0:
388,123,104485,2,0,L|295:133,1,85,8|0,0:0|0:0,0:0:0:0:
303,132,104690,1,0,0:0:0:0:
303,132,104758,5,0,0:0:0:0:
367,23,104894,1,0,0:0:0:0:
476,157,105031,2,0,P|478:108|459:72,1,85,8|0,0:0|0:0,0:0:0:0:
398,213,105303,2,0,L|410:358,1,127.5,0|0,0:0|0:0,0:0:0:0:
481,352,105576,6,0,P|445:275|351:297,1,191.250007295609,8|0,0:0|0:0,0:0:0:0:
336,368,105849,6,0,L|235:362,1,95.6250036478044,2|0,0:0|0:0,0:0:0:0:
210,268,106122,6,0,P|300:283|336:368,1,191.250007295609,12|0,0:0|0:0,0:0:0:0:
241,362,106394,6,0,L|141:372,1,95.6250036478044,2|0,0:0|0:0,0:0:0:0:
72,334,106667,2,0,P|54:290|70:235,1,95.6250036478044,8|0,0:0|0:0,0:0:0:0:
137,214,106940,6,0,L|206:225,1,63.75,2|0,0:0|0:0,0:0:0:0:
214,219,107212,2,0,L|283:230,1,63.75,8|0,0:0|0:0,0:0:0:0:
293,226,107485,5,8,0:0:0:0:
320,243,107553,1,0,0:0:0:0:
353,250,107622,1,0,0:0:0:0:
385,245,107690,1,0,0:0:0:0:
414,230,107758,1,8,0:0:0:0:
436,205,107826,1,0,0:0:0:0:
448,174,107894,1,8,0:0:0:0:
449,141,107962,1,0,0:0:0:0:
436,107,108031,6,0,B|394:94|394:94|363:99|363:99|322:69|259:91,1,170,4|8,0:0|0:0,0:0:0:0:
119,21,108440,1,0,0:0:0:0:
119,21,108508,1,0,0:0:0:0:
119,21,108576,1,2,0:0:0:0:
192,138,108712,1,0,0:0:0:0:
111,194,108849,2,0,P|98:151|108:98,1,85,8|0,0:0|0:0,0:0:0:0:
203,231,109122,6,0,P|161:275|39:257,1,170,2|8,0:0|0:0,0:0:0:0:
137,374,109531,1,0,0:0:0:0:
137,374,109599,1,0,0:0:0:0:
137,374,109667,2,0,P|179:369|227:377,1,85,2|0,0:0|0:0,0:0:0:0:
377,322,109940,5,8,0:0:0:0:
278,289,110076,1,2,0:0:0:0:
454,267,110212,2,0,P|467:317|459:359,1,85,2|0,0:0|0:0,0:0:0:0:
300,372,110485,1,8,0:0:0:0:
326,214,110622,1,0,0:0:0:0:
377,322,110758,5,2,0:0:0:0:
244,212,110894,1,0,0:0:0:0:
376,302,111031,1,10,0:0:0:0:
349,97,111167,1,2,0:0:0:0:
326,214,111303,5,2,0:0:0:0:
455,142,111440,1,0,0:0:0:0:
270,57,111576,2,0,P|261:108|280:153,1,85,10|0,0:0|0:0,0:0:0:0:
431,49,111849,1,2,0:0:0:0:
504,212,111985,1,0,0:0:0:0:
504,212,112053,1,0,0:0:0:0:
504,212,112122,1,8,0:0:0:0:
377,322,112258,5,0,0:0:0:0:
377,322,112326,1,0,0:0:0:0:
377,322,112394,2,0,L|199:329,1,170,4|8,0:0|0:0,0:0:0:0:
28,281,112803,1,0,0:0:0:0:
28,281,112872,1,0,0:0:0:0:
28,281,112940,1,2,0:0:0:0:
198,243,113076,1,0,0:0:0:0:
120,317,113212,2,0,L|105:220,1,85,8|0,0:0|0:0,0:0:0:0:
274,202,113485,6,0,P|268:292|183:324,1,170,6|8,0:0|0:0,0:0:0:0:
145,161,113894,1,0,0:0:0:0:
145,161,113962,1,0,0:0:0:0:
145,161,114031,1,2,0:0:0:0:
350,166,114167,1,0,0:0:0:0:
275,298,114303,5,8,0:0:0:0:
220,97,114440,1,0,0:0:0:0:
356,302,114576,2,0,P|336:356|213:358,1,170,2|8,0:0|0:0,0:0:0:0:
196,235,114985,1,0,0:0:0:0:
275,298,115122,5,2,0:0:0:0:
290,155,115258,1,0,0:0:0:0:
290,155,115326,1,0,0:0:0:0:
290,155,115394,1,8,0:0:0:0:
193,218,115531,1,0,0:0:0:0:
116,59,115667,5,2,0:0:0:0:
199,128,115803,1,0,0:0:0:0:
78,261,115940,1,10,0:0:0:0:
123,163,116076,1,0,0:0:0:0:
202,314,116212,1,2,0:0:0:0:
7,307,116349,5,0,0:0:0:0:
7,307,116417,1,0,0:0:0:0:
7,307,116485,2,0,L|14:359,1,42.5,8|0,0:0|0:0,0:0:0:0:
110,377,116622,2,0,L|117:322,1,42.5,0|0,0:0|0:0,0:0:0:0:
267,259,116758,6,0,P|324:258|386:352,1,170,6|8,0:0|0:0,0:0:0:0:
512,226,117167,1,0,0:0:0:0:
512,226,117235,1,0,0:0:0:0:
512,226,117303,2,0,L|408:218,1,85,2|0,0:0|0:0,0:0:0:0:
354,122,117576,2,0,L|252:128,1,85,8|0,0:0|0:0,0:0:0:0:
168,208,117849,6,0,P|114:210|42:106,1,170,2|8,0:0|0:0,0:0:0:0:
146,104,118258,1,0,0:0:0:0:
255,200,118394,1,2,0:0:0:0:
105,282,118531,1,0,0:0:0:0:
238,288,118667,2,0,P|277:284|326:254,1,85,8|2,0:0|0:0,0:0:0:0:
165,341,118940,6,0,P|89:314|22:382,1,170,2|8,0:0|0:0,0:0:0:0:
42,224,119349,1,2,0:0:0:0:
2,117,119485,1,2,0:0:0:0:
146,104,119622,1,0,0:0:0:0:
20,126,119758,6,0,L|12:40,1,85,8|0,0:0|0:0,0:0:0:0:
208,20,120031,1,2,0:0:0:0:
161,223,120167,1,0,0:0:0:0:
223,41,120303,1,10,0:0:0:0:
173,238,120440,1,2,0:0:0:0:
284,149,120576,5,0,0:0:0:0:
87,156,120712,1,2,0:0:0:0:
297,164,120849,1,8,0:0:0:0:
95,177,120985,1,2,0:0:0:0:
301,249,121122,6,0,P|360:230|370:123,1,170,2|8,0:0|0:0,0:0:0:0:
481,244,121531,1,0,0:0:0:0:
481,244,121599,1,0,0:0:0:0:
481,244,121667,2,0,P|457:284|450:331,1,85,2|0,0:0|0:0,0:0:0:0:
471,118,121940,2,0,P|462:69|442:31,1,85,8|0,0:0|0:0,0:0:0:0:
250,130,122212,5,2,0:0:0:0:
350,222,122349,1,0,0:0:0:0:
268,10,122485,1,8,0:0:0:0:
128,178,122622,1,2,0:0:0:0:
324,314,122758,6,0,P|378:314|439:212,1,170,0|8,0:0|0:0,0:0:0:0:
250,130,123167,1,2,0:0:0:0:
250,130,123235,1,0,0:0:0:0:
250,130,123303,1,2,0:0:0:0:
350,222,123440,1,0,0:0:0:0:
437,118,123576,2,0,L|438:12,1,85,8|2,0:0|0:0,0:0:0:0:
185,79,123849,2,0,P|165:138|239:219,1,170,2|8,0:0|0:0,0:0:0:0:
358,143,124258,5,0,0:0:0:0:
358,143,124326,1,0,0:0:0:0:
358,143,124394,1,2,0:0:0:0:
257,10,124531,1,0,0:0:0:0:
360,116,124667,1,8,0:0:0:0:
496,52,124803,1,0,0:0:0:0:
435,208,124940,5,0,0:0:0:0:
416,217,125008,1,0,0:0:0:0:
397,224,125076,1,0,0:0:0:0:
377,229,125144,1,0,0:0:0:0:
357,232,125212,6,0,L|316:232,7,21.25,8|0|0|0|0|0|0|0,0:0|0:0|0:0|0:0|0:0|0:0|0:0|0:0,0:0:0:0:
269,268,125485,1,6,0:0:0:0:
134,166,125622,1,0,0:0:0:0:
243,92,125758,2,0,L|237:188,1,85,10|0,0:0|0:0,0:0:0:0:
83,239,126031,1,2,0:0:0:0:
237,176,126167,1,0,0:0:0:0:
62,243,126303,1,10,0:0:0:0:
248,343,126440,6,0,P|313:335|341:243,1,170,2|2,0:0|0:0,0:0:0:0:
171,247,126849,1,8,0:0:0:0:
146,373,126985,1,2,0:0:0:0:
269,268,127122,1,2,0:0:0:0:
269,268,127190,1,2,0:0:0:0:
269,268,127258,1,2,0:0:0:0:
155,152,127394,1,10,0:0:0:0:
316,51,127531,1,2,0:0:0:0:
237,176,127667,5,2,0:0:0:0:
341,332,127803,2,0,L|354:242,1,85,2|8,0:0|0:0,0:0:0:0:
238,91,128076,1,0,0:0:0:0:
439,217,128212,2,0,L|431:127,1,85,2|0,0:0|0:0,0:0:0:0:
237,4,128485,1,8,0:0:0:0:
316,136,128622,1,2,0:0:0:0:
173,235,128758,5,0,0:0:0:0:
321,158,128894,1,2,0:0:0:0:
431,302,129031,1,8,0:0:0:0:
299,242,129167,1,2,0:0:0:0:
299,242,129235,1,0,0:0:0:0:
299,242,129303,1,0,0:0:0:0:
406,133,129440,1,2,0:0:0:0:
463,379,129576,2,0,P|422:384|368:356,1,85,10|0,0:0|0:0,0:0:0:0:
299,331,129849,6,0,L|131:355,1,170,4|10,0:0|0:0,0:0:0:0:
4,220,130258,2,0,L|173:235,1,170,2|0,0:0|0:0,0:0:0:0:
248,69,130667,1,10,0:0:0:0:
173,235,130803,1,0,0:0:0:0:
396,283,130940,5,0,0:0:0:0:
243,182,131076,1,2,0:0:0:0:
396,283,131212,1,10,0:0:0:0:
139,324,131349,2,0,P|86:292|95:183,1,170,2|0,0:0|0:0,0:0:0:0:
396,283,131758,1,10,0:0:0:0:
232,335,131894,1,0,0:0:0:0:
242,181,132031,5,2,0:0:0:0:
264,193,132099,1,0,0:0:0:0:
289,201,132167,1,2,0:0:0:0:
314,206,132235,1,0,0:0:0:0:
340,207,132303,1,10,0:0:0:0:
366,205,132372,1,0,0:0:0:0:
391,198,132440,1,2,0:0:0:0:
415,188,132508,1,0,0:0:0:0:
437,175,132576,6,0,L|450:129,3,42.5,2|0|2|0,0:0|0:0|0:0|0:0,0:0:0:0:
366,87,132849,2,0,L|360:24,3,42.5,8|0|0|0,0:0|0:0|0:0|0:0,0:0:0:0:
246,77,133122,6,0,P|170:93|67:64,1,170,4|0,0:0|0:0,0:0:0:0:
314,206,133531,2,0,P|390:190|493:219,1,170,2|0,0:0|0:0,0:0:0:0:
135,47,133940,1,8,0:0:0:0:
135,47,134212,6,0,L|127:163,1,85,2|0,0:0|0:0,0:0:0:0:
200,224,134485,1,10,0:0:0:0:
246,77,134622,1,2,0:0:0:0:
108,144,134758,1,2,0:0:0:0:
296,196,134894,1,0,0:0:0:0:
96,256,135031,5,10,0:0:0:0:
288,108,135167,1,2,0:0:0:0:
52,96,135303,2,0,L|40:-4,1,85,2|2,0:0|0:0,0:0:0:0:
41,11,135508,1,0,0:0:0:0:
41,11,135576,1,10,0:0:0:0:
184,136,135712,1,0,0:0:0:0:
104,224,135849,2,0,P|64:240|-8:232,1,85,2|0,0:0|0:0,0:0:0:0:
216,260,136122,2,0,P|225:301|236:342,1,85,10|2,0:0|0:0,0:0:0:0:
296,196,136394,5,2,0:0:0:0:
216,104,136531,2,0,P|256:96|308:84,2,85,0|10|2,0:0|0:0|0:0,0:0:0:0:
184,244,136940,5,2,0:0:0:0:
352,268,137076,1,0,0:0:0:0:
208,328,137212,1,10,0:0:0:0:
352,268,137349,5,2,0:0:0:0:
184,244,137485,1,2,0:0:0:0:
368,184,137622,1,0,0:0:0:0:
152,156,137758,5,10,0:0:0:0:
336,88,137894,1,2,0:0:0:0:
288,208,138031,5,2,0:0:0:0:
188,56,138167,1,2,0:0:0:0:
368,184,138303,2,0,P|412:200|468:128,1,127.5,10|0,0:0|0:0,0:0:0:0:
476,184,138576,6,0,P|468:240|468:288,1,85,4|0,0:0|0:0,0:0:0:0:
467,268,138781,1,0,0:0:0:0:
467,268,138849,1,8,0:0:0:0:
324,344,138985,2,0,B|268:336|268:336|212:344|212:344|144:332,1,170,0|2,0:0|0:0,0:0:0:0:
116,196,139394,1,10,0:0:0:0:
224,304,139531,1,0,0:0:0:0:
212,112,139667,6,0,P|200:188|196:228,1,85,2|2,0:0|0:0,0:0:0:0:
276,4,139940,1,14,0:0:0:0:
128,68,140076,1,0,0:0:0:0:
292,168,140212,6,0,P|304:92|308:52,1,85,2|2,0:0|0:0,0:0:0:0:
44,232,140485,2,0,P|84:272|176:248,1,127.5,14|0,0:0|0:0,0:0:0:0:
224,304,140758,6,0,L|320:296,1,85,2|0,0:0|0:0,0:0:0:0:
392,64,141031,2,0,L|296:72,1,85,10|2,0:0|0:0,0:0:0:0:
184,192,141303,1,0,0:0:0:0:
312,308,141440,1,2,0:0:0:0:
424,180,141576,1,8,0:0:0:0:
296,64,141712,1,0,0:0:0:0:
76,328,141849,6,0,B|116:360|116:360|312:324,1,203.999993774414,6|14,0:0|0:0,0:0:0:0:
440,292,142258,1,0,0:0:0:0:
284,172,142394,2,0,B|163:194,1,101.999996887207,6|0,0:0|0:0,0:0:0:0:
228,368,142667,2,0,B|428:331,1,203.999993774414,14|4,0:0|1:0,0:0:0:0:
124,124,151667,5,12,0:0:0:0:
300,220,152485,2,0,L|164:209,1,127.500004863739
392,100,153440,5,0,0:0:0:0:
392,100,153576,2,0,L|396:28,2,63.7500024318696,0|0|8,0:0|0:0|0:0,0:0:0:0:
368,344,154667,5,0,0:0:0:0:
300,308,154940,1,8,0:0:0:0:
112,348,155622,5,0,0:0:0:0:
112,348,155758,2,0,L|104:276,2,63.7500024318696,0|0|8,0:0|0:0|0:0,0:0:0:0:
200,88,156849,6,0,L|268:80,1,63.7500024318696,0|0,0:0|0:0,0:0:0:0:
320,144,157122,2,0,L|388:136,1,63.7500024318696,6|0,0:0|0:0,0:0:0:0:
392,24,157394,2,0,L|460:16,1,63.7500024318696,0|0,0:0|0:0,0:0:0:0:
464,304,157803,5,0,0:0:0:0:
452,268,157940,1,0,0:0:0:0:
424,292,158076,1,0,0:0:0:0:
432,328,158212,1,0,0:0:0:0:
256,192,158281,12,0,160258,0:0:0:0:
256,192,162576,69,12,0:0:0:0:
256,192,163122,1,8,0:0:0:0:
256,192,163667,1,8,0:0:0:0:
256,192,164212,1,8,0:0:0:0:
256,192,164758,1,8,0:0:0:0:
256,192,165303,1,8,0:0:0:0:
256,192,165849,1,8,0:0:0:0:
256,192,166394,1,8,0:0:0:0:
176,120,166940,5,8,0:0:0:0:
328,112,167485,1,8,0:0:0:0:
336,264,168031,1,8,0:0:0:0:
184,272,168576,1,8,0:0:0:0:
250,84,169122,69,8,0:0:0:0:
363,186,169667,1,8,0:0:0:0:
261,299,170212,6,0,L|216:296,1,42.5,4|0,0:0|0:0,0:0:0:0:
176,356,170485,2,0,L|130:352,1,42.5,0|0,0:0|0:0,0:0:0:0:
112,316,170758,2,0,L|66:312,1,42.5,0|0,0:0|0:0,0:0:0:0:
68,332,171031,2,0,L|22:328,1,42.5,0|0,0:0|0:0,0:0:0:0:
4,156,171303,6,0,P|48:120|172:144,1,170,8|0,0:0|0:0,0:0:0:0:
216,188,171712,2,0,L|404:172,1,170,8|0,0:0|0:0,0:0:0:0:
456,220,172122,2,0,P|468:180|460:128,1,85,2|0,0:0|0:0,0:0:0:0:
336,28,172394,6,0,L|360:200,1,170,8|0,0:0|0:0,0:0:0:0:
296,304,172803,2,0,L|272:132,1,170,8|0,0:0|0:0,0:0:0:0:
184,120,173212,2,0,L|195:204,1,85,2|0,0:0|0:0,0:0:0:0:
156,332,173485,6,0,P|104:352|12:268,1,170,8|0,0:0|0:0,0:0:0:0:
56,165,173894,2,0,P|108:145|200:229,1,170,8|0,0:0|0:0,0:0:0:0:
296,304,174303,2,0,L|396:292,1,85,2|0,0:0|0:0,0:0:0:0:
455,164,174576,6,0,P|375:148|316:204,1,170,8|0,0:0|0:0,0:0:0:0:
356,332,174985,2,0,P|436:348|495:292,1,170,8|0,0:0|0:0,0:0:0:0:
216,304,175394,2,0,L|116:292,1,85,2|0,0:0|0:0,0:0:0:0:
156,56,175667,6,0,P|200:104|176:204,1,170,8|0,0:0|0:0,0:0:0:0:
120,300,176076,2,0,L|304:280,1,170,8|0,0:0|0:0,0:0:0:0:
376,344,176485,2,0,P|396:296|392:252,1,85,2|0,0:0|0:0,0:0:0:0:
268,80,176758,6,0,L|288:256,1,170,8|0,0:0|0:0,0:0:0:0:
316,20,177167,2,0,P|244:8|196:108,1,170,8|0,0:0|0:0,0:0:0:0:
324,156,177576,2,0,L|416:144,1,85,2|0,0:0|0:0,0:0:0:0:
464,208,177849,5,8,0:0:0:0:
256,352,178258,1,8,0:0:0:0:
48,208,178667,1,2,0:0:0:0:
256,192,178940,1,8,0:0:0:0:
280,200,180031,6,0,L|292:68,1,127.5,4|0,0:0|0:0,0:0:0:0:
332,96,180303,2,0,L|341:-9,1,85,8|0,0:0|0:0,0:0:0:0:
204,36,180576,2,0,P|176:72|196:168,1,127.5,2|0,0:0|0:0,0:0:0:0:
200,180,180849,2,0,L|76:168,1,85,8|0,0:0|0:0,0:0:0:0:
8,316,181122,6,0,P|40:348|168:332,1,170,6|8,0:0|0:0,0:0:0:0:
300,272,181531,1,0,0:0:0:0:
144,92,181667,2,0,B|104:168|104:168|124:276,1,170,2|8,0:0|0:0,0:0:0:0:
392,236,182076,1,0,0:0:0:0:
260,360,182212,6,0,L|172:348,1,85,2|0,0:0|0:0,0:0:0:0:
124,188,182485,2,0,L|112:276,1,85,8|0,0:0|0:0,0:0:0:0:
304,348,182758,5,2,0:0:0:0:
248,164,182894,1,2,0:0:0:0:
112,288,183031,1,10,0:0:0:0:
304,348,183167,1,0,0:0:0:0:
312,84,183303,5,2,0:0:0:0:
204,252,183440,1,0,0:0:0:0:
448,308,183576,2,0,P|476:252|456:168,1,127.5,10|0,0:0|0:0,0:0:0:0:
396,132,183849,2,0,P|380:204|384:228,1,85,2|0,0:0|0:0,0:0:0:0:
388,368,184122,1,8,0:0:0:0:
280,268,184258,1,2,0:0:0:0:
100,372,184394,6,0,P|84:316|52:228,1,127.5,4|0,0:0|0:0,0:0:0:0:
72,147,184667,2,0,P|74:190|80:232,1,85,8|0,0:0|0:0,0:0:0:0:
280,268,184940,2,0,P|236:288|160:232,1,127.5,2|0,0:0|0:0,0:0:0:0:
228,126,185212,2,0,P|240:166|232:208,1,85,10|0,0:0|0:0,0:0:0:0:
40,60,185485,6,0,P|76:36|188:60,1,127.5,2|0,0:0|0:0,0:0:0:0:
248,140,185758,2,0,P|310:147|365:118,1,127.5,8|0,0:0|0:0,0:0:0:0:
456,16,186031,2,0,L|480:156,1,127.5,2|0,0:0|0:0,0:0:0:0:
464,256,186303,2,0,P|452:304|444:360,1,85,8|0,0:0|0:0,0:0:0:0:
280,268,186576,5,2,0:0:0:0:
252,348,186849,5,8,0:0:0:0:
312,189,186985,1,0,0:0:0:0:
335,334,187122,1,2,0:0:0:0:
228,202,187258,1,0,0:0:0:0:
198,281,187394,1,8,0:0:0:0:
366,255,187531,1,0,0:0:0:0:
252,348,187667,6,0,L|344:332,1,82.8749962062838,2|2,0:0|0:0,0:0:0:0:
420,336,187940,2,0,P|460:320|392:304,1,152.999995330811,12|0,0:0|0:0,0:0:0:0:
280,268,188212,2,0,P|248:216|336:100,1,178.499994552612,4|0,0:0|0:0,0:0:0:0:
388,60,188485,6,0,P|400:124|396:172,1,59.4999981842042,8|0,0:0|0:0,0:0:0:0:
328,216,188622,2,0,P|316:192|352:172,1,59.4999981842042,0|0,0:0|0:0,0:0:0:0:
420,336,188758,6,0,P|368:332|312:380,1,127.5,6|0,0:0|0:0,0:0:0:0:
284,360,189031,2,0,L|192:352,1,85,8|0,0:0|0:0,0:0:0:0:
8,252,189303,2,0,P|48:216|148:244,1,127.5,2|0,0:0|0:0,0:0:0:0:
195,275,189576,2,0,L|287:267,1,85,8|0,0:0|0:0,0:0:0:0:
244,48,189849,6,0,L|232:208,1,127.5,6|0,0:0|0:0,0:0:0:0:
368,280,190122,2,0,L|380:120,1,127.5,8|0,0:0|0:0,0:0:0:0:
228,28,190394,2,0,L|216:188,1,127.5,2|0,0:0|0:0,0:0:0:0:
384,300,190667,2,0,L|392:176,1,85,8|0,0:0|0:0,0:0:0:0:
124,84,190940,6,0,P|84:136|116:248,1,170,6|8,0:0|0:0,0:0:0:0:
416,204,191349,1,0,0:0:0:0:
176,168,191485,2,0,L|352:148,1,170,2|8,0:0|0:0,0:0:0:0:
132,260,191894,1,0,0:0:0:0:
252,316,192031,5,2,0:0:0:0:
248,120,192167,1,0,0:0:0:0:
52,272,192303,2,0,P|84:328|192:312,1,170,8|6,0:0|0:0,0:0:0:0:
256,232,192712,1,2,0:0:0:0:
84,176,192849,1,8,0:0:0:0:
336,168,192985,1,2,0:0:0:0:
152,12,193122,6,0,P|168:104|180:220,1,170,6|8,0:0|0:0,0:0:0:0:
352,276,193531,1,0,0:0:0:0:
258,36,193667,2,0,P|250:108|250:152,1,85,2|0,0:0|0:0,0:0:0:0:
424,220,193940,2,0,P|432:148|432:104,1,85,8|0,0:0|0:0,0:0:0:0:
356,64,194212,5,6,0:0:0:0:
264,236,194349,1,0,0:0:0:0:
428,356,194485,2,0,L|276:344,1,127.5,10|0,0:0|0:0,0:0:0:0:
192,376,194758,2,0,P|140:348|152:244,1,170,6|8,0:0|0:0,0:0:0:0:
336,152,195167,1,0,0:0:0:0:
204,304,195303,6,0,B|144:296|144:296|104:304|104:304|28:292,1,170,2|8,0:0|0:0,0:0:0:0:
124,144,195712,1,0,0:0:0:0:
272,352,195849,1,2,0:0:0:0:
120,328,195985,1,0,0:0:0:0:
296,260,196122,1,8,0:0:0:0:
216,68,196258,1,8,0:0:0:0:
176,204,196394,6,0,L|184:304,1,85,10|0,0:0|0:0,0:0:0:0:
336,152,196667,2,0,L|328:252,1,85,10|0,0:0|0:0,0:0:0:0:
140,112,196940,2,0,L|148:212,1,85,10|0,0:0|0:0,0:0:0:0:
372,48,197212,2,0,L|364:148,1,85,10|0,0:0|0:0,0:0:0:0:
400,360,197485,6,0,P|440:332|412:212,1,170,14|8,0:0|0:0,0:0:0:0:
264,200,197894,1,8,0:0:0:0:
380,284,198031,1,10,0:0:0:0:
228,344,198167,1,10,0:0:0:0:
272,116,198303,1,10,0:0:0:0:
456,308,198440,1,10,0:0:0:0:
152,316,198576,5,2,0:0:0:0:
152,316,199258,6,0,L|144:256,1,42.5,10|0,0:0|0:0,0:0:0:0:
80,240,199394,2,0,P|116:204|200:224,1,127.5,10|4,0:0|0:0,0:0:0:0:
236,272,199667,1,4,0:0:0:0:
