osu file format v14

[General]
AudioFilename: Elegy.mp3
AudioLeadIn: 0
PreviewTime: 53084
Countdown: 0
SampleSet: Soft
StackLeniency: 0.7
Mode: 0
LetterboxInBreaks: 0
WidescreenStoryboard: 0

[Editor]
DistanceSpacing: 1
BeatDivisor: 4
GridSize: 32
TimelineZoom: 1.8

[Metadata]
Title:Toumei Elegy
TitleUnicode:透明エレジー
Artist:Konuko
ArtistUnicode:こぬこ
Creator:Awaken
Version:Regraz's Normal
Source:
Tags:櫻花アリス ナブナ Regraz Kawaiwkyik Rizia Evil_Twilight skystar amamiya yuko n-buna ouka alice megpoid gumi utau vocaloid
BeatmapID:546409
BeatmapSetID:219380

[Difficulty]
HPDrainRate:4
CircleSize:3
OverallDifficulty:4
ApproachRate:5
SliderMultiplier:1.1
SliderTickRate:1

[Events]
//Background and Video events
0,0,"Itai.jpg",0,0
//Break Periods
2,125685,141740
2,160322,161376
//Storyboard Layer 0 (Background)
//Storyboard Layer 1 (Fail)
//Storyboard Layer 2 (Pass)
//Storyboard Layer 3 (Foreground)
//Storyboard Sound Samples

[TimingPoints]
1122,272.727272727273,4,2,1,40,1,0
9849,-100,4,2,1,60,0,0
53485,-100,4,2,1,80,0,1
61122,-100,4,2,1,40,0,0
61394,-100,4,2,1,80,0,0
62212,-100,4,2,1,80,0,1
70940,-100,4,2,1,40,0,0
108031,-100,4,2,1,80,0,1
115667,-100,4,2,1,65,0,0
116758,-100,4,2,1,80,0,1
125485,-100,4,2,1,40,0,0
162577,-100,4,2,1,30,0,0
171303,-100,4,2,1,40,0,0
180031,-100,4,2,1,80,0,1
187667,-100,4,2,1,40,0,0
187940,-100,4,2,1,80,0,0
188758,-100,4,2,1,80,0,1
198576,-100,4,2,1,40,0,0
199667,-100,4,2,1,80,0,0

[Colours]
Combo1 : 243,7,7
Combo2 : 107,196,98
Combo3 : 77,193,185
Combo4 : 99,216,169
Combo5 : 201,198,186
Combo6 : 126,123,116

[HitObjects]
311,250,1122,6,0,B|358:281|401:262|401:262|445:263|481:286,2,165,0|0|8,0:0|0:0|0:0,0:0:0:0:
201,250,2212,2,0,B|150:278|111:262|111:262|67:263|31:286,2,165,0|0|8,0:0|0:0|0:0,0:0:0:0:
255,154,3303,6,0,P|241:108|136:107,2,165,0|0|8,0:0|0:0|0:0,0:0:0:0:
344,218,4394,2,0,L|467:192,1,110
464,304,4940,2,0,L|341:330,1,110,0|8,0:0|0:0,0:0:0:0:
268,260,5485,6,0,B|246:198|285:158|285:158|226:125,2,165,0|0|8,0:0|0:0|0:0,0:0:0:0:
207,352,6576,2,0,P|116:368|56:322,2,165,0|0|8,0:0|0:0|0:0,0:0:0:0:
317,352,7667,6,0,P|408:368|468:322,2,165,0|0|8,0:0|0:0|0:0,0:0:0:0:
254,261,8758,2,0,P|193:204|149:204,1,110
73,254,9303,1,0,0:0:0:0:
21,156,9576,1,0,0:0:0:0:
94,74,9849,6,0,P|154:60|217:78,1,110,4|8,0:0|0:0,0:0:0:0:
310,72,10394,2,0,P|363:62|416:76,1,110,0|8,0:0|0:0,0:0:0:0:
466,175,10940,2,0,L|459:291,2,110,0|8|0,0:0|0:0|0:0,0:0:0:0:
356,168,11758,1,8,0:0:0:0:
318,271,12031,6,0,P|333:335|305:377,1,110,0|8,0:0|0:0,0:0:0:0:
202,368,12576,2,0,P|179:319|196:268,1,110,0|8,0:0|0:0,0:0:0:0:
230,224,12985,2,0,B|225:158|201:155|201:155|145:176|94:154,1,165,0|8,0:0|0:0,0:0:0:0:
51,73,13667,1,0,0:0:0:0:
148,22,13940,1,8,0:0:0:0:
254,65,14212,6,0,L|370:57,1,110,4|8,0:0|0:0,0:0:0:0:
443,134,14758,2,0,P|456:213|443:260,1,110,0|8,0:0|0:0,0:0:0:0:
354,296,15303,1,0,0:0:0:0:
253,253,15576,1,8,0:0:0:0:
170,325,15849,2,0,P|90:343|48:332,1,110,0|8,0:0|0:0,0:0:0:0:
60,227,16394,6,0,L|69:109,1,110,0|8,0:0|0:0,0:0:0:0:
144,36,16940,2,0,P|208:32|251:58,1,110,0|8,0:0|0:0,0:0:0:0:
331,123,17485,2,0,L|324:256,1,110,0|8,0:0|0:0,0:0:0:0:
259,321,18031,1,0,0:0:0:0:
259,321,18303,1,8,0:0:0:0:
173,252,18576,6,0,P|110:278|59:274,1,110,4|8,0:0|0:0,0:0:0:0:
26,174,19122,2,0,P|89:148|140:152,1,110,0|8,0:0|0:0,0:0:0:0:
238,163,19667,2,0,L|242:48,2,110,0|8|0,0:0|0:0|0:0,0:0:0:0:
306,248,20485,1,8,0:0:0:0:
401,188,20758,6,0,P|492:186|518:203,1,110,0|8,0:0|0:0,0:0:0:0:
508,303,21303,2,0,P|417:305|391:288,1,110,0|8,0:0|0:0,0:0:0:0:
361,261,21712,2,0,B|289:241|251:284|251:284|186:291,1,165,0|8,0:0|0:0,0:0:0:0:
95,295,22394,2,0,P|112:225|94:179,1,110,0|8,0:0|0:0,0:0:0:0:
81,82,22940,6,0,L|191:56,1,110,4|8,0:0|0:0,0:0:0:0:
237,80,23349,2,0,L|406:38,1,165,0|8,0:0|0:0,0:0:0:0:
485,105,24031,1,0,0:0:0:0:
428,199,24303,1,8,0:0:0:0:
324,160,24576,2,0,P|270:158|220:183,1,110,0|8,0:0|0:0,0:0:0:0:
179,284,25122,6,0,P|106:285|60:255,1,110,0|8,0:0|0:0,0:0:0:0:
33,166,25667,2,0,P|43:109|23:52,2,110,0|8|4,0:0|0:0|0:0,0:0:0:0:
348,264,27031,1,8,0:0:0:0:
288,176,27303,6,0,B|221:133|155:152|155:152|109:131,2,165,4|0|8,0:0|0:0|0:0,0:0:0:0:
355,88,28394,2,0,B|422:45|488:64|488:64|534:43,2,165,0|0|8,0:0|0:0|0:0,0:0:0:0:
364,197,29485,6,0,P|416:253|356:317,2,165,0|0|8,0:0|0:0|0:0,0:0:0:0:
259,162,30576,2,0,L|137:167,1,110
117,272,31122,2,0,L|239:267,1,110
334,243,31667,6,0,P|421:242|405:314,2,165,0|0|8,0:0|0:0|0:0,0:0:0:0:
272,151,32758,2,0,P|346:114|447:124,2,165,0|0|8,0:0|0:0|0:0,0:0:0:0:
194,229,33849,6,0,P|130:233|75:207,1,110
18,131,34394,2,0,P|69:112|123:118,1,110,0|8,0:0|0:0,0:0:0:0:
233,127,34940,1,0,0:0:0:0:
285,30,35212,2,0,B|378:30|378:30|406:43|406:43|505:44,1,220,8|8,0:0|0:0,0:0:0:0:
485,153,36031,6,0,P|459:203|476:273,1,110,4|0,0:0|0:0,0:0:0:0:
403,345,36576,2,0,L|273:354,1,110,0|8,0:0|0:0,0:0:0:0:
182,352,37122,2,0,L|72:344,1,110
21,246,37667,1,0,0:0:0:0:
75,150,37940,1,8,0:0:0:0:
137,59,38212,6,0,B|163:39|189:38|189:38|235:70|308:56,2,165,0|0|8,0:0|0:0|0:0,0:0:0:0:
75,150,39303,2,0,P|123:170|191:157,1,110
289,163,39849,2,0,P|342:170|393:150,1,110,0|8,0:0|0:0,0:0:0:0:
448,54,40394,6,0,L|451:234,2,165,4|0|8,0:0|0:0|0:0,0:0:0:0:
338,64,41485,2,0,P|273:89|183:50,2,165,0|0|8,0:0|0:0|0:0,0:0:0:0:
369,169,42576,6,0,P|343:246|354:282,1,110
440,333,43122,1,8,3:0:0:0:
334,361,43394,2,0,L|222:369,1,110,8|0,0:0|0:0,0:0:0:0:
146,289,43940,2,0,L|145:221,2,55,8|8|8,3:0|3:0|3:0,0:0:0:0:
49,342,44485,1,8,0:0:0:0:
9,239,44758,6,0,L|3:67,2,165,4|0|8,0:0|0:0|0:0,0:0:0:0:
98,303,45849,2,0,P|174:309|218:288,1,110
255,199,46394,2,0,P|307:183|361:193,1,110
455,250,46940,6,0,L|470:117,1,110
373,82,47485,2,0,P|315:93|259:57,2,110,0|8|0,0:0|0:0|0:0,0:0:0:0:
257,270,48576,2,0,P|175:259|137:278,1,110,0|8,0:0|0:0,0:0:0:0:
95,363,49122,6,0,P|106:292|20:263,2,165,4|0|12,0:0|0:0|0:0,0:0:0:0:
203,349,50212,1,0,0:0:0:0:
313,353,50485,1,0,0:0:0:0:
423,353,50758,2,0,P|432:283|411:235,1,110,0|8,0:0|0:0,0:0:0:0:
310,226,51303,6,0,P|247:239|192:225,1,110,0|8,0:0|0:0,0:0:0:0:
204,119,51849,2,0,P|267:106|322:120,1,110,0|8,0:0|0:0,0:0:0:0:
404,173,52394,2,0,P|419:233|397:282,2,110,0|8|0,0:0|0:0|0:0,0:0:0:0:
381,65,53212,1,0,0:0:0:0:
299,139,53485,6,0,B|263:162|230:151|230:151|182:84|86:99,1,220,4|0,0:0|0:0,0:0:0:0:
28,177,54303,1,8,0:0:0:0:
126,225,54576,2,0,P|148:296|116:337,2,110,0|8|0,0:0|0:0|0:0,0:0:0:0:
211,155,55394,1,8,0:0:0:0:
303,215,55667,6,0,P|376:223|421:208,2,110,0|8|0,0:0|0:0|0:0,0:0:0:0:
211,155,56485,1,8,0:0:0:0:
150,62,56758,2,0,P|87:43|25:61,1,110,0|8,0:0|0:0,0:0:0:0:
88,152,57303,1,0,0:0:0:0:
34,248,57576,1,8,0:0:0:0:
106,331,57849,6,0,B|142:327|142:327|204:282|286:318|286:318|318:318,1,220,4|0,0:0|0:0,0:0:0:0:
422,353,58667,1,8,0:0:0:0:
397,245,58940,2,0,P|409:191|396:134,2,110,0|8|0,0:0|0:0|0:0,0:0:0:0:
301,189,59758,1,8,0:0:0:0:
216,118,60031,6,0,P|151:106|100:129,1,110,0|8,0:0|0:0,0:0:0:0:
67,221,60576,2,0,L|34:291,2,55,0|0|8,0:0|0:0|0:0,0:0:0:0:
177,222,61122,1,0,0:0:0:0:
284,241,61394,2,0,L|280:360,1,110,12|0,0:0|0:0,0:0:0:0:
171,330,61940,1,8,0:0:0:0:
84,263,62212,6,0,P|100:157|199:125,1,220,4|0,0:0|0:0,0:0:0:0:
290,66,63031,1,8,0:0:0:0:
356,154,63303,2,0,P|434:150|474:133,2,110,0|8|0,0:0|0:0|0:0,0:0:0:0:
274,228,64122,1,8,0:0:0:0:
195,151,64394,6,0,P|117:147|77:130,2,110,0|8|0,0:0|0:0|0:0,0:0:0:0:
274,228,65212,1,8,0:0:0:0:
367,285,65485,2,0,B|401:209|349:148|349:148|381:127|430:122,1,220,0|0,0:0|0:0,0:0:0:0:
474,217,66303,1,8,0:0:0:0:
506,111,66576,6,0,B|494:38|414:32|414:32|369:40|326:57,1,220,4|0,0:0|0:0,0:0:0:0:
232,106,67394,1,8,0:0:0:0:
138,48,67667,2,0,P|123:111|136:165,1,110,0|8,0:0|0:0,0:0:0:0:
215,225,68212,2,0,P|230:288|217:342,1,110,0|8,0:0|0:0,0:0:0:0:
113,355,68758,6,0,L|351:346,1,220,0|0,0:0|0:0,0:0:0:0:
412,270,69576,1,8,0:0:0:0:
334,191,69849,2,0,P|323:122|348:77,2,110,0|8|0,0:0|0:0|0:0,0:0:0:0:
257,270,70667,1,8,0:0:0:0:
169,202,70940,6,0,P|94:186|96:265,2,165,4|0|8,0:0|0:0|0:0,0:0:0:0:
252,130,72031,2,0,P|327:114|325:193,2,165,0|0|8,0:0|0:0|0:0,0:0:0:0:
251,240,73122,6,0,L|438:233,2,165,0|0|8,0:0|0:0|0:0,0:0:0:0:
158,180,74212,2,0,P|171:125|150:67,1,110
59,129,74758,2,0,P|46:184|67:242,1,110,0|8,0:0|0:0,0:0:0:0:
162,277,75303,6,0,B|213:261|253:273|253:273|281:310|336:307,2,165,0|0|8,0:0|0:0|0:0,0:0:0:0:
137,169,76394,2,0,P|143:100|61:43,2,165,0|0|8,0:0|0:0|0:0,0:0:0:0:
44,228,77485,6,0,B|14:298|36:349|36:349|71:341|95:349,2,165,0|0|8,0:0|0:0|0:0,0:0:0:0:
137,169,78576,2,0,L|258:161,1,110
255,271,79122,2,0,L|376:263,1,110,0|8,0:0|0:0,0:0:0:0:
450,333,79667,6,0,P|409:243|489:165,1,220,4|0,0:0|0:0,0:0:0:0:
461,57,80485,1,8,0:0:0:0:
353,33,80758,2,0,B|262:51|182:40|182:40|207:100,1,220
261,177,81576,1,8,0:0:0:0:
150,178,81849,6,0,P|109:191|31:180,1,110,4|0,0:0|0:0,0:0:0:0:
88,84,82394,2,0,P|129:71|207:82,1,110,0|8,0:0|0:0,0:0:0:0:
261,177,82940,2,0,B|251:307|251:307|272:335,2,165,0|0|8,0:0|0:0|0:0,0:0:0:0:
315,81,84031,6,0,P|405:80|425:162,2,165,0|0|8,0:0|0:0|0:0,0:0:0:0:
249,169,85122,2,0,P|181:175|135:154,1,110
71,76,85667,1,0,0:0:0:0:
34,179,85940,1,0,0:0:0:0:
71,281,86212,6,0,P|91:332|3:332,2,165,0|0|8,0:0|0:0|0:0,0:0:0:0:
171,326,87303,1,0,0:0:0:0:
35,24,88122,1,0,0:0:0:0:
139,57,88394,6,0,B|221:59|249:140|249:140|283:155|330:137,1,220
413,84,89212,1,8,0:0:0:0:
460,182,89485,6,0,B|476:231|476:231|433:279|462:312|462:312|397:303|364:355|364:355|321:296|289:314,1,330
214,248,90576,6,0,P|215:172|147:111,2,165,4|0|8,0:0|0:0|0:0,0:0:0:0:
133,323,91667,2,0,B|102:285|104:229|104:229|23:265,2,165,0|0|8,0:0|0:0|0:0,0:0:0:0:
238,353,92758,6,0,B|382:356|382:356|408:336,2,165,0|0|8,0:0|0:0|0:0,0:0:0:0:
240,242,93849,2,0,L|360:245,1,110
346,134,94394,2,0,L|226:131,1,110,0|8,0:0|0:0,0:0:0:0:
136,179,94940,6,0,P|67:203|44:118,2,165,4|0|8,0:0|0:0|0:0,0:0:0:0:
230,122,96031,2,0,P|299:98|322:183,2,165,0|0|8,0:0|0:0|0:0,0:0:0:0:
184,222,97122,6,0,L|190:333,1,110
299,349,97667,2,0,L|293:238,1,110,8|8,3:0|0:0,0:0:0:0:
388,183,98212,1,0,0:0:0:0:
292,127,98485,2,0,L|264:61,2,55,8|8|8,0:3|0:3|0:3,0:0:0:0:
388,183,99031,1,8,0:0:0:0:
342,282,99303,6,0,B|307:304|261:293|261:293|234:326|164:326,2,165,4|0|8,0:0|0:0|0:0,0:0:0:0:
424,354,100394,2,0,P|446:313|441:236,1,110,0|8,0:0|0:0,0:0:0:0:
366,174,100940,1,0,0:0:0:0:
417,77,101212,1,8,0:0:0:0:
313,40,101485,6,0,P|249:55|198:48,1,110,0|8,0:0|0:0,0:0:0:0:
95,40,102031,2,0,P|49:87|39:140,1,110,0|8,0:0|0:0,0:0:0:0:
118,210,102576,2,0,B|171:235|171:235|180:329|269:350,1,220,0|0,0:0|0:0,0:0:0:0:
363,318,103394,1,8,0:0:0:0:
293,233,103667,6,0,P|283:197|387:185,2,165,4|0|8,0:0|0:0|0:0,0:0:0:0:
362,318,104758,2,0,L|485:313,1,110,4|8,0:0|0:0,0:0:0:0:
482,203,105303,2,0,P|465:149|478:94,1,110,0|8,0:0|0:0,0:0:0:0:
377,47,105849,6,0,B|318:84|267:54|267:54|224:102|167:75|167:75|122:123|73:128,1,330,0|8,0:0|0:0,0:0:0:0:
89,237,106940,2,0,P|101:300|78:352,2,110,0|8|0,0:0|0:0|0:0,0:0:0:0:
156,149,107758,1,8,0:0:0:0:
213,245,108031,6,0,B|249:222|281:228|281:228|330:300|426:285,1,220,4|0,0:0|0:0,0:0:0:0:
484,207,108849,1,8,0:0:0:0:
386,159,109122,2,0,P|364:88|396:47,2,110,0|8|0,0:0|0:0|0:0,0:0:0:0:
301,229,109940,1,8,0:0:0:0:
209,169,110212,6,0,P|136:161|91:176,2,110,0|8|0,0:0|0:0|0:0,0:0:0:0:
301,229,111031,1,8,0:0:0:0:
362,322,111303,2,0,P|425:341|487:323,1,110,0|8,0:0|0:0,0:0:0:0:
424,232,111849,1,0,0:0:0:0:
478,136,112122,1,8,0:0:0:0:
406,53,112394,6,0,B|370:57|370:57|308:102|226:66|226:66|194:66,1,220,4|0,0:0|0:0,0:0:0:0:
90,31,113212,1,8,0:0:0:0:
115,139,113485,2,0,P|103:193|116:250,2,110,0|8|0,0:0|0:0|0:0,0:0:0:0:
211,195,114303,1,8,0:0:0:0:
296,266,114576,6,0,P|361:278|412:255,1,110,0|8,0:0|0:0,0:0:0:0:
445,163,115122,2,0,L|445:94,2,55,0|0|8,0:0|0:0|0:0,0:0:0:0:
335,165,115667,2,0,B|291:147|241:161|241:161|206:106|236:56|264:54,1,220
369,39,116485,1,8,0:0:0:0:
434,128,116758,6,0,P|424:232|324:267,1,220,4|0,0:0|0:0,0:0:0:0:
226,313,117576,1,8,0:0:0:0:
156,230,117849,2,0,P|78:234|38:251,2,110,0|8|0,0:0|0:0|0:0,0:0:0:0:
238,156,118667,1,8,0:0:0:0:
317,233,118940,6,0,P|395:237|435:254,2,110,0|8|0,0:0|0:0|0:0,0:0:0:0:
238,156,119758,1,8,0:0:0:0:
145,99,120031,2,0,B|111:175|163:236|163:236|131:257|82:262,1,220,0|0,0:0|0:0,0:0:0:0:
38,167,120849,1,8,0:0:0:0:
6,273,121122,6,0,B|18:346|98:352|98:352|143:344|186:327,1,220,4|0,0:0|0:0,0:0:0:0:
280,278,121940,1,8,0:0:0:0:
374,336,122212,2,0,P|389:273|376:219,1,110,0|8,0:0|0:0,0:0:0:0:
297,159,122758,2,0,P|282:96|295:42,1,110,0|8,0:0|0:0,0:0:0:0:
399,29,123303,6,0,L|161:38,1,220,0|0,0:0|0:0,0:0:0:0:
100,114,124122,1,8,0:0:0:0:
178,193,124394,2,0,P|189:262|164:307,2,110,0|8|0,0:0|0:0|0:0,0:0:0:0:
255,114,125212,1,8,0:0:0:0:
350,168,125485,5,4,0:0:0:0:
67,72,142940,6,0,P|157:58|122:226,1,330,4|8,0:0|0:0,0:0:0:0:
100,332,144031,2,0,P|220:303|312:121,1,330,0|8,0:0|0:0,0:0:0:0:
202,135,145122,6,0,P|263:282|414:336,1,330,0|8,0:0|0:0,0:0:0:0:
383,230,146212,2,0,P|307:110|445:76,1,330,0|8,0:0|3:0,0:0:0:0:
474,181,147303,6,0,B|410:157|312:216|312:216|217:236|151:183,1,330,0|8,0:0|0:0,0:0:0:0:
116,291,148394,2,0,B|225:357|342:324|342:324|397:334|452:358,1,330,0|8,0:0|0:0,0:0:0:0:
481,250,149485,6,0,B|427:221|375:214|375:214|446:128|367:66|367:66|300:60,1,330,0|8,0:0|0:0,0:0:0:0:
262,155,150576,2,0,P|200:177|143:167,2,110,0|8|8,0:0|3:0|0:0,0:0:0:0:
47,103,151667,6,0,B|129:157|96:284|96:284|143:327|235:295,1,330,0|8,0:0|0:0,0:0:0:0:
327,303,152758,2,0,B|401:329|448:286|448:286|415:159|497:105,1,330,0|8,0:0|0:0,0:0:0:0:
401,49,153849,6,0,P|225:100|90:45,1,330,0|8,0:0|0:0,0:0:0:0:
47,148,154940,2,0,B|140:221|271:215|271:215|244:302,1,330,0|8,0:3|0:3,0:3:0:0:
348,337,156031,1,0,0:0:0:0:
348,337,157122,6,0,B|351:248|465:227|465:227|481:135|396:88,1,330,0|8,0:0|0:0,0:0:0:0:
300,70,158212,6,0,P|127:156|70:67,1,330,0|8,0:0|0:0,0:0:0:0:
181,72,159303,2,0,P|175:189|82:224,1,220,0|8,0:0|3:0,0:0:0:0:
70,333,160122,1,8,0:0:0:0:
65,124,162576,6,0,L|284:95,1,220,4|0,0:0|0:0,0:0:0:0:
299,314,163667,2,0,L|80:343,1,220,0|0,0:0|0:0,0:0:0:0:
269,228,164758,6,0,P|351:233|378:358,1,220
249,175,165849,2,0,P|167:170|140:45,1,220,0|0,0:0|0:0,0:0:0:0:
354,72,166940,5,0,0:0:0:0:
354,72,167485,1,0,0:0:0:0:
208,237,168031,1,0,0:0:0:0:
208,237,168576,1,0,0:0:0:0:
79,58,169122,6,0,B|200:52|200:52|240:96|201:153,1,220
93,331,170212,1,4,0:0:0:0:
93,331,171303,6,0,P|96:263|17:190,2,165,0|0|8,0:0|0:0|0:0,0:0:0:0:
200,354,172394,2,0,L|370:344,2,165,0|0|8,0:0|0:0|0:0,0:0:0:0:
176,246,173485,6,0,P|157:162|94:105,2,165,0|0|8,0:0|0:0|0:0,0:0:0:0:
274,294,174576,2,0,L|386:231,1,110
370,129,175122,2,0,L|258:66,1,110,0|8,0:0|0:0,0:0:0:0:
179,131,175667,6,0,P|107:142|97:54,2,165,0|0|8,0:0|0:0|0:0,0:0:0:0:
277,180,176758,2,0,B|280:312|280:312|242:350,2,165,0|0|8,0:0|0:0|0:0,0:0:0:0:
369,120,177849,6,0,P|450:119|476:44,2,165,0|0|8,0:0|0:0|0:0,0:0:0:0:
264,84,178940,1,0,0:0:0:0:
179,153,179212,2,0,P|98:173|51:160,2,110
264,84,180031,6,0,B|404:97|404:97|473:170,1,220,4|0,0:0|0:0,0:0:0:0:
378,230,180849,1,8,0:0:0:0:
300,308,181122,2,0,P|354:336|411:337,2,110,0|8|0,0:0|0:0|0:0,0:0:0:0:
250,209,181940,1,8,0:0:0:0:
186,298,182212,6,0,B|108:334|80:297|80:297|102:223|36:197,1,220,0|0,0:0|0:0,0:0:0:0:
32,96,183031,1,8,0:0:0:0:
127,42,183303,2,0,L|248:45,1,110,0|8,0:0|0:0,0:0:0:0:
199,148,183849,2,0,L|299:203,1,110,0|8,0:0|0:0,0:0:0:0:
389,258,184394,6,0,P|322:251|357:361,1,220,4|0,0:0|0:0,0:0:0:0:
452,346,185212,1,8,0:0:0:0:
507,250,185485,2,0,L|511:130,2,110,0|8|0,0:0|0:0|0:0,0:0:0:0:
452,346,186303,1,8,0:0:0:0:
345,317,186576,6,0,P|269:296|224:309,1,110,0|8,0:0|0:0,0:0:0:0:
129,296,187122,2,0,P|74:290|24:310,1,110,0|8,0:0|0:0,0:0:0:0:
37,200,187667,1,0,0:0:0:0:
138,157,187940,2,0,P|196:160|255:173,1,110,12|0,0:0|0:0,0:0:0:0:
349,210,188485,1,8,0:0:0:0:
442,268,188758,6,0,B|482:194|427:130|427:130|433:90|463:55,1,220,4|0,0:0|0:0,0:0:0:0:
347,40,189576,1,8,0:0:0:0:
262,109,189849,2,0,P|188:109|148:69,1,110,0|8,0:0|0:0,0:0:0:0:
59,129,190394,2,0,L|64:254,1,110,0|8,0:0|0:0,0:0:0:0:
172,255,190940,6,0,P|233:246|297:274,2,110,0|8|0,0:0|0:0|0:0,0:0:0:0:
102,339,191758,1,8,0:0:0:0:
211,351,192031,2,0,B|320:351|320:351|434:335,1,220
469,232,192849,1,8,0:0:0:0:
372,179,193122,6,0,P|364:112|480:142,1,220,4|0,0:0|0:0,0:0:0:0:
469,232,193940,1,8,0:0:0:0:
369,278,194212,2,0,L|248:310,1,110,0|8,0:0|0:0,0:0:0:0:
159,266,194758,1,0,0:0:0:0:
199,163,195031,1,8,0:0:0:0:
157,61,195303,6,0,L|39:48,2,110,0|8|0,0:0|0:0|0:0,0:0:0:0:
265,81,196122,1,8,0:0:0:0:
372,59,196394,2,0,L|490:46,2,110,0|8|0,0:0|0:0|0:0,0:0:0:0:
335,162,197212,1,8,0:0:0:0:
262,244,197485,6,0,P|250:302|271:359,2,110,0|8|0,0:0|0:0|0:0,0:0:0:0:
231,138,198303,1,8,0:0:0:0:
142,72,198576,2,0,B|87:59|87:59|107:143|18:199,1,220,0|0,0:0|0:0,0:0:0:0:
68,296,199394,1,8,0:0:0:0:
173,327,199667,5,4,0:0:0:0:
