osu file format v14

[General]
AudioFilename: Elegy.mp3
AudioLeadIn: 0
PreviewTime: 53084
Countdown: 0
SampleSet: Soft
StackLeniency: 0.7
Mode: 0
LetterboxInBreaks: 0
WidescreenStoryboard: 0

[Editor]
DistanceSpacing: 1.3
BeatDivisor: 4
GridSize: 16
TimelineZoom: 1

[Metadata]
Title:Toumei Elegy
TitleUnicode:透明エレジー
Artist:Konuko
ArtistUnicode:こぬこ
Creator:Awaken
Version:Hard
Source:
Tags:櫻花アリス ナブナ Regraz Kawaiwkyik Rizia Evil_Twilight skystar amamiya yuko n-buna ouka alice megpoid gumi utau vocaloid
BeatmapID:637625
BeatmapSetID:219380

[Difficulty]
HPDrainRate:5
CircleSize:4
OverallDifficulty:6
ApproachRate:8
SliderMultiplier:1.5
SliderTickRate:1

[Events]
//Background and Video events
0,0,"Itai.jpg",0,0
//Break Periods
2,9857,17826
2,71140,78644
2,125685,133462
2,143140,150917
2,160458,161826
//Storyboard Layer 0 (Background)
//Storyboard Layer 1 (Fail)
//Storyboard Layer 2 (Pass)
//Storyboard Layer 3 (Foreground)
//Storyboard Sound Samples

[TimingPoints]
1122,272.727272727273,4,2,1,60,1,0
1122,-200,4,2,1,60,0,0
18031,-100,4,2,1,80,0,0
27303,-200,4,2,1,60,0,0
36031,-100,4,2,1,60,0,0
44758,-133.333333333333,4,2,1,65,0,0
53213,-100,4,2,1,50,0,0
53485,-100,4,2,1,90,0,1
70940,-100,4,2,1,60,0,0
81849,-200,4,2,1,60,0,0
100394,-100,4,2,1,60,0,0
107485,-100,4,2,1,80,0,0
108031,-100,4,2,1,90,0,1
125485,-100,4,2,1,90,0,0
142940,-100,4,2,1,60,0,0
162577,-100,4,2,2,30,0,0
171303,-200,4,2,2,60,0,0
180031,-100,4,2,1,90,0,1
199667,-100,4,2,1,90,0,0

[Colours]
Combo1 : 243,7,7
Combo2 : 107,196,98
Combo3 : 77,193,185
Combo4 : 99,216,169
Combo5 : 201,198,186
Combo6 : 126,123,116

[HitObjects]
354,139,1122,6,0,B|328:155|304:152|304:152|261:124|226:130|226:130|183:158|141:139,1,225,0|8,0:0|0:0,0:0:0:0:
191,256,2212,2,0,B|218:241|242:244|242:244|285:272|320:266|320:266|363:238|405:257,1,225,0|8,0:0|0:0,0:0:0:0:
138,313,3303,6,0,B|104:291|113:234|113:234|134:198|118:159|118:159|88:143|75:112,1,225,0|8,0:0|0:0,0:0:0:0:
212,33,4394,2,0,B|246:55|237:112|237:112|216:148|232:187|232:187|262:203|275:234,1,225,0|8,0:0|0:0,0:0:0:0:
272,228,5485,5,0,0:0:0:0:
65,360,6576,1,0,0:0:0:0:
65,360,7667,6,0,L|55:211,2,150,0|0|8,0:0|0:0|0:0,0:0:0:0:
352,145,18576,6,0,L|341:230,1,75,4|0,0:0|0:0,0:0:0:0:
270,273,18849,2,0,L|276:355,1,75,8|0,0:0|0:0,0:0:0:0:
194,207,19122,1,0,0:0:0:0:
194,207,19258,1,0,0:0:0:0:
253,138,19394,2,0,B|256:101|256:101|246:54,1,75,8|0,0:0|0:0,0:0:0:0:
97,200,19667,6,0,P|106:254|194:296,1,150,0|8,0:0|0:0,0:0:0:0:
248,361,20076,1,0,0:0:0:0:
248,361,20212,2,0,L|331:351,1,75
389,291,20485,2,0,L|485:300,1,75,8|0,0:0|0:0,0:0:0:0:
507,218,20758,6,0,B|509:179|509:179|498:148|498:148|509:111|496:66,1,150,0|8,0:0|0:0,0:0:0:0:
175,124,21303,2,0,B|173:163|173:163|184:194|184:194|173:231|186:276,1,150,0|8,0:0|0:0,0:0:0:0:
266,232,21712,2,0,B|295:262|295:262|340:279,2,75
395,313,22122,6,0,L|475:303,1,75,8|0,0:0|0:0,0:0:0:0:
314,357,22394,2,0,B|274:348|274:348|223:377|158:350,1,150,0|8,0:0|0:0,0:0:0:0:
102,294,22803,1,0,0:0:0:0:
102,294,22940,6,0,L|98:210,1,75
183,172,23212,2,0,L|189:88,1,75,8|0,0:0|0:0,0:0:0:0:
249,20,23485,1,0,0:0:0:0:
249,20,23622,1,0,0:0:0:0:
304,99,23758,2,0,L|393:111,1,75,8|0,0:0|0:0,0:0:0:0:
457,64,24031,6,0,P|465:140|410:197,1,150,0|8,0:0|0:0,0:0:0:0:
322,200,24440,1,0,0:0:0:0:
354,291,24576,2,0,L|268:290,1,75
205,354,24849,2,0,L|128:352,1,75,8|0,0:0|0:0,0:0:0:0:
63,280,25122,6,0,P|35:218|63:139,1,150,0|8,0:0|0:0,0:0:0:0:
144,114,25531,1,0,0:0:0:0:
127,206,25667,2,0,B|162:194|162:194|208:193,1,75
310,103,25940,2,0,B|275:115|275:115|229:116,1,75,8|0,0:0|0:0,0:0:0:0:
322,200,26212,6,0,P|391:203|440:273,1,150,4|8,0:0|0:0,0:0:0:0:
180,44,26758,2,0,L|265:32,1,75
310,103,27031,2,0,L|396:101,1,75,8|0,0:0|0:0,0:0:0:0:
461,148,27303,5,4,0:0:0:0:
297,307,29485,6,0,L|182:301,2,112.5,0|0|8,0:0|0:0|0:0,0:0:0:0:
376,348,30576,1,0,0:0:0:0:
86,133,31667,6,0,B|74:176|74:176|91:241,2,112.5,0|0|8,0:0|0:0|0:0,0:0:0:0:
58,47,32758,1,0,0:0:0:0:
384,197,33849,6,0,P|335:198|286:150,2,112.5,0|0|8,0:0|0:0|0:0,0:0:0:0:
437,269,34940,1,0,0:0:0:0:
369,327,35212,2,0,L|217:318,1,150,0|8,0:0|0:0,0:0:0:0:
159,147,36031,6,0,L|147:231,2,75,4|0|0,0:0|0:0|0:0,0:0:0:0:
216,76,36440,2,0,P|274:65|377:93,1,150
433,139,36849,1,8,0:0:0:0:
334,290,37122,6,0,L|251:276,2,75
285,366,37531,2,0,P|236:353|128:369,1,150
51,340,37940,1,8,0:0:0:0:
126,176,38212,6,0,L|213:193,1,75
285,162,38485,1,0,0:0:0:0:
364,205,38622,2,0,P|414:206|475:132,1,150
385,120,39031,1,8,0:0:0:0:
117,288,39303,6,0,P|97:271|47:259,2,75
188,351,39712,2,0,B|238:367|238:367|352:352,1,150
423,336,40122,1,8,0:0:0:0:
190,140,40394,6,0,L|199:53,2,75
269,182,40803,2,0,P|233:215|132:204,1,150
190,140,41212,1,8,0:0:0:0:
436,229,41485,6,0,L|513:252,1,75
354,198,41758,1,0,0:0:0:0:
384,294,41894,2,0,B|334:282|334:282|233:308,1,150
152,335,42303,1,8,0:0:0:0:
90,96,42576,6,0,P|139:120|235:94,1,150
270,179,42985,1,0,0:0:0:0:
187,216,43122,2,0,B|143:207|143:207|29:227,2,150
260,267,43803,1,0,0:0:0:0:
346,239,43940,2,0,L|433:232,1,75
467,309,44212,5,0,0:0:0:0:
344,146,44485,1,0,0:0:0:0:
293,349,44758,6,0,P|208:333|191:204,2,225.000008583069,4|0|0,0:0|0:0|0:0,0:0:0:0:
260,143,46122,2,0,B|263:24,2,112.500004291535
350,154,46940,5,0,0:0:0:0:
408,214,47212,1,0,0:0:0:0:
482,174,47485,1,0,0:0:0:0:
463,91,47758,1,0,0:0:0:0:
380,73,48031,5,0,0:0:0:0:
372,331,48576,2,0,B|439:317|439:317|483:326,1,112.500004291535
292,251,49122,6,0,P|199:253|160:139,1,225.000008583069,4|0,0:0|0:0,0:0:0:0:
427,169,49940,2,0,B|443:225|443:225|436:287,2,112.500004291535
149,307,50758,1,0,0:0:0:0:
146,320,51031,1,0,0:0:0:0:
143,333,51303,6,0,L|133:217,1,112.500004291535
374,233,51849,2,0,L|364:345,1,112.500004291535
257,154,52394,5,0,0:0:0:0:
257,139,52667,1,0,0:0:0:0:
257,124,52940,1,0,0:0:0:0:
290,234,53212,5,0,0:0:0:0:
290,234,53485,6,0,P|251:241|177:163,2,150,4|8|0,0:0|0:0|0:0,0:0:0:0:
364,169,54167,1,0,0:0:0:0:
431,239,54303,2,0,L|424:316,1,75,8|0,0:0|0:0,0:0:0:0:
337,359,54576,6,0,B|296:367|296:367|262:357|262:357|227:370|179:345,1,150,0|8,0:0|0:0,0:0:0:0:
141,266,54985,1,0,0:0:0:0:
141,266,55122,2,0,B|145:232|145:232|136:185,1,75,0|0,0:0|0:0,0:0:0:0:
228,157,55394,2,0,L|229:80,1,75,8|0,0:0|0:0,0:0:0:0:
326,88,55667,6,0,P|370:80|454:153,2,150,0|8|0,0:0|0:0|0:0,0:0:0:0:
363,178,56349,2,0,B|355:214|355:214|361:266,1,75,0|8,0:0|0:0,0:0:0:0:
293,319,56622,1,0,0:0:0:0:
224,249,56758,5,0,0:0:0:0:
224,249,56894,1,0,0:0:0:0:
190,340,57031,2,0,L|116:347,1,75,8|0,0:0|0:0,0:0:0:0:
32,296,57303,2,0,P|21:259|31:210,1,75,0|0,0:0|0:0,0:0:0:0:
104,164,57576,2,0,L|144:172,3,37.5,8|0|0|0,0:0|0:0|0:0|0:0,0:0:0:0:
175,147,57849,6,0,L|252:134,1,75,0|0,0:0|0:0,0:0:0:0:
311,59,58122,2,0,P|348:68|396:64,1,75,8|0,0:0|0:0,0:0:0:0:
460,127,58394,2,0,P|487:193|450:267,1,150,0|8,0:0|0:0,0:0:0:0:
363,292,58803,1,0,0:0:0:0:
363,292,58940,6,0,L|211:271,1,150,0|8,0:0|0:0,0:0:0:0:
151,346,59349,1,0,0:0:0:0:
62,306,59485,2,0,L|51:224,1,75
124,165,59758,2,0,B|124:123|124:123|112:83,1,75,8|0,0:0|0:0,0:0:0:0:
193,33,60031,6,0,B|264:28|264:28|356:45,1,150,0|8,0:0|0:0,0:0:0:0:
395,124,60440,1,0,0:0:0:0:
395,124,60576,2,0,L|383:205,1,75,0|0,0:0|0:0,0:0:0:0:
288,221,60849,2,0,L|300:311,1,75,8|0,0:0|0:0,0:0:0:0:
372,358,61122,5,0,0:0:0:0:
215,162,61394,1,12,0:0:0:0:
106,360,61667,2,0,P|44:347|9:263,1,150,0|8,0:0|0:0,0:0:0:0:
105,269,62076,1,0,0:0:0:0:
105,269,62212,6,0,L|110:187,1,75
211,293,62485,2,0,L|216:375,1,75,8|0,0:0|0:0,0:0:0:0:
288,221,62758,2,0,P|369:213|441:232,1,150,0|8,0:0|0:0,0:0:0:0:
500,157,63167,1,0,0:0:0:0:
434,85,63303,6,0,L|274:98,1,150,0|8,0:0|0:0,0:0:0:0:
204,40,63712,1,0,0:0:0:0:
128,101,63849,2,0,L|131:178,1,75
75,256,64122,2,0,B|90:290|90:290|93:336,1,75,8|0,0:0|0:0,0:0:0:0:
181,367,64394,6,0,P|244:369|290:287,1,150,0|8,0:0|0:0,0:0:0:0:
372,357,64803,1,0,0:0:0:0:
376,259,64940,2,0,L|363:183,1,75
456,157,65212,2,0,L|461:78,1,75,8|0,0:0|0:0,0:0:0:0:
388,16,65485,5,0,0:0:0:0:
388,16,65622,1,0,0:0:0:0:
307,71,65758,2,0,L|223:64,1,75,8|0,0:0|0:0,0:0:0:0:
142,103,66031,2,0,P|123:184|148:254,1,150,0|8,0:0|0:0,0:0:0:0:
223,300,66440,1,0,0:0:0:0:
223,300,66576,6,0,L|301:294,1,75
360,219,66849,2,0,L|443:227,1,75,8|0,0:0|0:0,0:0:0:0:
371,300,67122,2,0,P|311:287|288:197,1,150,0|8,0:0|0:0,0:0:0:0:
352,139,67531,1,0,0:0:0:0:
448,151,67667,6,0,L|452:74,1,75
348,64,67940,2,0,L|351:138,1,75,8|0,0:0|0:0,0:0:0:0:
273,195,68212,2,0,P|207:204|157:138,1,150,0|8,0:0|0:0,0:0:0:0:
83,209,68622,5,0,0:0:0:0:
149,280,68758,2,0,L|139:358,1,75
262,360,69031,2,0,L|251:269,1,75,8|0,0:0|0:0,0:0:0:0:
342,247,69303,2,0,P|355:213|351:159,1,75
287,104,69576,2,0,B|276:67|276:67|281:23,1,75,8|0,0:0|0:0,0:0:0:0:
375,54,69849,1,4,0:0:0:0:
256,192,69917,12,4,70940,0:0:0:0:
156,61,79394,5,8,0:0:0:0:
156,61,79667,6,0,L|152:145,1,75
86,208,79940,2,0,B|84:247|84:247|98:287,1,75,8|0,0:0|0:0,0:0:0:0:
183,323,80212,2,0,P|257:307|336:324,2,150,0|8|0,0:0|0:0|0:0,0:0:0:0:
97,370,80894,6,0,L|22:367,2,75,0|8|0,0:0|0:0|0:0,0:0:0:0:
183,324,81303,2,0,B|189:289|189:289|181:240,1,75
141,161,81576,2,0,B|134:122|134:122|140:87,1,75,8|0,0:0|0:0,0:0:0:0:
219,29,81849,5,4,0:0:0:0:
399,249,84031,6,0,L|280:240,2,112.5
487,207,85122,1,0,0:0:0:0:
102,144,86212,6,0,B|90:196|90:196|103:267,2,112.5
68,52,87303,1,0,0:0:0:0:
363,306,88394,6,0,B|319:317|319:317|288:299|241:307,2,112.5
446,255,89485,2,0,L|451:227,11,18.75
435,216,90303,2,0,L|431:193,3,18.75
448,179,90576,6,0,B|456:142|456:142|449:65,2,112.5,0|0|8,0:0|0:0|0:0,0:0:0:0:
366,145,91667,2,0,B|354:108|354:108|309:45,2,112.5,0|0|8,0:0|0:0|0:0,0:0:0:0:
271,144,92758,2,0,B|242:118|242:118|172:86,2,112.5,0|0|8,0:0|0:0|0:0,0:0:0:0:
314,231,93849,6,0,B|326:268|326:268|311:306|322:348,2,112.5,0|0|8,0:0|0:0|0:0,0:0:0:0:
225,271,94940,2,0,B|216:309|216:309|184:334|173:376,2,112.5,0|0|8,0:0|0:0|0:0,0:0:0:0:
127,276,96031,2,0,B|100:304|100:304|60:310|29:341,2,112.5,0|0|8,0:0|0:0|0:0,0:0:0:0:
165,186,97122,6,0,L|142:24,2,150
257,217,98485,2,0,L|261:179,1,37.5
269,99,98758,1,0,0:0:0:0:
290,295,99031,1,8,0:0:0:0:
220,30,99303,6,0,P|258:18|354:79,1,150,4|0,0:0|0:0,0:0:0:0:
353,83,100394,6,0,L|346:168,1,75
279,228,100667,2,0,L|285:308,1,75,8|0,0:0|0:0,0:0:0:0:
383,359,100940,2,0,L|387:271,1,75
441,203,101212,2,0,B|445:168|445:168|438:112,1,75,8|0,0:0|0:0,0:0:0:0:
353,83,101485,6,0,L|193:67,1,150,0|8,0:0|0:0,0:0:0:0:
122,123,101894,1,0,0:0:0:0:
29,89,102031,2,0,P|24:130|36:171,1,75
105,225,102303,2,0,B|108:268|108:268|95:312,1,75,8|0,0:0|0:0,0:0:0:0:
176,358,102576,6,0,P|251:373|330:334,1,150,0|8,0:0|0:0,0:0:0:0:
409,376,102985,1,0,0:0:0:0:
488,318,103122,2,0,L|480:238,1,75
426,162,103394,2,0,B|391:153|391:153|339:159,1,75,8|0,0:0|0:0,0:0:0:0:
261,192,103667,6,0,P|210:195|147:110,1,150,0|8,0:0|0:0,0:0:0:0:
242,100,104076,1,0,0:0:0:0:
335,125,104212,2,0,L|343:43,1,75
426,162,104485,2,0,L|434:250,1,75,8|0,0:0|0:0,0:0:0:0:
382,320,104758,6,0,P|327:337|239:288,1,150,0|8,0:0|0:0,0:0:0:0:
173,364,105167,1,0,0:0:0:0:
82,329,105303,2,0,L|71:244,1,75
162,215,105576,2,0,L|162:130,1,75,8|0,0:0|0:0,0:0:0:0:
127,48,105849,5,0,0:0:0:0:
261,189,106122,1,12,0:0:0:0:
127,48,106394,1,0,0:0:0:0:
66,233,106667,1,8,0:0:0:0:
205,101,106940,5,0,0:0:0:0:
219,105,107212,1,0,0:0:0:0:
233,109,107485,2,0,L|271:98,3,37.5
302,79,107758,2,0,L|351:88,3,37.5
372,103,108031,6,0,P|399:163|360:256,1,150,4|8,0:0|0:0,0:0:0:0:
303,174,108440,2,0,B|278:207|278:207|243:220,2,75,0|0|0,0:0|0:0|0:0,0:0:0:0:
301,286,108849,2,0,L|317:362,1,75,8|0,0:0|0:0,0:0:0:0:
216,297,109122,6,0,P|176:265|190:163,1,150,0|8,0:0|0:0,0:0:0:0:
110,104,109531,1,0,0:0:0:0:
48,179,109667,2,0,L|58:258,1,75,0|0,0:0|0:0,0:0:0:0:
110,104,109940,2,0,L|108:18,1,75,8|0,0:0|0:0,0:0:0:0:
198,65,110212,6,0,P|238:77|356:63,1,150,0|8,0:0|0:0,0:0:0:0:
424,125,110622,1,0,0:0:0:0:
424,125,110758,2,0,B|439:167|439:167|441:212,1,75,0|0,0:0|0:0,0:0:0:0:
292,241,111031,2,0,B|324:226|324:226|342:190,1,75,8|0,0:0|0:0,0:0:0:0:
401,279,111303,5,0,0:0:0:0:
401,279,111440,1,0,0:0:0:0:
318,329,111576,2,0,L|222:320,1,75,8|0,0:0|0:0,0:0:0:0:
183,244,111849,2,0,P|146:306|169:381,1,150,0|8,0:0|0:0,0:0:0:0:
67,377,112258,1,0,0:0:0:0:
55,280,112394,6,0,L|44:195,1,75,4|0,0:0|0:0,0:0:0:0:
124,148,112667,2,0,B|129:113|129:113|119:63,1,75,8|0,0:0|0:0,0:0:0:0:
211,36,112940,2,0,P|284:33|362:72,1,150,0|8,0:0|0:0,0:0:0:0:
397,151,113349,1,0,0:0:0:0:
397,151,113485,6,0,L|389:231,1,75
308,280,113758,2,0,L|317:362,1,75,8|0,0:0|0:0,0:0:0:0:
216,233,114031,2,0,P|166:225|85:285,1,150,0|8,0:0|0:0,0:0:0:0:
7,222,114440,1,0,0:0:0:0:
76,154,114576,6,0,L|70:74,1,75
167,19,114849,2,0,L|167:94,1,75,8|0,0:0|0:0,0:0:0:0:
248,147,115122,1,0,0:0:0:0:
248,147,115258,1,0,0:0:0:0:
331,97,115394,2,0,B|366:105|366:105|404:127,1,75,8|0,0:0|0:0,0:0:0:0:
444,211,115667,6,0,L|424:362,1,150,0|8,0:0|0:0,0:0:0:0:
328,379,116076,1,0,0:0:0:0:
245,327,116212,2,0,P|209:342|159:344,1,75
105,274,116485,2,0,L|97:191,1,75,8|0,0:0|0:0,0:0:0:0:
116,103,116758,6,0,P|49:118|10:188,2,150,4|8|0,0:0|0:0|0:0,0:0:0:0:
197,157,117440,1,0,0:0:0:0:
294,151,117576,2,0,L|297:60,1,75,8|0,0:0|0:0,0:0:0:0:
214,22,117849,6,0,B|174:30|174:30|142:23|142:23|106:39|59:23,1,150,0|8,0:0|0:0,0:0:0:0:
20,111,118258,1,0,0:0:0:0:
84,183,118394,2,0,L|75:263,1,75
177,257,118667,2,0,L|184:338,1,75,8|0,0:0|0:0,0:0:0:0:
276,363,118940,6,0,P|335:367|411:311,1,150,0|8,0:0|0:0,0:0:0:0:
491,367,119349,1,0,0:0:0:0:
489,269,119485,2,0,B|483:234|483:234|456:187,1,75,0|0,0:0|0:0,0:0:0:0:
407,119,119758,2,0,B|404:81|404:81|415:36,1,75,8|0,0:0|0:0,0:0:0:0:
369,205,120031,6,0,B|334:210|334:210|288:202,1,75,0|0,0:0|0:0,0:0:0:0:
212,151,120303,1,8,0:0:0:0:
212,151,120440,1,0,0:0:0:0:
137,213,120576,2,0,L|133:288,1,75,0|0,0:0|0:0,0:0:0:0:
35,293,120849,2,0,L|49:376,1,75,8|0,0:0|0:0,0:0:0:0:
54,207,121122,6,0,B|47:153|47:153|1:118|16:48,1,150,0|8,0:0|0:0,0:0:0:0:
110,79,121531,1,0,0:0:0:0:
200,43,121667,2,0,L|282:64,1,75,0|0,0:0|0:0,0:0:0:0:
312,151,121940,2,0,L|406:141,1,75,8|0,0:0|0:0,0:0:0:0:
461,204,122212,5,0,0:0:0:0:
461,204,122349,1,0,0:0:0:0:
410,287,122485,2,0,L|426:378,1,75,8|0,0:0|0:0,0:0:0:0:
326,345,122758,2,0,P|280:361|188:323,1,150,0|8,0:0|0:0,0:0:0:0:
172,228,123167,1,0,0:0:0:0:
265,265,123303,6,0,L|268:176,1,75
185,137,123576,1,8,0:0:0:0:
185,137,123712,1,0,0:0:0:0:
278,108,123849,2,0,L|268:21,1,75,0|0,0:0|0:0,0:0:0:0:
173,51,124122,1,8,0:0:0:0:
173,51,124258,1,0,0:0:0:0:
97,112,124394,6,0,L|18:111,1,75,0|0,0:0|0:0,0:0:0:0:
66,198,124667,2,0,B|31:211|31:211|6:243,1,75,8|0,0:0|0:0,0:0:0:0:
94,287,124940,2,0,L|101:327,3,37.5,0|0|0|0,0:0|0:0|0:0|0:0,0:0:0:0:
143,340,125212,6,0,L|135:385,3,37.5,8|0|0|0,0:0|0:0|0:0|0:0,0:0:0:0:
219,370,125485,1,4,0:0:0:0:
123,73,134212,6,0,L|116:228,1,150,4|8,0:0|0:0,0:0:0:0:
167,307,134622,1,0,0:0:0:0:
260,282,134758,2,0,B|309:273|309:273|414:308,2,150,0|8|0,0:0|0:0|0:0,0:0:0:0:
399,111,135576,6,0,L|477:103,1,75,8|0,0:0|0:0,0:0:0:0:
426,198,135849,2,0,P|374:201|307:118,1,150,0|8,0:0|0:0,0:0:0:0:
224,85,136258,1,0,0:0:0:0:
183,173,136394,6,0,B|134:185|134:185|25:165,2,150,0|8|0,0:0|0:0|0:0,0:0:0:0:
334,295,137212,2,0,L|329:377,1,75,8|0,0:0|0:0,0:0:0:0:
237,336,137485,6,0,L|231:254,1,75,0|0,0:0|0:0,0:0:0:0:
138,292,137758,2,0,L|136:370,1,75,8|0,0:0|0:0,0:0:0:0:
48,322,138031,2,0,P|28:283|55:175,1,150,0|8,0:0|0:0,0:0:0:0:
396,345,138576,6,0,P|420:275|395:205,1,150,4|8,0:0|0:0,0:0:0:0:
304,171,138985,1,0,0:0:0:0:
304,171,139122,2,0,L|219:179,1,75,0|0,0:0|0:0,0:0:0:0:
139,141,139394,2,0,L|49:130,1,75,8|0,0:0|0:0,0:0:0:0:
22,61,139667,6,0,P|-15:111|6:201,2,150,0|8|0,0:0|0:0|0:0,0:0:0:0:
252,240,140485,2,0,L|241:319,1,75,8|0,0:0|0:0,0:0:0:0:
158,366,140758,6,0,P|85:368|31:301,2,150,0|8|0,0:0|0:0|0:0,0:0:0:0:
432,264,141576,2,0,L|419:177,1,75,8|0,0:0|0:0,0:0:0:0:
356,116,141849,6,0,P|305:137|210:128,1,150,4|8,0:0|0:0,0:0:0:0:
147,202,142258,1,0,0:0:0:0:
214,271,142394,2,0,L|303:262,1,75,0|0,0:0|0:0,0:0:0:0:
361,328,142667,1,8,0:0:0:0:
361,328,142940,5,4,0:0:0:0:
256,192,151667,5,4,0:0:0:0:
407,288,152758,1,8,0:0:0:0:
256,192,153849,5,8,0:0:0:0:
407,288,154940,1,8,0:0:0:0:
411,108,156031,5,8,0:0:0:0:
427,376,157122,5,2,0:0:0:0:
256,192,158212,5,4,0:0:0:0:
256,192,158281,12,0,160258,0:0:0:0:
256,192,162576,69,8,0:0:0:0:
256,192,163122,1,8,0:0:0:0:
256,192,163667,1,8,0:0:0:0:
256,192,164212,1,8,0:0:0:0:
256,192,164758,1,8,0:0:0:0:
256,192,165303,1,8,0:0:0:0:
256,192,165849,1,8,0:0:0:0:
256,192,166394,1,8,0:0:0:0:
358,328,166940,69,8,0:0:0:0:
358,328,167485,1,8,0:0:0:0:
358,328,168031,1,8,0:0:0:0:
358,328,168576,1,8,0:0:0:0:
174,61,169122,5,8,0:0:0:0:
150,138,169667,1,8,0:0:0:0:
120,213,170212,1,12,0:0:0:0:
429,291,171303,6,0,B|383:261|321:271|321:271|281:309|210:299,1,225,8|2,0:0|0:0,0:0:0:0:
351,349,172394,2,0,B|326:300|267:277|267:277|213:290|157:246,1,225,8|2,0:0|0:0,0:0:0:0:
244,364,173485,2,0,B|246:309|207:259|207:259|153:243|127:177,1,225,8|2,0:0|0:0,0:0:0:0:
149,323,174576,2,0,B|178:276|169:214|169:214|131:173|141:103,1,225,8|2,0:0|0:0,0:0:0:0:
384,152,175667,6,0,B|392:196|392:196|382:238|382:238|395:277|395:277|380:321|380:321|388:375,1,225,8|2,0:0|0:0,0:0:0:0:
240,288,176758,6,0,B|200:288|160:256|160:256|64:208|48:112|160:32|272:112|256:208|160:256|160:256|120:288|64:288,1,600,8|8,0:0|0:0,0:0:0:0:
27,234,180031,6,0,L|12:73,2,150,4|8|0,0:0|0:0|0:0,0:0:0:0:
20,330,180712,1,0,0:0:0:0:
109,370,180849,2,0,L|190:360,1,75,8|0,0:0|0:0,0:0:0:0:
248,287,181122,6,0,B|254:237|254:237|215:198|228:143,1,150,4|8,0:0|0:0,0:0:0:0:
322,168,181531,1,0,0:0:0:0:
343,263,181667,2,0,L|358:347,1,75,0|0,0:0|0:0,0:0:0:0:
431,198,181940,2,0,L|425:272,1,75,8|0,0:0|0:0,0:0:0:0:
453,118,182212,6,0,P|395:164|322:168,1,150,4|8,0:0|0:0,0:0:0:0:
240,108,182622,1,0,0:0:0:0:
159,163,182758,2,0,L|74:152,1,75,0|0,0:0|0:0,0:0:0:0:
100,250,183031,2,0,L|17:259,1,75,8|0,0:0|0:0,0:0:0:0:
70,344,183303,6,0,P|152:338|225:378,1,150,0|8,0:0|0:0,0:0:0:0:
291,309,183712,1,0,0:0:0:0:
248,220,183849,2,0,B|243:182|243:182|251:139,1,75,0|0,0:0|0:0,0:0:0:0:
374,315,184122,2,0,B|365:353|365:353|335:383,1,75,8|0,0:0|0:0,0:0:0:0:
340,218,184394,6,0,P|421:223|466:283,1,150,4|8,0:0|0:0,0:0:0:0:
506,171,184803,1,0,0:0:0:0:
424,106,184940,2,0,L|339:122,1,75,0|0,0:0|0:0,0:0:0:0:
262,77,185212,2,0,L|178:65,1,75,8|0,0:0|0:0,0:0:0:0:
98,106,185485,6,0,P|67:167|101:260,1,150,4|8,0:0|0:0,0:0:0:0:
174,284,185894,1,0,0:0:0:0:
174,284,186031,2,0,L|251:274,1,75,0|0,0:0|0:0,0:0:0:0:
292,360,186303,2,0,L|370:363,1,75,8|0,0:0|0:0,0:0:0:0:
445,304,186576,6,0,B|449:271|449:271|444:246|444:246|467:207|449:150,1,150,4|8,0:0|0:0,0:0:0:0:
360,194,186985,1,0,0:0:0:0:
274,158,187122,2,0,P|263:193|269:230,1,75,0|0,0:0|0:0,0:0:0:0:
412,121,187394,2,0,L|400:40,1,75,8|0,0:0|0:0,0:0:0:0:
309,12,187667,5,0,0:0:0:0:
497,64,187940,1,12,0:0:0:0:
460,254,188212,2,0,L|301:240,1,150,0|8,0:0|0:0,0:0:0:0:
212,229,188622,1,0,0:0:0:0:
131,283,188758,6,0,P|115:247|119:208,1,75,4|0,0:0|0:0,0:0:0:0:
180,137,189031,2,0,L|261:153,1,75,8|0,0:0|0:0,0:0:0:0:
317,225,189303,2,0,P|348:182|319:82,1,150,0|8,0:0|0:0,0:0:0:0:
252,31,189712,1,0,0:0:0:0:
158,57,189849,6,0,B|123:58|123:58|88:50|88:50|46:63|7:38,2,150,4|8|0,0:0|0:0|0:0,0:0:0:0:
252,31,190531,1,0,0:0:0:0:
330,88,190667,2,0,L|411:70,1,75,8|0,0:0|0:0,0:0:0:0:
476,136,190940,6,0,P|492:201|443:275,1,150,4|8,0:0|0:0,0:0:0:0:
396,188,191349,1,0,0:0:0:0:
352,274,191485,2,0,L|372:357,1,75,0|0,0:0|0:0,0:0:0:0:
264,384,191758,2,0,L|261:299,1,75,8|0,0:0|0:0,0:0:0:0:
193,238,192031,6,0,P|153:216|35:244,1,150,0|8,0:0|0:0,0:0:0:0:
0,147,192440,1,0,0:0:0:0:
0,147,192576,2,0,L|85:132,1,75,0|0,0:0|0:0,0:0:0:0:
145,67,192849,2,0,L|223:78,1,75,8|0,0:0|0:0,0:0:0:0:
272,159,193122,6,0,P|308:116|295:16,2,150,4|8|0,0:0|0:0|0:0,0:0:0:0:
221,242,193803,2,0,L|235:326,1,75,0|8,0:0|0:0,0:0:0:0:
160,381,194076,1,0,0:0:0:0:
338,384,194212,6,0,L|344:223,1,150,4|8,0:0|0:0,0:0:0:0:
432,277,194622,1,0,0:0:0:0:
423,180,194758,2,0,B|418:145|418:145|421:90,1,75
302,26,195031,2,0,B|321:57|321:57|329:104,1,75,8|0,0:0|0:0,0:0:0:0:
259,161,195303,6,0,L|95:175,1,150,4|8,0:0|0:0,0:0:0:0:
19,135,195712,1,0,0:0:0:0:
25,232,195849,2,0,L|22:324,1,75,0|0,0:0|0:0,0:0:0:0:
128,372,196122,2,0,L|120:298,1,75,8|0,0:0|0:0,0:0:0:0:
217,333,196394,6,0,P|289:338|350:284,1,150,4|8,0:0|0:0,0:0:0:0:
423,351,196803,1,0,0:0:0:0:
478,269,196940,2,0,L|471:185,1,75,0|0,0:0|0:0,0:0:0:0:
416,114,197212,1,8,0:0:0:0:
416,114,197349,1,0,0:0:0:0:
330,160,197485,6,0,B|283:167|283:167|250:158|250:158|221:181|157:163,1,150,4|8,0:0|0:0,0:0:0:0:
123,245,197894,1,0,0:0:0:0:
212,283,198031,2,0,L|204:363,1,75,0|0,0:0|0:0,0:0:0:0:
322,378,198303,2,0,L|315:292,1,75,8|0,0:0|0:0,0:0:0:0:
385,234,198576,6,0,P|435:230|489:133,1,150,2|8,0:0|0:0,0:0:0:0:
476,57,198985,1,0,0:0:0:0:
476,57,199122,1,0,0:0:0:0:
87,98,199394,6,0,L|83:181,1,75,8|0,0:0|0:0,0:0:0:0:
123,245,199667,1,4,0:0:0:0:
