osu file format v14

[General]
AudioFilename: Elegy.mp3
AudioLeadIn: 0
PreviewTime: 53084
Countdown: 0
SampleSet: Soft
StackLeniency: 0.7
Mode: 0
LetterboxInBreaks: 0
WidescreenStoryboard: 0

[Editor]
DistanceSpacing: 1
BeatDivisor: 4
GridSize: 4
TimelineZoom: 1.3

[Metadata]
Title:Toumei Elegy
TitleUnicode:透明エレジー
Artist:Konuko
ArtistUnicode:こぬこ
Creator:Awaken
Version:G's Insane
Source:
Tags:櫻花アリス ナブナ Regraz Kawaiwkyik Rizia Evil_Twilight skystar amamiya yuko n-buna ouka alice megpoid gumi utau vocaloid
BeatmapID:637623
BeatmapSetID:219380

[Difficulty]
HPDrainRate:6
CircleSize:4
OverallDifficulty:7
ApproachRate:8.5
SliderMultiplier:1.6
SliderTickRate:1

[Events]
//Background and Video events
0,0,"Itai.jpg",0,0
//Break Periods
2,10049,26628
2,143139,161901
//Storyboard Layer 0 (Background)
//Storyboard Layer 1 (Fail)
//Storyboard Layer 2 (Pass)
//Storyboard Layer 3 (Foreground)
//Storyboard Sound Samples

[TimingPoints]
1122,272.727272727273,4,2,2,30,1,0
1122,-200,4,2,2,30,0,0
9849,-200,4,2,1,50,0,1
9917,-200,4,2,2,40,0,0
35212,-200,4,1,0,20,0,0
35758,-200,4,1,0,40,0,0
36031,-200,4,2,2,40,0,0
53212,-200,4,2,0,100,0,0
53485,-100,4,2,1,80,0,1
61122,-200,4,2,1,80,0,0
61394,-100,4,2,1,80,0,1
70394,-133.333333333333,4,2,1,80,0,1
70940,-200,4,2,2,50,0,0
79667,-133.333333333333,4,2,2,50,0,0
81849,-200,4,2,2,50,0,0
99303,-133.333333333333,4,2,1,60,0,0
108031,-100,4,2,1,80,0,1
125485,-100,4,2,1,80,0,0
162576,-200,4,2,2,40,0,0
180031,-100,4,2,1,80,0,1
187667,-200,4,2,1,80,0,0
187940,-100,4,2,1,80,0,1
198576,-100,4,2,1,80,0,0
199667,-100,4,1,2,80,0,1
199735,-100,4,1,2,80,0,0

[Colours]
Combo1 : 243,7,7
Combo2 : 107,196,98
Combo3 : 77,193,185
Combo4 : 99,216,169
Combo5 : 201,198,186
Combo6 : 126,123,116

[HitObjects]
56,64,1122,5,8,0:0:0:0:
56,64,1531,2,0,P|86:111|79:190,1,120,8|2,0:0|0:0,0:0:0:0:
24,288,2212,5,8,0:0:0:0:
24,288,2622,2,0,P|71:258|150:265,1,120,8|2,0:0|0:0,0:0:0:0:
240,328,3303,5,8,0:0:0:0:
240,328,3712,2,0,P|290:358|349:357,1,120,8|2,0:0|0:0,0:0:0:0:
416,248,4394,5,8,0:0:0:0:
416,248,4803,2,0,P|439:193|490:161,1,120,8|2,0:0|0:0,0:0:0:0:
416,56,5485,5,8,0:0:0:0:
320,128,5894,2,0,P|260:124|213:87,1,120,8|2,0:0|0:0,0:0:0:0:
88,64,6576,5,8,0:0:0:0:
128,176,6985,2,0,P|124:235|87:282,1,120,8|2,0:0|0:0,0:0:0:0:
192,360,7667,5,8,0:0:0:0:
272,272,8076,2,0,P|334:274|392:312,1,120,8|2,0:0|0:0,0:0:0:0:
368,176,8758,5,8,0:0:0:0:
368,176,9849,5,4,0:0:0:0:
480,72,27303,6,0,P|421:65|374:21,1,120,8|8,0:0|0:0,0:0:0:0:
272,88,28122,1,2,0:0:0:0:
360,144,28394,2,0,B|413:238|285:268|354:377,1,240,8|0,0:0|0:0,0:0:0:0:
288,288,29485,6,0,P|238:255|169:256,1,120,8|8,0:0|0:0,0:0:0:0:
88,328,30303,1,2,0:0:0:0:
24,248,30576,2,0,B|99:218|129:107|72:37,1,240,8|0,0:0|0:0,0:0:0:0:
176,88,31667,6,0,P|221:125|289:129,1,120,8|8,0:0|0:0,0:0:0:0:
376,56,32485,1,2,0:0:0:0:
464,112,32758,2,0,B|512:176|476:295|391:314,1,240,8|0,0:0|0:0,0:0:0:0:
320,240,33849,6,0,P|287:215|239:211,1,80,8|0,0:0|0:0,0:0:0:0:
106,317,34394,2,0,P|142:302|168:272,1,80,0|2,0:0|0:0,0:0:0:0:
152,168,34940,1,8,0:0:0:0:
152,168,35212,6,2,B|144:152|144:152|152:136|152:136|144:120|144:120|152:104|152:104|144:88|144:88|152:72|152:72|144:56|144:56|152:40|152:40|144:24,1,160,2|4,0:0|2:0,0:0:0:0:
248,56,36031,5,8,0:0:0:0:
392,32,36440,1,8,0:0:0:0:
336,168,36849,1,2,0:0:0:0:
328,88,37122,5,8,0:0:0:0:
264,256,37531,1,8,0:0:0:0:
440,224,37940,1,2,2:0:0:0:
344,184,38212,5,8,0:0:0:0:
256,368,38622,1,8,0:0:0:0:
144,192,39031,1,2,0:0:0:0:
256,256,39303,5,8,0:0:0:0:
296,32,39712,1,8,0:0:0:0:
80,112,40122,1,2,0:0:0:0:
232,136,40394,5,12,0:0:0:0:
232,136,40803,2,0,P|262:160|314:163,1,80,8|0,0:0|0:0,0:0:0:0:
368,112,41212,1,2,0:0:0:0:
456,208,41485,5,8,0:0:0:0:
456,208,41894,2,0,P|450:247|426:278,1,80,8|0,0:0|0:0,0:0:0:0:
344,288,42303,1,2,0:0:0:0:
232,232,42576,6,0,P|191:236|152:264,1,80
31,329,43122,2,0,P|52:295|56:256,1,80,0|2,0:0|0:0,0:0:0:0:
112,168,43667,2,0,P|91:134|87:94,1,80,8|8,0:0|3:0,0:0:0:0:
120,48,44076,2,0,L|176:32,1,40,8|8,3:0|3:0,0:0:0:0:
280,72,44485,1,2,2:0:0:0:
384,56,44758,6,0,P|405:109|395:180,1,120,12|8,0:0|0:0,0:0:0:0:
360,208,45303,1,2,0:0:0:0:
384,310,45576,2,0,P|401:300|420:295,1,40,8|8,0:0|0:0,0:0:0:0:
344,348,45849,2,0,B|292:370|217:351|196:294,1,160,8|8,0:0|0:0,0:0:0:0:
160,240,46667,1,8,0:0:0:0:
143,159,46940,6,0,P|112:136|73:126,1,80,8|0,0:0|0:0,0:0:0:0:
168,80,47485,2,0,P|204:64|231:35,1,80,2|2,0:0|0:0,0:0:0:0:
288,96,48031,2,0,B|318:51|389:38|440:63,1,160,8|0,0:0|0:0,0:0:0:0:
480,128,48849,1,2,0:0:0:0:
424,184,49122,6,0,P|421:244|450:300,1,120,8|8,0:0|0:0,0:0:0:0:
496,320,49667,1,2,0:0:0:0:
376,256,49940,2,0,P|357:249|336:248,1,40,8|0,0:0|0:0,0:0:0:0:
272,296,50212,2,0,B|242:333|174:351|119:325,1,160,8|0,0:0|0:0,0:0:0:0:
96,256,51031,6,0,P|62:226|14:215,1,80,0|8,0:0|0:0,0:0:0:0:
224,200,51576,2,0,P|258:170|306:159,1,80
120,112,52122,1,8,0:0:0:0:
168,48,52394,1,0,0:0:0:0:
248,24,52667,1,8,0:0:0:0:
328,32,52940,1,8,0:0:0:0:
392,80,53212,6,0,P|417:94|449:94,1,60,2|0,0:0|0:0,0:0:0:0:
488,80,53485,6,0,B|441:96|410:163|436:235,1,160,4|8,0:0|0:0,0:0:0:0:
480,280,53894,1,0,0:0:0:0:
400,296,54031,2,0,B|354:272|286:287|256:340,1,160,2|8,0:0|0:0,0:0:0:0:
184,360,54440,1,0,0:0:0:0:
160,256,54576,2,0,B|132:207|64:192|18:216,1,160,2|8,0:0|0:0,0:0:0:0:
16,112,54985,1,0,0:0:0:0:
120,120,55122,2,0,P|123:80|148:49,1,80,2|0,0:0|0:0,0:0:0:0:
224,40,55394,1,8,0:0:0:0:
224,40,55531,1,2,0:0:0:0:
296,80,55667,6,0,B|308:153|253:195,1,120,2|0,0:0|0:0,0:0:0:0:
224,192,55940,2,0,P|241:227|239:266,1,80,8|0,0:0|0:0,0:0:0:0:
288,328,56212,1,2,0:0:0:0:
288,328,56349,1,0,0:0:0:0:
368,328,56485,2,0,P|365:288|383:253,1,80,10|2,0:0|0:0,0:0:0:0:
512,167,56758,2,0,P|479:189|440:192,1,80,2|0,0:0|0:0,0:0:0:0:
360,168,57031,2,0,B|310:139|294:72|323:26,2,160,8|2|8,0:0|0:0|0:0,0:0:0:0:
288,136,57712,1,2,0:0:0:0:
224,88,57849,6,0,B|200:40|135:21|85:49,1,160,4|8,0:0|0:0,0:0:0:0:
24,104,58258,1,0,0:0:0:0:
72,168,58394,2,0,B|94:234|34:259|68:329,1,160,2|8,0:0|0:0,0:0:0:0:
128,368,58803,1,0,0:0:0:0:
200,288,58940,2,0,B|246:257|316:277|341:321,1,160,2|8,0:0|0:0,0:0:0:0:
424,384,59349,1,0,0:0:0:0:
432,280,59485,2,0,P|428:240|446:205,1,80,2|0,0:0|0:0,0:0:0:0:
512,160,59758,1,8,0:0:0:0:
512,160,59894,1,2,0:0:0:0:
464,64,60031,6,0,B|441:15|367:-6|316:28,1,160,2|8,0:0|0:0,0:0:0:0:
256,64,60440,1,2,0:0:0:0:
192,112,60576,2,0,P|150:113|108:78,1,80,0|2,0:0|0:0,0:0:0:0:
48,128,60849,1,8,0:0:0:0:
48,128,60985,1,2,0:0:0:0:
104,192,61122,6,0,L|88:256,1,60,2|0,0:0|0:0,0:0:0:0:
64,280,61394,6,0,P|132:278|183:313,1,120,14|0,0:0|0:0,0:0:0:0:
232,360,61667,2,0,P|300:362|351:327,1,120,6|0,0:0|0:0,0:0:0:0:
368,256,61940,1,8,0:0:0:0:
368,256,62076,1,0,0:0:0:0:
358,174,62212,6,0,B|342:120|383:55|447:55,1,160,2|8,0:0|0:0,0:0:0:0:
504,88,62622,1,0,0:0:0:0:
456,152,62758,2,0,B|304:72,1,160,2|8,0:0|0:0,0:0:0:0:
264,16,63167,1,0,0:0:0:0:
160,24,63303,2,0,B|111:52|96:120|120:166,1,160,2|10,0:0|0:0,0:0:0:0:
200,232,63712,1,0,0:0:0:0:
127,304,63849,2,0,P|96:279|57:276,1,80,2|0,0:0|0:0,0:0:0:0:
0,336,64122,1,8,0:0:0:0:
0,336,64258,1,2,0:0:0:0:
184,368,64394,6,0,B|232:389|306:368|326:308,1,160,2|8,0:0|0:0,0:0:0:0:
360,248,64803,1,2,0:0:0:0:
296,200,64940,2,0,B|263:139|339:114|294:39,1,160,2|8,0:0|0:0,0:0:0:0:
224,16,65349,1,2,0:0:0:0:
176,80,65485,6,0,P|135:78|102:47,1,80,0|2,0:0|0:0,0:0:0:0:
24,40,65758,2,0,B|79:60|102:135|68:186,1,160,8|2,0:0|0:0,0:0:0:0:
32,240,66167,1,2,0:0:0:0:
56,320,66303,1,8,0:0:0:0:
128,360,66440,1,2,0:0:0:0:
208,344,66576,6,0,B|232:296|297:277|347:305,1,160,2|10,0:0|0:0,0:0:0:0:
424,328,66985,1,0,0:0:0:0:
408,248,67122,1,2,0:0:0:0:
408,248,67258,1,0,0:0:0:0:
336,216,67394,2,0,P|315:184|318:141,1,80,8|2,0:0|0:0,0:0:0:0:
368,80,67667,6,0,P|389:48|386:5,2,80,2|0|8,0:0|0:0|0:0,0:0:0:0:
288,72,68076,1,2,0:0:0:0:
208,88,68212,2,0,P|187:120|190:163,1,80,2|0,0:0|0:0,0:0:0:0:
240,224,68485,1,8,0:0:0:0:
240,224,68622,1,2,0:0:0:0:
232,304,68758,6,0,B|190:332|116:311|93:262,1,160,2|12,0:0|0:0,0:0:0:0:
48,200,69167,1,2,0:0:0:0:
72,128,69303,2,0,P|58:88|11:60,1,80,2|0,0:0|0:0,0:0:0:0:
88,8,69576,1,8,0:0:0:0:
88,8,69712,1,0,0:0:0:0:
152,56,69849,6,0,L|312:32,1,160,2|10,0:0|0:0,0:0:0:0:
494,143,70394,6,0,L|376:128,1,120.000004577637,2|8,0:0|0:0,0:0:0:0:
224,240,70940,6,0,L|312:224,1,80,12|0,0:0|0:0,0:0:0:0:
344,216,71349,1,8,0:0:0:0:
368,336,71758,1,2,0:0:0:0:
368,336,72031,6,0,P|327:335|280:312,1,80,8|0,0:0|0:0,0:0:0:0:
264,288,72440,1,8,0:0:0:0:
256,280,72849,1,2,0:0:0:0:
184,208,73122,6,0,P|147:193|107:192,1,80,8|0,0:0|0:0,0:0:0:0:
64,208,73531,1,8,0:0:0:0:
216,128,73940,6,0,P|255:127|292:112,1,80,2|8,0:0|0:0,0:0:0:0:
392,61,74485,2,0,P|373:96|368:136,1,80,0|8,0:0|0:0,0:0:0:0:
312,192,75031,1,2,0:0:0:0:
312,192,75303,6,0,P|331:226|336:266,1,80,8|0,0:0|0:0,0:0:0:0:
328,304,75712,1,8,0:0:0:0:
320,320,76122,1,2,0:0:0:0:
224,352,76394,6,0,P|205:318|200:278,1,80,8|0,0:0|0:0,0:0:0:0:
216,240,76803,1,8,0:0:0:0:
224,232,77212,1,2,0:0:0:0:
319,187,77485,6,0,P|345:139|342:69,1,120,8|8,0:0|0:0,0:0:0:0:
319,43,78031,2,0,L|223:27,1,80,0|2,0:0|0:0,0:0:0:0:
159,67,78440,1,0,0:0:0:0:
159,67,78576,5,8,0:0:0:0:
168,192,78985,1,8,0:0:0:0:
168,192,79122,1,0,0:0:0:0:
72,144,79394,1,2,0:0:0:0:
8,224,79667,6,0,P|6:257|25:289,1,60.0000022888184,4|8,0:0|0:0,0:0:0:0:
140,346,79940,2,0,P|132:317|112:296,1,60.0000022888184,2|0,0:0|0:0,0:0:0:0:
124,178,80212,2,0,P|141:202|168:216,1,60.0000022888184,8|8,0:0|0:0,0:0:0:0:
301,188,80485,2,0,P|277:171|248:168,1,60.0000022888184,2|0,0:0|0:0,0:0:0:0:
200,112,80758,5,8,0:0:0:0:
272,80,80894,2,0,L|288:16,1,60.0000022888184,2|8,0:0|0:0,0:0:0:0:
360,8,81167,1,2,0:0:0:0:
424,56,81303,2,0,L|408:120,1,60.0000022888184,8|8,0:0|0:0,0:0:0:0:
448,184,81576,2,0,P|434:221|438:287,1,90.0000034332277,2|0,0:0|0:0,0:0:0:0:
448,288,81849,6,0,P|383:278|328:312,1,120,4|8,0:0|0:0,0:0:0:0:
232,352,82667,1,2,0:0:0:0:
253,275,82940,2,0,B|230:201|128:164|46:220,1,240,8|0,0:0|0:0,0:0:0:0:
0,128,84031,6,0,P|67:124|112:80,1,120,8|8,0:0|0:0,0:0:0:0:
208,32,84849,1,2,0:0:0:0:
256,96,85122,2,0,B|321:44|439:80|461:149,1,240,8|0,0:0|0:0,0:0:0:0:
448,248,86212,6,0,P|455:308|496:360,1,120,8|8,0:0|0:0,0:0:0:0:
368,376,87031,1,2,0:0:0:0:
336,304,87303,2,0,B|227:274|226:387|98:346,1,240,8|0,0:0|0:0,0:0:0:0:
88,272,88394,6,0,P|64:212|16:178,1,120,8|8,0:0|0:0,0:0:0:0:
20,179,88940,1,8,0:0:0:0:
60,108,89212,1,2,0:0:0:0:
132,144,89485,6,0,L|164:136,11,20,8|0|0|0|0|0|0|0|0|0|0|0,0:0|0:0|0:0|0:0|0:0|0:0|0:0|0:0|0:0|0:0|0:0|0:0,0:0:0:0:
192,128,90303,6,0,B|200:128|200:128|204:120|204:120|212:124|212:124|216:116|216:116|224:120|224:120|228:112|228:112|236:116,1,60,2|8,0:0|0:0,0:0:0:0:
272,100,90576,6,0,L|392:60,1,120,8|8,0:0|0:0,0:0:0:0:
488,124,91394,1,2,0:0:0:0:
460,200,91667,6,0,P|400:206|343:176,1,120,8|8,0:0|0:0,0:0:0:0:
256,104,92485,1,2,0:0:0:0:
192,56,92758,6,0,P|132:50|75:80,1,120,8|8,0:0|0:0,0:0:0:0:
16,176,93576,2,0,L|32:232,1,40,2|0,0:0|0:0,0:0:0:0:
64,232,93849,6,0,P|30:277|24:352,1,120,8|8,0:0|0:0,0:0:0:0:
136,384,94667,1,2,0:0:0:0:
216,376,94940,6,0,P|250:331|256:256,1,120,8|8,0:0|0:0,0:0:0:0:
208,160,95758,1,2,0:0:0:0:
240,88,96031,6,0,P|285:54|360:48,1,120,8|8,0:0|0:0,0:0:0:0:
464,80,96849,1,2,0:0:0:0:
424,144,97122,6,0,P|427:184|449:222,1,80,4|8,0:0|0:0,0:0:0:0:
480,240,97531,1,0,0:0:0:0:
360,216,97940,1,8,0:0:0:0:
360,216,98076,1,0,0:0:0:0:
360,216,98212,6,0,P|339:208|312:208,1,40,8|0,0:0|0:0,0:0:0:0:
244,122,98485,2,0,P|247:141|256:160,1,40,8|8,0:0|0:0,0:0:0:0:
220,268,98758,2,0,P|236:256|248:240,1,40,8|0,0:0|0:0,0:0:0:0:
360,216,99031,2,0,P|339:208|312:208,1,40,2|0,0:0|0:0,0:0:0:0:
248,240,99303,6,0,L|120:248,1,120.000004577637,4|8,0:0|0:0,0:0:0:0:
64,296,99712,1,0,0:0:0:0:
16,232,99849,2,0,P|29:205|32:168,1,60.0000022888184
24,96,100122,1,8,0:0:0:0:
96,72,100258,2,0,L|128:88,1,30.0000011444092,0|0,0:0|0:0,0:0:0:0:
160,104,100394,6,0,P|213:74|288:72,2,120.000004577637,0|8|0,0:0|0:0|0:0,0:0:0:0:
88,240,101212,1,8,0:0:0:0:
184,368,101485,2,0,P|243:362|294:332,1,120.000004577637,0|8,0:0|0:0,0:0:0:0:
344,272,101894,1,0,0:0:0:0:
328,192,102031,2,0,P|348:136|390:93,1,120.000004577637,0|8,0:0|0:0,0:0:0:0:
360,24,102440,1,0,0:0:0:0:
296,64,102576,6,0,P|263:59|232:33,1,60.0000022888184,0|0,0:0|0:0,0:0:0:0:
148,17,102849,2,0,P|164:42|168:72,1,60.0000022888184,8|0,0:0|0:0,0:0:0:0:
168,152,103122,2,0,P|149:206|95:251,1,120.000004577637,0|8,0:0|0:0,0:0:0:0:
40,296,103531,1,0,0:0:0:0:
40,296,103599,1,0,0:0:0:0:
40,296,103667,6,0,P|108:293|162:318,1,120.000004577637,0|8,0:0|0:0,0:0:0:0:
216,360,104076,1,0,0:0:0:0:
256,296,104212,2,0,P|287:280|312:279,1,60.0000022888184,0|0,0:0|0:0,0:0:0:0:
440,336,104485,2,0,P|410:333|384:320,1,60.0000022888184,8|0,0:0|0:0,0:0:0:0:
384,320,104690,1,0,0:0:0:0:
384,320,104758,6,0,P|386:249|348:207,1,120.000004577637,0|8,0:0|0:0,0:0:0:0:
304,152,105167,1,0,0:0:0:0:
336,80,105303,2,0,P|316:56|312:24,1,60.0000022888184,0|0,0:0|0:0,0:0:0:0:
240,48,105576,6,0,L|176:32,1,60.0000022888184,8|0,0:0|0:0,0:0:0:0:
45,110,105849,2,0,L|104:96,1,60.0000022888184,2|0,0:0|0:0,0:0:0:0:
250,182,106122,2,0,L|192:168,1,60.0000022888184,12|0,0:0|0:0,0:0:0:0:
21,254,106394,2,0,L|80:240,1,60.0000022888184,2|0,0:0|0:0,0:0:0:0:
144,280,106667,1,8,0:0:0:0:
144,280,106803,1,0,0:0:0:0:
208,328,106940,2,0,L|266:313,1,60.0000022888184,2|0,0:0|0:0,0:0:0:0:
328,272,107212,6,0,P|368:294|422:292,1,90.0000034332277,8|0,0:0|0:0,0:0:0:0:
432,264,107485,2,0,P|448:222|482:193,1,90.0000034332277,2|2,0:0|0:0,0:0:0:0:
504,160,107758,2,0,P|470:130|454:88,1,90.0000034332277,2|0,0:0|0:0,0:0:0:0:
464,48,108031,6,0,B|448:95|381:126|309:100,1,160,4|8,0:0|0:0,0:0:0:0:
248,88,108440,1,0,0:0:0:0:
272,168,108576,2,0,B|296:214|281:282|228:312,1,160,2|8,0:0|0:0,0:0:0:0:
152,320,108985,1,0,0:0:0:0:
64,264,109122,2,0,B|40:218|55:150|108:120,1,160,2|8,0:0|0:0,0:0:0:0:
192,64,109531,1,0,0:0:0:0:
248,152,109667,2,0,P|287:149|318:124,1,80,2|0,0:0|0:0,0:0:0:0:
376,64,109940,1,8,0:0:0:0:
376,64,110076,1,2,0:0:0:0:
440,112,110212,6,0,B|392:147|404:220,1,120,2|0,0:0|0:0,0:0:0:0:
432,256,110485,2,0,P|449:291|447:330,1,80,8|0,0:0|0:0,0:0:0:0:
376,376,110758,1,2,0:0:0:0:
376,376,110894,1,0,0:0:0:0:
296,360,111031,2,0,P|278:324|281:285,1,80,10|2,0:0|0:0,0:0:0:0:
232,224,111303,6,0,B|282:205|306:131|269:75,2,160,2|10|2,0:0|0:0|0:0,0:0:0:0:
160,256,111985,1,0,0:0:0:0:
104,200,112122,2,0,P|60:199|14:229,1,80,8|0,0:0|0:0,0:0:0:0:
80,272,112394,6,0,B|114:192|38:182|79:102,1,160,4|8,0:0|0:0,0:0:0:0:
144,80,112803,1,0,0:0:0:0:
208,128,112940,2,0,B|255:150|325:114|333:53,1,160,2|8,0:0|0:0,0:0:0:0:
400,104,113349,1,0,0:0:0:0:
360,200,113485,2,0,B|338:246|374:316|427:323,1,160,2|8,0:0|0:0,0:0:0:0:
344,384,113894,1,0,0:0:0:0:
272,312,114031,2,0,P|232:308|197:326,1,80,2|0,0:0|0:0,0:0:0:0:
128,368,114303,1,8,0:0:0:0:
128,368,114440,1,0,0:0:0:0:
56,328,114576,6,0,B|11:296|3:220|46:175,1,160,2|8,0:0|0:0,0:0:0:0:
112,144,114985,1,0,0:0:0:0:
184,176,115122,2,0,P|185:218|150:260,1,80,2|0,0:0|0:0,0:0:0:0:
208,320,115394,1,8,0:0:0:0:
208,320,115531,1,0,0:0:0:0:
264,264,115667,6,0,P|306:263|348:298,1,80,2|0,0:0|0:0,0:0:0:0:
368,352,115940,2,0,B|345:299|381:228|439:222,1,160,10|2,0:0|0:0,0:0:0:0:
448,144,116349,1,0,0:0:0:0:
368,144,116485,1,8,0:0:0:0:
368,144,116622,1,0,0:0:0:0:
320,208,116758,6,0,B|276:240|201:224|183:174,1,160,6|8,0:0|0:0,0:0:0:0:
160,96,117167,1,0,0:0:0:0:
104,152,117303,2,0,B|92:204|128:239|128:239|97:260|100:302,1,160,2|8,0:0|0:0,0:0:0:0:
144,360,117712,1,0,0:0:0:0:
232,304,117849,2,0,B|276:280|344:295|372:344,1,160,2|8,0:0|0:0,0:0:0:0:
472,312,118258,1,0,0:0:0:0:
464,208,118394,2,0,P|433:232|394:236,1,80,2|0,0:0|0:0,0:0:0:0:
328,192,118667,1,8,0:0:0:0:
328,192,118803,1,2,0:0:0:0:
272,104,118940,6,0,B|256:55|182:34|134:55,1,160,2|8,0:0|0:0,0:0:0:0:
72,104,119349,1,2,0:0:0:0:
112,176,119485,2,0,B|152:243|76:268|109:329,1,160,2|8,0:0|0:0,0:0:0:0:
176,368,119894,1,0,0:0:0:0:
232,312,120031,6,0,P|262:287|302:286,1,80,2|0,0:0|0:0,0:0:0:0:
438,353,120303,2,0,P|398:352|368:328,1,80,10|2,0:0|0:0,0:0:0:0:
368,248,120576,1,0,0:0:0:0:
416,184,120712,1,2,0:0:0:0:
416,104,120849,1,8,0:0:0:0:
368,40,120985,1,2,0:0:0:0:
296,16,121122,6,0,B|249:-9|181:7|157:55,1,160,2|8,0:0|0:0,0:0:0:0:
184,128,121531,1,0,0:0:0:0:
160,208,121667,1,2,0:0:0:0:
160,208,121803,1,0,0:0:0:0:
208,272,121940,2,0,P|247:275|280:253,1,80,8|0,0:0|0:0,0:0:0:0:
328,192,122212,6,0,P|360:170|399:173,2,80,2|0|8,0:0|0:0|0:0,0:0:0:0:
360,264,122622,1,2,0:0:0:0:
352,344,122758,2,0,P|318:365|279:363,1,80,0|0,0:0|0:0,0:0:0:0:
208,320,123031,1,8,0:0:0:0:
208,320,123167,1,2,0:0:0:0:
160,256,123303,6,0,B|137:208|63:187|21:215,1,160,2|8,0:0|0:0,0:0:0:0:
0,136,123712,1,2,0:0:0:0:
80,128,123849,2,0,P|110:102|122:65,1,80,2|0,0:0|0:0,0:0:0:0:
192,24,124122,1,8,0:0:0:0:
192,24,124258,1,0,0:0:0:0:
200,104,124394,6,0,B|238:132|316:119|339:69,1,160,2|8,0:0|0:0,0:0:0:0:
507,258,124940,2,0,B|468:287|390:273|368:224,1,160,0|8,0:0|0:0,0:0:0:0:
384,144,125349,1,0,0:0:0:0:
376,64,125485,6,0,P|345:42|294:41,1,80,6|0,0:0|0:0,0:0:0:0:
232,64,125758,2,0,B|188:86|166:160|198:213,1,160,8|2,0:0|0:0,0:0:0:0:
248,264,126167,1,0,0:0:0:0:
296,328,126303,1,10,0:0:0:0:
248,264,126440,6,0,B|222:222|146:206|96:243,1,160,2|2,0:0|0:0,0:0:0:0:
32,272,126849,1,8,0:0:0:0:
40,192,126985,1,2,0:0:0:0:
112,152,127122,1,2,0:0:0:0:
121,125,127190,1,2,0:0:0:0:
121,97,127258,1,2,0:0:0:0:
112,70,127326,1,0,0:0:0:0:
93,49,127394,1,10,0:0:0:0:
160,0,127531,1,2,0:0:0:0:
224,48,127667,5,2,0:0:0:0:
280,104,127803,2,0,P|324:107|355:86,1,80,2|8,0:0|0:0,0:0:0:0:
512,128,128076,1,0,0:0:0:0:
456,184,128212,2,0,P|411:187|380:166,1,80,2|0,0:0|0:0,0:0:0:0:
224,208,128485,1,8,0:0:0:0:
280,264,128622,1,2,0:0:0:0:
272,344,128758,5,0,0:0:0:0:
272,344,128894,1,2,0:0:0:0:
200,376,129031,2,0,P|160:374|122:344,1,80,8|2,0:0|0:0,0:0:0:0:
104,272,129303,2,0,B|102:219|63:164|-4:154,1,160,0|10,0:0|0:0,0:0:0:0:
24,80,129712,1,0,0:0:0:0:
103,94,129849,6,0,P|107:51|130:16,1,80,6|0,0:0|0:0,0:0:0:0:
208,0,130122,1,10,0:0:0:0:
280,32,130258,2,0,B|296:81|278:146|218:179,1,160,2|0,0:0|0:0,0:0:0:0:
148,168,130667,1,10,0:0:0:0:
184,240,130803,1,0,0:0:0:0:
168,320,130940,5,4,0:0:0:0:
168,320,131076,1,2,0:0:0:0:
168,320,131212,1,10,0:0:0:0:
236,364,131349,2,0,B|284:388|360:357|370:301,1,160,2|0,0:0|0:0,0:0:0:0:
368,228,131758,2,0,P|386:192|428:171,1,80,10|0,0:0|0:0,0:0:0:0:
496,144,132031,5,2,0:0:0:0:
469,150,132099,1,0,0:0:0:0:
440,150,132167,1,2,0:0:0:0:
413,140,132235,1,0,0:0:0:0:
391,122,132303,1,10,0:0:0:0:
340,60,132440,1,2,0:0:0:0:
272,20,132576,1,2,0:0:0:0:
245,14,132644,1,0,0:0:0:0:
216,14,132712,1,2,0:0:0:0:
189,24,132781,1,0,0:0:0:0:
167,42,132849,2,0,P|146:57|136:84,3,40,2|0|0|0,0:0|0:0|0:0|0:0,0:0:0:0:
132,96,133122,6,0,P|107:127|62:142,1,80,4|0,1:0|0:0,0:0:0:0:
56,268,133394,1,0,0:0:0:0:
144,212,133531,2,0,B|192:187|269:214|285:270,1,160,2|0,0:0|0:0,0:0:0:0:
288,340,133940,1,8,0:0:0:0:
364,368,134076,1,0,0:0:0:0:
408,304,134212,6,0,P|435:277|488:272,1,80,2|0,0:0|0:0,0:0:0:0:
392,208,134485,2,0,P|353:200|325:173,1,80,10|2,0:0|0:0,0:0:0:0:
312,96,134758,1,2,0:0:0:0:
336,16,134894,1,0,0:0:0:0:
312,96,135031,1,10,0:0:0:0:
232,120,135167,1,2,0:0:0:0:
160,88,135303,6,0,P|116:50|39:59,1,120,2|0,0:0|0:0,0:0:0:0:
24,64,135576,2,0,P|1:98|5:153,1,80,10|0,0:0|0:0,0:0:0:0:
32,208,135849,1,2,0:0:0:0:
104,176,135985,1,0,0:0:0:0:
240,256,136122,1,10,0:0:0:0:
168,224,136258,1,2,0:0:0:0:
96,256,136394,5,2,0:0:0:0:
96,336,136531,1,0,0:0:0:0:
168,360,136667,1,10,0:0:0:0:
248,336,136803,1,2,0:0:0:0:
312,288,136940,6,0,P|351:293|386:312,1,80,2|0,0:0|0:0,0:0:0:0:
506,223,137212,2,0,P|471:242|432:248,1,80,10|2,0:0|0:0,0:0:0:0:
368,200,137485,5,2,0:0:0:0:
344,120,137622,1,0,0:0:0:0:
376,48,137758,1,10,0:0:0:0:
344,120,137894,1,2,0:0:0:0:
272,152,138031,1,2,0:0:0:0:
192,136,138167,1,2,0:0:0:0:
144,72,138303,2,0,P|96:110|24:112,1,120,10|0,0:0|0:0,0:0:0:0:
0,96,138576,6,0,B|55:110|84:173|71:229,1,160,4|8,0:0|0:0,0:0:0:0:
32,288,138985,1,0,0:0:0:0:
112,296,139122,2,0,P|150:305|185:347,1,80,0|2,0:0|0:0,0:0:0:0:
256,360,139394,1,10,0:0:0:0:
256,360,139531,1,0,0:0:0:0:
333,332,139667,6,0,P|361:305|400:296,1,80,2|2,0:0|0:0,0:0:0:0:
480,312,139940,2,0,B|511:269|493:197|451:169,1,160,14|2,0:0|0:0,0:0:0:0:
384,128,140349,1,2,0:0:0:0:
320,176,140485,2,0,P|277:172|245:139,1,80,14|0,0:0|0:0,0:0:0:0:
208,80,140758,5,2,0:0:0:0:
208,80,140894,1,0,0:0:0:0:
208,80,141031,1,10,0:0:0:0:
208,80,141167,1,2,0:0:0:0:
208,80,141303,1,0,0:0:0:0:
208,80,141440,1,2,0:0:0:0:
128,96,141576,1,8,0:0:0:0:
128,96,141712,1,0,0:0:0:0:
56,176,141849,6,0,B|33:222|59:294|115:310,1,160,6|14,0:0|0:0,0:0:0:0:
192,312,142258,1,0,0:0:0:0:
248,256,142394,2,0,B|294:233|366:259|380:310,2,160,6|14|4,0:0|0:0|0:0,0:0:0:0:
160,56,162576,6,0,B|143:107|68:136|12:103,1,160,12|8,0:0|0:0,0:0:0:0:
152,208,163667,2,0,B|202:225|231:300|198:356,1,160,8|8,0:0|0:0,0:0:0:0:
287,208,164758,2,0,L|327:48,1,160,8|8,0:0|0:0,0:0:0:0:
408,271,165849,2,0,B|354:262|294:314|297:379,1,160,8|8,0:0|0:0,0:0:0:0:
216,376,166667,1,0,0:0:0:0:
224,296,166940,6,0,B|205:245|129:219|74:254,1,160,8|8,0:0|0:0,0:0:0:0:
0,112,168031,2,0,B|41:139|117:113|135:62,1,160,8|8,0:0|0:0,0:0:0:0:
208,24,168849,1,0,0:0:0:0:
208,104,169122,6,0,P|238:130|287:132,1,80,8|0,0:0|0:0,0:0:0:0:
412,59,169667,2,0,P|375:72|352:104,1,80,8|0,0:0|0:0,0:0:0:0:
344,184,170212,2,0,L|360:224,5,40,4|0|0|0|0|0,0:0|0:0|0:0|0:0|0:0|0:0,0:0:0:0:
392,240,171031,2,0,P|378:266|376:312,1,60,0|0,0:0|0:0,0:0:0:0:
392,320,171303,6,0,P|341:297|278:300,1,120,8|8,0:0|0:0,0:0:0:0:
168,360,172122,1,2,0:0:0:0:
72,328,172394,6,0,P|40:281|32:219,1,120,8|8,0:0|0:0,0:0:0:0:
88,112,173212,1,2,0:0:0:0:
184,152,173485,6,0,L|304:128,1,120,8|8,0:0|0:0,0:0:0:0:
400,56,174303,1,2,0:0:0:0:
480,128,174576,6,0,P|480:169|457:205,1,80,8|0,0:0|0:0,0:0:0:0:
478,325,175122,2,0,P|443:306|424:272,1,80,0|2,0:0|0:0,0:0:0:0:
376,208,175667,6,0,P|336:207|302:228,1,80,8|0,0:0|0:0,0:0:0:0:
280,264,176076,1,8,0:0:0:0:
272,280,176485,1,2,0:0:0:0:
200,256,176758,6,0,P|165:235|126:235,1,80,8|0,0:0|0:0,0:0:0:0:
56,280,177167,1,8,0:0:0:0:
48,288,177576,1,2,0:0:0:0:
72,184,177849,6,0,B|68:176|68:176|76:168|76:168|68:160|68:160|76:152|76:152|68:144|68:144|76:136|76:136|68:128|68:128|76:120|76:120|68:112|68:112|76:104|76:104|68:96|68:96|76:88|76:88|68:80|68:80|76:72|76:72|68:64|68:64|76:56|76:56|68:48|68:48|76:40|76:40|68:32|68:32|76:24|76:24|72:8,1,240,8|2,0:0|0:0,0:0:0:0:
72,8,178940,5,8,0:0:0:0:
128,64,179212,1,0,0:0:0:0:
232,88,179485,1,0,0:0:0:0:
352,40,179758,1,0,0:0:0:0:
496,104,180031,6,0,B|516:155|485:222|438:238,1,160,4|8,0:0|0:0,0:0:0:0:
368,208,180440,1,0,0:0:0:0:
288,232,180576,2,0,B|264:278|279:346|332:376,1,160,2|8,0:0|0:0,0:0:0:0:
248,352,180985,1,0,0:0:0:0:
176,280,181122,2,0,B|148:231|80:216|34:240,1,160,6|8,0:0|0:0,0:0:0:0:
0,144,181531,1,0,0:0:0:0:
104,144,181667,2,0,P|128:112|131:73,1,80,2|0,0:0|0:0,0:0:0:0:
232,40,181940,1,8,0:0:0:0:
232,40,182076,1,0,0:0:0:0:
312,104,182212,6,0,B|264:139|276:212,1,120,2|0,0:0|0:0,0:0:0:0:
296,248,182485,2,0,P|260:230|220:233,1,80,8|0,0:0|0:0,0:0:0:0:
152,272,182758,1,2,0:0:0:0:
152,272,182894,1,2,0:0:0:0:
192,344,183031,2,0,P|227:361|266:358,1,80,10|0,0:0|0:0,0:0:0:0:
408,294,183303,2,0,P|368:297|336:320,1,80,2|0,0:0|0:0,0:0:0:0:
456,232,183576,2,0,B|506:203|522:136|493:90,2,160,10|2|8,0:0|0:0|0:0,0:0:0:0:
376,224,184258,1,2,0:0:0:0:
344,152,184394,6,0,B|320:104|255:85|205:113,1,160,4|8,0:0|0:0,0:0:0:0:
216,192,184803,1,0,0:0:0:0:
136,168,184940,2,0,B|106:212|122:278|171:307,1,160,2|10,0:0|0:0,0:0:0:0:
248,336,185349,1,0,0:0:0:0:
304,248,185485,2,0,B|350:217|420:237|445:281,1,160,2|8,0:0|0:0,0:0:0:0:
512,200,185894,1,0,0:0:0:0:
456,112,186031,2,0,P|452:72|470:37,1,80,2|0,0:0|0:0,0:0:0:0:
400,0,186303,1,8,0:0:0:0:
400,0,186440,1,0,0:0:0:0:
344,88,186576,6,0,B|312:132|236:140|191:97,1,160,2|8,0:0|0:0,0:0:0:0:
152,40,186985,1,0,0:0:0:0:
120,112,187122,2,0,P|140:145|138:185,1,80,2|0,0:0|0:0,0:0:0:0:
200,232,187394,1,8,0:0:0:0:
200,232,187531,1,0,0:0:0:0:
248,296,187667,6,0,P|220:311|195:346,1,60,2|0,0:0|0:0,0:0:0:0:
192,368,187940,6,0,P|140:339|81:343,1,120,12|0,0:0|0:0,0:0:0:0:
8,368,188212,2,0,P|36:316|32:257,1,120,4|0,0:0|0:0,0:0:0:0:
0,184,188485,1,8,0:0:0:0:
0,184,188622,1,0,0:0:0:0:
72,144,188758,6,0,B|57:93|92:24|150:17,1,160,6|8,0:0|0:0,0:0:0:0:
224,32,189167,1,0,0:0:0:0:
280,88,189303,2,0,B|331:103|400:68|406:9,1,160,2|8,0:0|0:0,0:0:0:0:
480,56,189712,1,0,0:0:0:0:
416,136,189849,2,0,B|367:164|352:232|376:278,1,160,6|8,0:0|0:0,0:0:0:0:
440,360,190258,1,0,0:0:0:0:
336,368,190394,2,0,P|305:343|266:340,1,80,2|0,0:0|0:0,0:0:0:0:
192,368,190667,1,8,0:0:0:0:
192,368,190803,1,0,0:0:0:0:
136,256,190940,6,0,B|120:207|46:186|-1:207,1,160,6|8,0:0|0:0,0:0:0:0:
184,176,191349,1,0,0:0:0:0:
208,288,191485,2,0,B|223:239|297:218|345:239,1,160,2|8,0:0|0:0,0:0:0:0:
408,288,191894,1,0,0:0:0:0:
472,232,192031,6,0,P|437:209|424:166,1,80,2|0,0:0|0:0,0:0:0:0:
400,96,192303,2,0,B|404:48|346:-4|289:5,1,160,8|6,0:0|0:0,0:0:0:0:
216,24,192712,1,2,0:0:0:0:
168,88,192849,1,8,0:0:0:0:
176,168,192985,1,2,0:0:0:0:
208,240,193122,6,0,B|184:192|119:173|69:201,1,160,6|8,0:0|0:0,0:0:0:0:
24,264,193531,1,0,0:0:0:0:
48,344,193667,1,2,0:0:0:0:
48,344,193803,1,0,0:0:0:0:
128,368,193940,2,0,P|167:370|200:348,1,80,8|0,0:0|0:0,0:0:0:0:
272,312,194212,6,0,P|311:309|344:331,2,80,6|0|10,0:0|0:0|0:0,0:0:0:0:
184,256,194622,1,0,0:0:0:0:
96,200,194758,2,0,P|56:202|23:180,1,80,6|0,0:0|0:0,0:0:0:0:
0,104,195031,1,8,0:0:0:0:
0,104,195167,1,0,0:0:0:0:
24,32,195303,6,0,B|66:4|143:22|162:72,1,160,2|8,0:0|0:0,0:0:0:0:
208,136,195712,1,0,0:0:0:0:
280,176,195849,2,0,P|320:162|348:115,1,80,2|0,0:0|0:0,0:0:0:0:
400,80,196122,1,8,0:0:0:0:
400,80,196258,1,8,0:0:0:0:
408,184,196394,6,0,B|387:230|414:299|469:314,1,160,14|10,0:0|0:0,0:0:0:0:
392,296,196803,1,0,0:0:0:0:
320,264,196940,2,0,B|273:243|204:270|189:325,1,160,10|10,0:0|0:0,0:0:0:0:
120,360,197349,1,0,0:0:0:0:
128,280,197485,6,0,P|113:218|61:180,1,120,14|0,0:0|0:0,0:0:0:0:
32,176,197758,2,0,P|45:141|40:96,1,80,8|8,0:0|0:0,0:0:0:0:
72,24,198031,1,10,0:0:0:0:
120,88,198167,1,10,0:0:0:0:
200,112,198303,1,10,0:0:0:0:
280,112,198440,1,10,0:0:0:0:
352,72,198576,5,2,0:0:0:0:
504,112,198849,1,10,0:0:0:0:
384,160,199122,1,10,0:0:0:0:
424,248,199394,1,10,0:0:0:0:
384,312,199667,1,4,0:0:0:0:
