osu file format v14

[General]
AudioFilename: Elegy.mp3
AudioLeadIn: 0
PreviewTime: 53084
Countdown: 0
SampleSet: Soft
StackLeniency: 0.7
Mode: 0
LetterboxInBreaks: 0
WidescreenStoryboard: 0

[Editor]
DistanceSpacing: 1
BeatDivisor: 4
GridSize: 32
TimelineZoom: 1

[Metadata]
Title:Toumei Elegy
TitleUnicode:透明エレジー
Artist:Konuko
ArtistUnicode:こぬこ
Creator:Awaken
Version:Easy
Source:
Tags:櫻花アリス ナブナ Regraz Kawaiwkyik Rizia Evil_Twilight skystar amamiya yuko n-buna ouka alice megpoid gumi utau vocaloid
BeatmapID:545783
BeatmapSetID:219380

[Difficulty]
HPDrainRate:2
CircleSize:3
OverallDifficulty:2
ApproachRate:3
SliderMultiplier:0.8
SliderTickRate:1

[Events]
//Background and Video events
0,0,"Itai.jpg",0,0
//Break Periods
2,9857,25863
2,71139,74954
2,125685,132772
2,143139,150227
//Storyboard Layer 0 (Background)
//Storyboard Layer 1 (Fail)
//Storyboard Layer 2 (Pass)
//Storyboard Layer 3 (Foreground)
//Storyboard Sound Samples

[TimingPoints]
1122,272.727272727273,4,2,1,70,1,0
27303,-100,4,2,1,60,0,0
36031,-100,4,2,1,70,0,0
43940,-100,4,2,1,60,0,0
53485,-100,4,2,1,90,0,1
70940,-100,4,2,1,60,0,0
79667,-100,4,2,1,70,0,0
81849,-100,4,2,1,60,0,0
99303,-100,4,2,1,70,0,0
105849,-100,4,2,1,60,0,0
106122,-100,4,2,1,70,0,0
106394,-100,4,2,1,60,0,0
108031,-100,4,2,1,90,0,1
125485,-100,4,2,1,90,0,0
142940,-100,4,2,1,60,0,0
162577,-100,4,2,1,50,0,0
180031,-100,4,2,1,90,0,1
199667,-100,4,2,1,90,0,0

[Colours]
Combo1 : 243,7,7
Combo2 : 107,196,98
Combo3 : 77,193,185
Combo4 : 99,216,169
Combo5 : 201,198,186
Combo6 : 126,123,116

[HitObjects]
49,83,1122,6,0,P|45:150|190:175,1,240,0|8,0:0|0:0,0:0:0:0:
262,160,2212,2,0,L|436:174,1,160,0|0,0:0|0:0,0:0:0:0:
489,215,3031,1,8,0:0:0:0:
504,293,3303,6,0,B|464:362|464:362|389:316|306:353,1,240,0|8,0:0|0:0,0:0:0:0:
238,316,4394,2,0,P|163:310|111:241,2,160,0|0|0,0:0|0:0|0:0,0:0:0:0:
488,119,6576,6,0,L|498:282,1,160,0|0,0:0|0:0,0:0:0:0:
366,369,7667,2,0,P|317:376|233:314,2,160,0|0|0,0:0|0:0|0:0,0:0:0:0:
470,73,27303,5,0,0:0:0:0:
470,73,28394,2,0,L|293:58,2,160
209,258,30576,6,0,L|49:268,2,160
448,44,32758,69,0,0:0:0:0:
287,320,33849,6,0,P|165:322|101:229,1,240
101,153,34940,1,0,0:0:0:0:
140,83,35212,2,0,B|194:61|194:61|303:76,1,160,8|8,0:0|0:0,0:0:0:0:
370,100,36031,5,4,0:0:0:0:
187,362,37122,2,0,P|121:358|65:286,2,160
110,51,39303,6,0,L|105:220,2,160,0|0|4,0:0|0:0|0:0,0:0:0:0:
428,21,41485,5,0,0:0:0:0:
357,333,42576,2,0,P|301:327|228:253,2,160,0|8|0,0:0|3:0|0:0,0:0:0:0:
503,48,44758,6,0,P|421:46|482:204,1,320,4|0,0:0|0:0,0:0:0:0:
493,364,46394,1,0,0:0:0:0:
332,359,46940,6,0,L|159:342,2,160
338,198,48576,1,0,0:0:0:0:
182,233,49122,6,0,P|140:244|127:58,1,320,4|0,0:0|0:0,0:0:0:0:
279,51,50758,1,0,0:0:0:0:
326,203,51303,6,0,L|490:212,2,160,0|0|0,0:0|0:0|0:0,0:0:0:0:
198,106,52940,1,0,0:0:0:0:
89,223,53485,6,0,P|135:301|275:273,1,240,4|8,0:0|0:0,0:0:0:0:
324,225,54576,2,0,L|483:230,1,160,0|0,0:0|0:0,0:0:0:0:
358,130,55667,6,0,B|337:221|337:221|253:219|228:307,1,240,0|8,0:0|0:0,0:0:0:0:
165,349,56758,2,0,B|81:355|81:355|0:333,1,160
113,214,57849,6,0,B|172:190|172:190|235:261|342:217,1,240,4|8,0:0|0:0,0:0:0:0:
401,176,58940,2,0,L|414:14,2,160,0|0|0,0:0|0:0|0:0,0:0:0:0:
240,177,60576,5,0,0:0:0:0:
206,333,61122,2,0,L|38:324,1,160,0|0,0:0|0:0,0:0:0:0:
8,169,62212,6,0,B|-5:107|33:47|33:47|79:87|150:61,1,240,4|8,0:0|0:0,0:0:0:0:
217,49,63303,2,0,B|300:40|300:40|385:58,1,160,0|0,0:0|0:0,0:0:0:0:
441,201,64394,6,0,B|454:263|416:323|416:323|370:283|299:309,1,240,0|8,0:0|0:0,0:0:0:0:
238,339,65485,2,0,B|155:348|155:348|70:330,1,160,0|0,0:0|0:0,0:0:0:0:
35,178,66576,6,0,B|38:118|38:118|24:83|24:83|28:9,2,160,4|0|0,0:0|0:0|0:0,0:0:0:0:
134,303,68212,1,0,0:0:0:0:
232,176,68758,6,0,L|395:166,1,160,0|0,0:0|0:0,0:0:0:0:
450,315,69849,2,0,P|391:299|285:331,2,160,0|0|4,0:0|0:0|0:0,0:0:0:0:
407,278,76394,6,0,L|417:113,2,160,0|0|0,0:0|0:0|0:0,0:0:0:0:
104,171,78576,6,0,L|94:11,2,160,0|0|4,0:0|0:0|0:0,0:0:0:0:
2,294,80212,6,0,B|62:250|146:300|146:300|225:310|292:259|292:259|342:170|446:181,1,480,0|4,0:0|0:0,0:0:0:0:
159,107,82940,6,0,L|-8:100,2,160
325,364,85122,6,0,L|484:349,2,160,0|0|0,0:0|0:0|0:0,0:0:0:0:
171,83,87303,5,0,0:0:0:0:
17,363,88394,1,0,0:0:0:0:
336,367,89485,6,0,P|401:376|453:225,1,240,0|4,0:0|0:0,0:0:0:0:
405,184,90576,6,0,B|344:179|344:179|284:188,2,120
452,119,91667,2,0,P|484:160|372:259,1,240
405,184,92758,1,0,0:0:0:0:
186,362,93849,6,0,B|110:360|110:360|21:327,2,160,0|0|4,0:0|0:0|0:0,0:0:0:0:
489,258,96031,1,0,0:0:0:0:
169,248,97122,6,0,B|96:226|96:226|17:162,2,160,0|8|0,0:0|3:0|0:0,0:0:0:0:
462,120,99303,6,0,P|401:36|251:137,1,320,4|0,0:0|0:0,0:0:0:0:
314,279,100940,1,0,0:0:0:0:
181,368,101485,6,0,L|7:354,2,160,0|0|0,0:0|0:0|0:0,0:0:0:0:
314,279,103122,1,0,0:0:0:0:
199,167,103667,6,0,P|176:233|41:127,1,320,4|4,0:0|0:0,0:0:0:0:
144,14,105303,1,0,0:0:0:0:
284,91,105849,6,0,L|296:265,2,160,0|0|0,0:0|0:0|0:0,0:0:0:0:
430,156,107485,1,0,0:0:0:0:
373,305,108031,6,0,P|288:342|203:242,1,240,4|8,0:0|0:0,0:0:0:0:
230,168,109122,2,0,B|235:94|235:94|221:10,1,160,4|0,0:0|0:0,0:0:0:0:
360,87,110212,6,0,B|380:161|461:164|461:164|490:279,1,240,0|8,0:0|0:0,0:0:0:0:
457,337,111303,2,0,B|382:358|382:358|295:352,1,160,2|0,0:0|0:0,0:0:0:0:
149,297,112394,6,0,B|139:210|139:210|155:172|155:172|144:55,1,240,4|8,0:0|0:0,0:0:0:0:
212,18,113485,2,0,P|298:21|355:82,1,160,4|0,0:0|0:0,0:0:0:0:
373,227,114576,6,0,B|343:358|343:358|298:316|230:337,1,240,4|8,0:0|0:0,0:0:0:0:
169,358,115667,2,0,L|7:351,2,160,2|2|4,0:0|0:0|0:0,0:0:0:0:
251,220,117303,5,2,0:0:0:0:
227,61,117849,2,0,B|139:76|105:178|105:178|120:243,1,240,4|8,0:0|0:0,0:0:0:0:
186,280,118940,6,0,L|351:269,2,160,2|2|0,0:0|0:0|0:0,0:0:0:0:
287,156,120576,1,2,0:0:0:0:
446,169,121122,5,2,0:0:0:0:
495,323,121667,2,0,B|427:371|336:316|336:316|254:303|190:362,1,320,2|4,0:0|0:0,0:0:0:0:
69,258,123303,6,0,L|56:84,2,160,2|2|2,0:0|0:0|0:0,0:0:0:0:
209,180,124940,6,2,B|191:79|245:131|224:10,1,160,2|6,1:0|1:0,1:0:0:0:
361,192,134212,6,0,P|311:224|266:51,1,320,4|2,0:0|0:0,0:0:0:0:
92,26,135849,1,2,0:0:0:0:
55,181,136394,6,0,B|129:317|129:317|285:374,1,320,2|2,0:0|0:0,0:0:0:0:
418,285,138031,1,2,0:0:0:0:
401,125,138576,6,0,P|311:239|160:176,1,320,2|2,0:0|0:0,0:0:0:0:
117,338,140212,2,0,B|202:328|202:328|290:348,1,160,2|2,0:0|0:0,0:0:0:0:
433,346,141303,1,2,0:0:0:0:
503,200,141849,6,0,L|486:35,2,160,6|2|6,0:0|0:0|0:0,0:0:0:0:
211,56,151667,6,0,P|246:25|418:162,1,320,2|8,0:0|0:0,0:0:0:0:
167,348,153849,6,0,B|88:353|44:272|44:272|92:197|53:114,1,320
197,44,155485,1,0,0:0:0:0:
352,82,156031,1,0,0:0:0:0:
160,338,157122,5,0,0:0:0:0:
256,192,158212,12,0,160258,0:0:0:0:
256,192,162576,6,0,P|198:226|96:59,1,320,4|0,0:0|0:0,0:0:0:0:
248,104,164212,1,0,0:0:0:0:
342,233,164758,6,0,B|233:332|233:332|163:288|54:330,1,320
15,173,166394,1,0,0:0:0:0:
130,62,166940,70,0,B|212:50|212:50|280:82|280:82|375:56|451:107,1,320
463,256,168576,1,0,0:0:0:0:
329,344,169122,6,0,L|155:335,2,160,0|0|4,0:0|0:0|0:0,0:0:0:0:
481,55,171303,70,0,B|463:175|463:175|428:214|428:214|412:363,1,320
282,264,172940,1,0,0:0:0:0:
151,355,173485,6,0,B|135:209|135:209|100:170|100:170|82:50,1,320
239,20,175122,1,0,0:0:0:0:
393,60,175667,2,0,L|382:231,1,160
274,337,176758,2,0,P|201:354|123:320,1,160
267,248,177849,70,0,B|342:260|396:202|396:202|363:156|383:93|383:93|352:118|314:117,1,320
186,149,180031,54,0,P|79:161|65:46,1,240,4|8,0:0|0:0,0:0:0:0:
126,97,181122,2,0,L|148:271,1,160
299,304,182212,6,0,P|371:304|430:164,1,240,0|8,0:0|0:0,0:0:0:0:
391,98,183303,2,0,B|316:79|316:79|218:89,1,160,0|0,0:0|0:0,0:0:0:0:
105,182,184394,6,0,B|134:282|134:282|202:283|234:363,1,240,4|8,0:0|0:0,0:0:0:0:
312,372,185485,2,0,L|479:363,1,160
508,207,186576,6,0,L|348:215,2,160,0|0|0,0:0|0:0|0:0,0:0:0:0:
494,47,188212,1,0,0:0:0:0:
336,76,188758,6,0,B|213:134|228:45|95:98,1,240,4|8,0:0|0:0,0:0:0:0:
52,156,189849,2,0,B|41:242|41:242|60:321,1,160,0|0,0:0|0:0,0:0:0:0:
203,379,190940,6,0,B|268:392|314:344|314:344|380:326|434:364,1,240,0|8,0:0|0:0,0:0:0:0:
496,319,192031,2,0,B|506:248|506:248|491:152,1,160
371,55,193122,6,0,P|262:51|216:161,1,240,4|8,0:0|0:0,0:0:0:0:
254,227,194212,2,0,B|276:303|276:303|264:383,2,160,0|0|0,0:0|0:0|0:0,0:0:0:0:
102,172,195849,5,0,0:0:0:0:
199,45,196394,2,0,L|376:29,1,160
400,185,197485,6,0,L|242:167,2,160
510,291,199122,1,0,0:0:0:0:
358,342,199667,5,4,0:0:0:0:
