osu file format v14

[General]
AudioFilename: Elegy.mp3
AudioLeadIn: 0
PreviewTime: 53084
Countdown: 0
SampleSet: Soft
StackLeniency: 0.7
Mode: 0
LetterboxInBreaks: 0
WidescreenStoryboard: 0

[Editor]
DistanceSpacing: 1.2
BeatDivisor: 4
GridSize: 32
TimelineZoom: 1

[Metadata]
Title:Toumei Elegy
TitleUnicode:透明エレジー
Artist:Konuko
ArtistUnicode:こぬこ
Creator:Awaken
Version:Another
Source:
Tags:櫻花アリス ナブナ Regraz Kawaiwkyik Rizia Evil_Twilight skystar amamiya yuko n-buna ouka alice megpoid gumi utau vocaloid
BeatmapID:541392
BeatmapSetID:219380

[Difficulty]
HPDrainRate:6
CircleSize:4
OverallDifficulty:8
ApproachRate:9
SliderMultiplier:1.6
SliderTickRate:1

[Events]
//Background and Video events
0,0,"Itai.jpg",0,0
//Break Periods
2,10048,17976
2,71140,77976
2,160458,161976
//Storyboard Layer 0 (Background)
//Storyboard Layer 1 (Fail)
//Storyboard Layer 2 (Pass)
//Storyboard Layer 3 (Foreground)
//Storyboard Sound Samples

[TimingPoints]
1122,272.727272727273,4,2,2,60,1,0
1122,-200,4,2,2,60,0,0
18031,-100,4,2,1,80,0,0
27303,-200,4,2,2,60,0,0
35212,-200,4,2,1,60,0,0
36031,-100,4,2,2,70,0,0
44758,-200,4,2,1,70,0,0
53213,-100,4,2,1,70,0,0
53485,-100,4,1,2,90,0,1
53553,-100,4,2,1,90,0,1
61122,-200,4,2,1,90,0,1
61327,-200,4,2,1,70,0,1
61394,-100,4,2,1,90,0,1
70940,-133.333333333333,4,2,2,60,0,0
79394,-100,4,2,1,90,0,0
81849,-200,4,2,2,60,0,0
99303,-133.333333333333,4,2,1,60,0,0
100258,-133.333333333333,4,2,1,65,0,0
105849,-200,4,2,1,65,0,0
106122,-100,4,2,1,65,0,0
106394,-200,4,2,1,65,0,0
107553,-200,4,2,2,65,0,0
108031,-100,4,1,2,90,0,1
108099,-100,4,2,1,90,0,1
116758,-100,4,1,2,90,0,1
116826,-100,4,2,1,90,0,1
125485,-100,4,2,1,90,0,0
142940,-100,4,2,2,60,0,0
157122,-400,4,2,3,60,0,0
162577,-100,4,2,2,50,0,0
171303,-200,4,2,2,60,0,0
180031,-100,4,1,2,90,0,1
180099,-100,4,2,1,90,0,1
187940,-80,4,2,1,90,0,1
188212,-66.6666666666667,4,2,1,90,0,1
188758,-100,4,2,1,90,0,1
199394,-200,4,2,1,90,0,1
199667,-100,4,1,2,90,0,0

[Colours]
Combo1 : 243,7,7
Combo2 : 107,196,98
Combo3 : 77,193,185
Combo4 : 99,216,169
Combo5 : 201,198,186
Combo6 : 126,123,116

[HitObjects]
104,264,1122,6,0,L|54:259,1,40,8|0,0:0|0:0,0:0:0:0:
128,359,1394,2,0,L|212:346,1,80,8|0,0:0|0:0,0:0:0:0:
375,285,1940,1,2,0:0:0:0:
375,285,2076,1,0,0:0:0:0:
375,285,2212,6,0,L|363:233,1,40,8|0,0:0|0:0,0:0:0:0:
450,203,2485,2,0,L|454:155,1,40,0|8,0:0|0:0,0:0:0:0:
396,98,2758,2,0,P|357:91|312:105,1,80,0|2,0:0|0:0,0:0:0:0:
170,151,3167,1,0,0:0:0:0:
170,151,3303,6,0,P|209:158|254:144,1,80
106,224,3712,1,8,0:0:0:0:
106,224,3849,2,0,P|67:217|22:231,1,80,0|2,0:0|0:0,0:0:0:0:
379,265,4394,2,0,L|465:254,1,80,8|0,0:0|0:0,0:0:0:0:
106,224,4940,2,0,P|67:217|22:231,1,80,8|2,0:0|0:0,0:0:0:0:
369,140,5485,6,0,B|411:143|411:143|488:93,2,120,8|0|2,0:0|0:0|0:0,0:0:0:0:
296,98,6440,1,0,0:0:0:0:
219,128,6576,2,0,L|87:127,2,120,8|8|2,0:0|0:0|0:0,0:0:0:0:
247,332,7667,6,0,P|216:269|316:300,1,240,8|2,0:0|0:0,0:0:0:0:
103,278,8758,1,8,0:0:0:0:
103,278,9576,5,8,0:0:0:0:
159,159,9712,2,0,L|164:190,2,20,8|8|4,0:0|0:0|0:0,0:0:0:0:
108,226,18576,6,0,L|274:208,1,160,2|8,0:0|0:0,0:0:0:0:
357,242,18985,1,2,0:0:0:0:
435,185,19122,2,0,P|437:141|425:102,1,80,2|0,0:0|0:0,0:0:0:0:
294,307,19394,2,0,P|339:330|383:325,1,80,8|0,0:0|0:0,0:0:0:0:
296,160,19667,6,0,B|250:145|250:145|198:173|129:148,1,160,2|8,0:0|0:0,0:0:0:0:
66,91,20076,1,0,0:0:0:0:
19,272,20212,1,2,0:0:0:0:
73,198,20349,1,0,0:0:0:0:
73,198,20417,1,0,0:0:0:0:
73,198,20485,1,8,0:0:0:0:
134,340,20622,1,2,0:0:0:0:
234,238,20758,6,0,P|307:221|381:287,2,160,2|8|2,0:0|0:0|0:0,0:0:0:0:
227,131,21440,2,0,L|150:113,1,80,0|8,0:0|0:0,0:0:0:0:
232,25,21712,1,2,0:0:0:0:
324,148,21849,5,0,0:0:0:0:
390,43,21985,1,0,0:0:0:0:
390,43,22053,1,0,0:0:0:0:
390,43,22122,1,8,0:0:0:0:
228,131,22258,1,0,0:0:0:0:
421,203,22394,2,0,B|428:167|428:167|421:117,1,80,2|0,0:0|0:0,0:0:0:0:
301,276,22667,2,0,B|306:318|306:318|332:370,1,80,8|0,0:0|0:0,0:0:0:0:
173,226,22940,6,0,P|96:191|20:230,2,160,2|10|0,0:0|0:0|0:0,0:0:0:0:
219,344,23622,1,0,0:0:0:0:
117,119,23758,1,8,0:0:0:0:
62,304,23894,5,0,0:0:0:0:
62,304,23962,1,0,0:0:0:0:
62,304,24031,1,2,0:0:0:0:
239,175,24167,1,0,0:0:0:0:
44,222,24303,2,0,B|37:188|37:188|43:139,1,80,8|0,0:0|0:0,0:0:0:0:
296,114,24576,6,0,P|324:160|262:254,1,160,2|8,0:0|0:0,0:0:0:0:
144,133,24985,1,0,0:0:0:0:
144,133,25053,1,0,0:0:0:0:
144,133,25122,2,0,L|130:35,1,80,2|0,0:0|0:0,0:0:0:0:
418,185,25394,2,0,L|408:281,1,80,8|0,0:0|0:0,0:0:0:0:
253,39,25667,2,0,P|308:26|387:111,1,160,2|8,0:0|0:0,0:0:0:0:
291,367,26212,6,0,L|279:204,1,160,4|10,0:0|0:0,0:0:0:0:
178,345,26622,1,0,0:0:0:0:
178,345,26690,1,0,0:0:0:0:
178,345,26758,1,2,0:0:0:0:
123,142,26894,1,2,0:0:0:0:
211,262,27031,1,8,0:0:0:0:
55,201,27167,1,0,0:0:0:0:
154,47,27303,5,4,0:0:0:0:
299,32,28394,1,8,0:0:0:0:
299,32,29485,6,0,P|243:30|188:74,2,120,0|0|2,0:0|0:0|0:0,0:0:0:0:
93,91,30576,1,8,0:0:0:0:
397,236,31122,1,8,0:0:0:0:
397,236,31667,6,0,L|278:231,2,120,8|8|2,0:0|0:0|0:0,0:0:0:0:
144,294,32758,1,8,0:0:0:0:
498,382,33849,5,8,0:0:0:0:
498,382,34394,2,0,L|501:297,1,80,0|2,0:0|0:0,0:0:0:0:
439,179,34940,2,0,L|448:126,1,40,0|0,0:0|0:0,0:0:0:0:
408,68,35212,6,0,B|383:59|383:59|354:63|334:55|334:55|319:71|303:77|303:77|284:76,1,120,2|2,0:0|0:0,0:0:0:0:
233,33,35758,6,0,L|194:30,1,40,4|0,0:0|0:0,0:0:0:0:
144,91,36031,6,0,P|70:109|7:45,1,160,8|0,0:0|0:0,0:0:0:0:
8,185,36440,2,0,P|58:185|116:275,1,160,8|0,0:0|0:0,0:0:0:0:
184,173,36849,1,2,0:0:0:0:
315,320,37122,6,0,L|299:156,1,160,8|0,0:0|0:0,0:0:0:0:
487,76,37531,2,0,P|486:132|386:194,1,160,8|0,0:0|0:0,0:0:0:0:
366,86,37940,1,2,2:0:0:0:
221,251,38212,6,0,P|161:265|97:190,1,160,8|0,0:0|0:0,0:0:0:0:
169,19,38622,2,0,L|178:179,1,160,8|0,0:0|0:0,0:0:0:0:
85,100,39031,1,2,0:0:0:0:
426,137,39303,6,0,B|415:212|415:212|427:246|427:246|422:311,1,160,8|0,0:0|0:0,0:0:0:0:
336,162,39712,2,0,B|325:237|325:237|337:271|337:271|332:336,1,160,8|0,0:0|0:0,0:0:0:0:
249,290,40122,1,2,0:0:0:0:
249,290,40394,6,8,B|186:330|186:330|92:323,1,160,12|8,0:0|0:0,0:0:0:0:
0,257,40803,2,8,B|63:217|63:217|157:224,1,160,8|8,0:0|0:0,0:0:0:0:
442,329,41212,1,10,0:0:0:0:
442,329,41485,6,8,B|492:295|492:295|512:178,1,160,8|8,0:0|0:0,0:0:0:0:
356,139,41894,2,8,B|306:173|306:173|286:290,1,160,8|8,0:0|0:0,0:0:0:0:
401,235,42303,1,10,0:0:0:0:
401,235,42576,6,0,L|396:64,1,160
308,29,42985,1,0,0:0:0:0:
247,184,43122,2,0,P|247:144|226:92,1,80,2|0,0:0|0:0,0:0:0:0:
143,165,43394,2,0,L|138:259,1,80
192,33,43667,5,8,0:0:0:0:
203,22,43940,1,8,0:0:0:0:
124,35,44076,1,8,0:0:0:0:
45,49,44212,1,8,0:0:0:0:
315,159,44485,1,2,2:0:0:0:
161,236,44758,6,0,L|151:111,1,120,6|2,0:0|0:0,0:0:0:0:
124,35,45303,1,8,0:0:0:0:
315,159,45576,1,2,0:0:0:0:
181,317,45849,6,0,P|133:317|81:256,1,120,2|0,0:0|0:0,0:0:0:0:
86,193,46394,1,8,0:0:0:0:
316,243,46667,1,2,0:0:0:0:
256,38,46940,6,0,B|249:97|249:97|231:133|231:133|224:201,2,160,0|8|2,0:0|0:0|0:0,0:0:0:0:
452,289,48576,1,2,0:0:0:0:
452,289,48849,2,0,L|458:339,1,40,0|0,0:0|0:0,0:0:0:0:
395,379,49122,6,0,P|341:383|295:340,1,120,2|2,0:0|0:0,0:0:0:0:
288,264,49667,1,8,0:0:0:0:
189,102,49940,1,0,0:0:0:0:
217,309,50212,6,0,B|173:317|173:317|103:279,1,120,0|0,0:0|0:0,0:0:0:0:
48,222,50758,1,2,0:0:0:0:
332,144,51031,1,2,0:0:0:0:
83,62,51303,6,0,L|89:141,1,80,0|8,0:0|0:0,0:0:0:0:
243,188,51849,2,0,L|238:273,1,80,0|8,0:0|0:0,0:0:0:0:
124,198,52394,5,0,0:0:0:0:
128,182,52667,1,8,0:0:0:0:
133,167,52940,1,8,0:0:0:0:
122,93,53212,5,2,0:0:0:0:
122,93,53485,6,0,P|125:158|215:191,1,160,4|8,0:0|0:0,0:0:0:0:
319,154,53894,1,0,0:0:0:0:
319,154,53962,1,0,0:0:0:0:
319,154,54031,1,2,0:0:0:0:
198,117,54167,1,0,0:0:0:0:
384,101,54303,2,0,P|408:148|403:187,1,80,8|0,0:0|0:0,0:0:0:0:
238,340,54576,6,0,B|228:276|228:276|240:242|240:242|234:179,1,160,2|8,0:0|0:0,0:0:0:0:
322,288,54985,1,0,0:0:0:0:
322,288,55053,1,0,0:0:0:0:
322,288,55122,1,2,0:0:0:0:
151,224,55258,1,0,0:0:0:0:
393,249,55394,2,0,P|404:294|387:340,1,80,8|2,0:0|0:0,0:0:0:0:
238,340,55667,6,0,P|174:323|103:383,1,160,2|8,0:0|0:0,0:0:0:0:
14,320,56076,1,0,0:0:0:0:
51,154,56212,2,0,P|65:203|67:247,1,80,2|0,0:0|0:0,0:0:0:0:
154,122,56485,2,0,L|160:33,1,80,10|2,0:0|0:0,0:0:0:0:
229,208,56758,5,2,0:0:0:0:
229,208,56894,1,0,0:0:0:0:
323,228,57031,2,0,P|323:188|309:152,1,80,8|2,0:0|0:0,0:0:0:0:
262,297,57303,6,0,B|301:331|351:313|351:313|420:337,1,160,2|8,0:0|0:0,0:0:0:0:
492,236,57712,1,2,0:0:0:0:
492,236,57781,1,0,0:0:0:0:
492,236,57849,2,0,B|431:243|431:243|396:200|421:145,1,160,4|8,0:0|0:0,0:0:0:0:
482,84,58258,1,0,0:0:0:0:
294,138,58394,2,0,L|360:83,1,80,2|0,0:0|0:0,0:0:0:0:
482,84,58667,1,8,0:0:0:0:
418,150,58803,1,0,0:0:0:0:
339,7,58940,6,0,P|381:11|419:37,1,80,2|0,0:0|0:0,0:0:0:0:
241,58,59212,2,0,P|203:76|166:76,1,80,8|0,0:0|0:0,0:0:0:0:
66,123,59485,1,2,0:0:0:0:
196,192,59622,1,0,0:0:0:0:
196,192,59690,1,0,0:0:0:0:
196,192,59758,1,8,0:0:0:0:
37,224,59894,1,2,0:0:0:0:
191,274,60031,6,0,P|250:257|270:167,1,160,2|8,0:0|0:0,0:0:0:0:
172,106,60440,1,2,0:0:0:0:
116,180,60576,2,0,L|196:192,1,80,0|2,0:0|0:0,0:0:0:0:
462,234,60849,1,8,0:0:0:0:
354,146,60985,1,2,0:0:0:0:
369,302,61122,6,0,L|299:297,1,60,2|0,0:0|0:0,0:0:0:0:
228,320,61394,6,0,L|107:325,1,120,14|0,0:0|0:0,0:0:0:0:
28,305,61667,6,0,P|-1:253|22:177,1,120,6|0,0:0|0:0,0:0:0:0:
60,137,61940,1,8,0:0:0:0:
241,219,62076,1,0,0:0:0:0:
208,84,62212,6,0,B|268:75|268:75|302:90|302:90|386:79,1,160,6|8,0:0|0:0,0:0:0:0:
327,200,62622,1,0,0:0:0:0:
442,288,62758,2,0,B|382:279|382:279|348:294|348:294|286:285,1,160,2|8,0:0|0:0,0:0:0:0:
29,145,63167,1,0,0:0:0:0:
33,302,63303,6,0,B|23:236|23:236|35:204|35:204|28:133,1,160,2|10,0:0|0:0,0:0:0:0:
212,197,63712,1,0,0:0:0:0:
112,268,63849,1,2,0:0:0:0:
151,126,63985,1,0,0:0:0:0:
151,126,64053,1,0,0:0:0:0:
151,126,64122,1,8,0:0:0:0:
198,278,64258,1,2,0:0:0:0:
236,112,64394,6,0,P|217:74|101:58,1,160,2|8,0:0|0:0,0:0:0:0:
212,197,64803,1,2,0:0:0:0:
30,157,64940,6,0,P|25:210|39:247,1,80,2|0,0:0|0:0,0:0:0:0:
286,306,65212,2,0,P|298:260|292:221,1,80,8|0,0:0|0:0,0:0:0:0:
45,248,65485,1,2,0:0:0:0:
203,331,65622,1,0,0:0:0:0:
52,370,65758,1,8,0:0:0:0:
162,259,65894,5,0,0:0:0:0:
162,259,65962,1,0,0:0:0:0:
162,259,66031,1,0,0:0:0:0:
305,384,66167,1,2,0:0:0:0:
212,197,66303,1,8,0:0:0:0:
136,380,66440,1,0,0:0:0:0:
364,330,66576,6,0,B|416:317|452:352|452:352|490:329|494:280,1,160,2|8,0:0|0:0,0:0:0:0:
423,191,66985,1,0,0:0:0:0:
423,191,67053,1,0,0:0:0:0:
423,191,67122,2,0,B|417:153|417:153|423:100,1,80,2|0,0:0|0:0,0:0:0:0:
318,13,67394,2,0,B|324:51|324:51|318:104,1,80,8|2,0:0|0:0,0:0:0:0:
281,260,67667,1,2,0:0:0:0:
178,99,67803,1,2,0:0:0:0:
13,176,67940,1,2,0:0:0:0:
64,293,68076,5,2,0:0:0:0:
64,293,68144,1,0,0:0:0:0:
64,293,68212,2,0,L|146:282,1,80,2|0,0:0|0:0,0:0:0:0:
289,345,68485,2,0,L|210:347,1,80,8|2,0:0|0:0,0:0:0:0:
281,260,68758,6,0,P|367:303|374:374,1,160,2|8,0:0|0:0,0:0:0:0:
348,159,69167,1,0,0:0:0:0:
348,159,69235,1,0,0:0:0:0:
348,159,69303,1,2,0:0:0:0:
482,279,69440,1,0,0:0:0:0:
436,143,69576,1,8,0:0:0:0:
388,327,69712,1,0,0:0:0:0:
381,76,69849,5,2,0:0:0:0:
267,183,70122,1,10,0:0:0:0:
140,169,70394,1,2,0:0:0:0:
220,258,70667,1,8,0:0:0:0:
243,335,70940,5,4,0:0:0:0:
265,173,78576,5,8,0:0:0:0:
354,40,78712,1,0,0:0:0:0:
354,40,78781,1,0,0:0:0:0:
354,40,78849,1,8,0:0:0:0:
363,200,78985,1,8,0:0:0:0:
261,78,79122,5,8,0:0:0:0:
408,124,79258,1,0,0:0:0:0:
182,130,79394,1,8,0:0:0:0:
168,136,79667,38,0,P|155:199|179:268,1,120,4|0,0:0|0:0,0:0:0:0:
231,301,79940,2,0,L|310:291,1,80,8|0,0:0|0:0,0:0:0:0:
450,199,80212,1,2,0:0:0:0:
261,78,80349,1,0,0:0:0:0:
261,78,80417,1,0,0:0:0:0:
261,78,80485,1,8,0:0:0:0:
444,41,80622,1,0,0:0:0:0:
287,170,80758,6,0,P|283:211|301:264,1,80,2|0,0:0|0:0,0:0:0:0:
506,354,81031,2,0,P|510:313|492:260,1,80,8|0,0:0|0:0,0:0:0:0:
376,146,81303,1,2,0:0:0:0:
363,307,81440,1,0,0:0:0:0:
508,146,81576,1,8,0:0:0:0:
290,40,81712,1,0,0:0:0:0:
224,239,81849,21,4,0:0:0:0:
0,147,82258,1,8,0:0:0:0:
0,147,82667,1,2,0:0:0:0:
181,19,82940,5,8,0:0:0:0:
259,365,84031,5,8,0:0:0:0:
259,365,84440,1,0,0:0:0:0:
259,365,84849,1,2,0:0:0:0:
164,197,85122,5,8,0:0:0:0:
406,72,86212,5,8,0:0:0:0:
406,72,86622,1,8,0:0:0:0:
406,72,87031,1,2,0:0:0:0:
314,214,87303,5,8,0:0:0:0:
186,173,88394,5,8,0:0:0:0:
186,173,88803,1,8,0:0:0:0:
186,173,89212,1,2,0:0:0:0:
88,243,89485,6,0,L|56:239,11,20,8|0|0|0|0|0|0|0|0|0|0|0,0:0|0:0|0:0|0:0|0:0|0:0|0:0|0:0|0:0|0:0|0:0|0:0,0:0:0:0:
54,263,90303,2,0,L|28:263,3,20,2|0|0|0,0:0|0:0|0:0|0:0,0:0:0:0:
18,277,90576,6,0,L|10:186,1,80,8|0,0:0|0:0,0:0:0:0:
81,150,90985,2,0,L|66:65,1,80,8|0,0:0|0:0,0:0:0:0:
112,3,91394,1,2,0:0:0:0:
261,117,91667,6,0,L|249:204,1,80,8|0,0:0|0:0,0:0:0:0:
165,223,92076,2,0,L|175:308,1,80,8|0,0:0|0:0,0:0:0:0:
131,374,92485,1,2,0:0:0:0:
352,377,92758,6,0,L|446:371,1,80,8|0,0:0|0:0,0:0:0:0:
511,326,93167,1,8,0:0:0:0:
511,326,93576,1,2,0:0:0:0:
308,195,93849,6,0,L|224:193,1,80,8|0,0:0|0:0,0:0:0:0:
152,142,94258,1,8,0:0:0:0:
152,142,94667,1,2,0:0:0:0:
59,342,94940,6,0,L|145:332,1,80,8|0,0:0|0:0,0:0:0:0:
214,360,95349,2,0,P|251:361|296:346,1,80,8|0,0:0|0:0,0:0:0:0:
359,293,95758,1,2,0:0:0:0:
280,118,96031,6,0,L|288:250,2,120,8|8|2,0:0|0:0|0:0,0:0:0:0:
409,55,97122,5,4,0:0:0:0:
372,140,97394,1,8,0:0:0:0:
280,119,97667,1,0,0:0:0:0:
271,32,97940,1,8,0:0:0:0:
161,154,98212,6,0,P|196:229|275:243,1,160,8|8,0:0|0:0,0:0:0:0:
340,207,99031,1,2,0:0:0:0:
414,245,99303,6,0,L|478:240,1,60.0000022888184,4|0,0:0|0:0,0:0:0:0:
396,338,99576,2,0,L|325:336,1,60.0000022888184,8|0,0:0|0:0,0:0:0:0:
258,293,99849,2,0,P|220:305|140:266,1,120.000004577637,8|0,0:0|0:0,0:0:0:0:
119,195,100258,1,0,0:0:0:0:
119,195,100326,1,0,0:0:0:0:
119,195,100394,6,0,L|117:131,1,60.0000022888184,2|0,0:0|0:0,0:0:0:0:
198,26,100667,2,0,L|195:93,1,60.0000022888184,8|0,0:0|0:0,0:0:0:0:
279,196,100940,2,0,L|277:132,1,60.0000022888184,2|0,0:0|0:0,0:0:0:0:
358,27,101212,2,0,L|355:94,1,60.0000022888184,8|0,0:0|0:0,0:0:0:0:
406,173,101485,6,0,P|439:187|474:190,1,60.0000022888184,2|0,0:0|0:0,0:0:0:0:
346,268,101758,2,0,P|343:306|351:339,1,60.0000022888184,8|0,0:0|0:0,0:0:0:0:
204,261,102031,2,0,P|186:292|179:320,1,60.0000022888184,2|0,0:0|0:0,0:0:0:0:
137,168,102303,2,0,P|104:154|69:151,1,60.0000022888184,8|0,0:0|0:0,0:0:0:0:
200,78,102576,5,2,0:0:0:0:
200,78,102712,1,0,0:0:0:0:
277,148,102849,1,8,0:0:0:0:
277,148,102985,1,0,0:0:0:0:
346,76,103122,2,0,L|341:8,1,60.0000022888184,2|0,0:0|0:0,0:0:0:0:
446,72,103394,1,8,0:0:0:0:
512,150,103531,5,0,0:0:0:0:
512,150,103599,1,0,0:0:0:0:
512,150,103667,2,0,P|480:170|413:165,1,90.0000034332277,2|0,0:0|0:0,0:0:0:0:
397,160,103940,2,0,L|383:223,1,60.0000022888184,8|0,0:0|0:0,0:0:0:0:
255,284,104212,6,0,P|220:286|169:224,1,120.000004577637,2|8,0:0|0:0,0:0:0:0:
201,137,104622,1,0,0:0:0:0:
201,137,104690,1,0,0:0:0:0:
201,137,104758,2,0,L|192:75,1,60.0000022888184,2|0,0:0|0:0,0:0:0:0:
301,129,105031,2,0,L|294:189,1,60.0000022888184,8|0,0:0|0:0,0:0:0:0:
197,295,105303,2,0,L|188:233,1,60.0000022888184,2|0,0:0|0:0,0:0:0:0:
297,287,105576,2,0,L|289:346,1,60.0000022888184,8|0,0:0|0:0,0:0:0:0:
121,361,105849,5,2,0:0:0:0:
425,300,106122,1,12,0:0:0:0:
107,255,106394,1,2,0:0:0:0:
382,377,106667,1,8,0:0:0:0:
291,127,106940,5,2,0:0:0:0:
285,142,107212,1,10,0:0:0:0:
280,157,107485,5,2,0:0:0:0:
271,175,107553,1,0,0:0:0:0:
263,193,107622,1,8,0:0:0:0:
255,211,107690,1,8,0:0:0:0:
247,229,107758,1,10,0:0:0:0:
239,247,107826,1,8,0:0:0:0:
231,265,107894,1,8,0:0:0:0:
222,283,107962,1,8,0:0:0:0:
214,301,108031,6,0,B|198:239|198:239|199:214|199:214|180:141,1,160,4|8,0:0|0:0,0:0:0:0:
105,86,108440,1,0,0:0:0:0:
266,5,108576,6,0,L|261:100,1,80,2|0,0:0|0:0,0:0:0:0:
365,80,108849,2,0,L|360:175,1,80,8|0,0:0|0:0,0:0:0:0:
456,134,109122,1,2,0:0:0:0:
510,223,109258,1,0,0:0:0:0:
510,223,109326,1,0,0:0:0:0:
510,223,109394,1,8,0:0:0:0:
435,295,109531,1,0,0:0:0:0:
505,353,109667,6,0,P|466:377|360:336,1,160,2|8,0:0|0:0,0:0:0:0:
288,284,110076,1,2,0:0:0:0:
210,338,110212,2,0,P|195:299|200:254,1,80,2|0,0:0|0:0,0:0:0:0:
256,182,110485,1,8,0:0:0:0:
288,284,110622,1,0,0:0:0:0:
326,128,110758,2,0,P|341:180|334:219,1,80,2|0,0:0|0:0,0:0:0:0:
172,144,111031,2,0,P|170:101|186:58,1,80,10|2,0:0|0:0,0:0:0:0:
288,17,111303,6,0,L|382:26,1,80,2|0,0:0|0:0,0:0:0:0:
455,83,111576,1,10,0:0:0:0:
409,161,111712,1,0,0:0:0:0:
409,161,111781,1,0,0:0:0:0:
409,161,111849,2,0,L|418:241,1,80,2|0,0:0|0:0,0:0:0:0:
355,309,112122,1,8,0:0:0:0:
481,349,112258,1,0,0:0:0:0:
327,384,112394,6,0,P|287:357|303:249,1,160,2|8,0:0|0:0,0:0:0:0:
105,191,112803,1,0,0:0:0:0:
205,148,112940,2,0,B|211:190|211:190|204:240,1,80,2|0,0:0|0:0,0:0:0:0:
119,359,113212,2,0,B|113:321|113:321|119:279,1,80,8|0,0:0|0:0,0:0:0:0:
307,225,113485,6,0,P|296:275|201:326,1,160,2|8,0:0|0:0,0:0:0:0:
119,279,113894,1,0,0:0:0:0:
119,279,113962,1,0,0:0:0:0:
119,279,114031,1,2,0:0:0:0:
26,358,114167,1,0,0:0:0:0:
10,239,114303,2,0,L|0:154,1,80,8|0,0:0|0:0,0:0:0:0:
49,65,114576,6,0,P|130:43|192:98,1,160,2|8,0:0|0:0,0:0:0:0:
327,61,114985,1,0,0:0:0:0:
262,216,115122,2,0,L|260:128,1,80,2|0,0:0|0:0,0:0:0:0:
131,185,115394,1,8,0:0:0:0:
213,297,115531,1,0,0:0:0:0:
128,355,115667,6,0,P|114:318|119:279,1,80,2|0,0:0|0:0,0:0:0:0:
342,252,115940,2,0,P|289:307|213:297,1,160,10|2,0:0|0:0,0:0:0:0:
337,162,116349,2,0,P|372:167|420:203,1,80,0|8,0:0|0:0,0:0:0:0:
167,226,116622,1,0,0:0:0:0:
166,215,116690,1,0,0:0:0:0:
167,203,116758,6,0,B|161:169|161:169|171:136|171:136|142:96|171:43,1,160,4|8,0:0|0:0,0:0:0:0:
265,85,117167,1,0,0:0:0:0:
265,85,117235,1,0,0:0:0:0:
265,85,117303,1,2,0:0:0:0:
255,207,117440,1,0,0:0:0:0:
352,69,117576,2,0,P|326:24|289:7,1,80,8|0,0:0|0:0,0:0:0:0:
337,162,117849,6,0,B|388:172|420:134|420:134|463:134|496:165,1,160,2|8,0:0|0:0,0:0:0:0:
512,244,118258,1,0,0:0:0:0:
512,244,118326,1,0,0:0:0:0:
512,244,118394,1,2,0:0:0:0:
455,375,118531,1,0,0:0:0:0:
346,300,118667,2,0,P|385:291|425:295,1,80,8|2,0:0|0:0,0:0:0:0:
269,357,118940,6,0,L|137:348,1,120,2|0,0:0|0:0,0:0:0:0:
149,348,119212,1,8,0:0:0:0:
229,237,119349,1,2,0:0:0:0:
93,118,119485,2,0,P|85:168|124:232,1,120,2|0,0:0|0:0,0:0:0:0:
117,226,119758,1,8,0:0:0:0:
229,148,119894,1,0,0:0:0:0:
346,301,120031,6,0,L|336:208,1,80,2|0,0:0|0:0,0:0:0:0:
447,137,120303,2,0,L|442:223,1,80,10|2,0:0|0:0,0:0:0:0:
339,105,120576,5,0,0:0:0:0:
439,48,120712,1,2,0:0:0:0:
243,56,120849,1,8,0:0:0:0:
346,8,120985,1,2,0:0:0:0:
142,11,121122,6,0,P|134:48|141:97,1,80,2|0,0:0|0:0,0:0:0:0:
229,148,121394,1,8,0:0:0:0:
71,231,121531,1,0,0:0:0:0:
71,231,121599,1,0,0:0:0:0:
71,231,121667,2,0,L|60:139,1,80,2|0,0:0|0:0,0:0:0:0:
175,241,121940,2,0,L|166:332,1,80,8|0,0:0|0:0,0:0:0:0:
232,384,122212,5,2,0:0:0:0:
83,333,122349,1,0,0:0:0:0:
250,191,122485,2,0,P|263:237|251:284,1,80,10|0,0:0|0:0,0:0:0:0:
431,339,122758,5,0,0:0:0:0:
351,253,122894,1,0,0:0:0:0:
351,253,122962,1,0,0:0:0:0:
351,253,123031,1,8,0:0:0:0:
195,312,123167,1,2,0:0:0:0:
337,350,123303,6,0,P|391:343|447:249,1,160,2|8,0:0|0:0,0:0:0:0:
321,131,123712,1,2,0:0:0:0:
235,220,123849,2,0,L|250:313,1,80,2|0,0:0|0:0,0:0:0:0:
405,171,124122,2,0,P|416:123|406:88,1,80,8|0,0:0|0:0,0:0:0:0:
193,41,124394,5,2,0:0:0:0:
230,130,124531,1,0,0:0:0:0:
300,54,124667,1,8,0:0:0:0:
147,114,124803,1,0,0:0:0:0:
147,114,124872,1,0,0:0:0:0:
147,114,124940,1,2,0:0:0:0:
76,24,125076,1,0,0:0:0:0:
35,126,125212,2,0,L|46:167,3,40,8|0|0|0,0:0|0:0|0:0|0:0,0:0:0:0:
72,195,125485,6,0,L|62:290,1,80,6|0,0:0|0:0,0:0:0:0:
152,340,125758,2,0,P|232:341|283:277,1,160,10|2,0:0|0:0,0:0:0:0:
238,171,126167,1,0,0:0:0:0:
238,171,126235,1,0,0:0:0:0:
238,171,126303,1,10,0:0:0:0:
385,125,126440,6,0,L|369:291,1,160,2|2,0:0|0:0,0:0:0:0:
154,264,126849,2,0,P|145:226|158:177,1,80,8|2,0:0|0:0,0:0:0:0:
244,56,127122,2,0,L|294:52,2,40,2|2|2,0:0|0:0|0:0,0:0:0:0:
366,15,127394,6,0,P|374:53|364:92,1,80,10|2,0:0|0:0,0:0:0:0:
133,72,127667,1,2,0:0:0:0:
197,138,127803,2,0,L|291:136,1,80,2|8,0:0|0:0,0:0:0:0:
426,255,128076,1,0,0:0:0:0:
359,351,128212,2,0,L|266:332,1,80,2|0,0:0|0:0,0:0:0:0:
113,151,128485,1,8,0:0:0:0:
109,299,128622,2,0,L|201:280,1,80,2|0,0:0|0:0,0:0:0:0:
371,154,128894,5,2,0:0:0:0:
504,231,129031,1,8,0:0:0:0:
466,71,129167,1,2,0:0:0:0:
335,237,129303,5,0,0:0:0:0:
455,156,129440,1,2,0:0:0:0:
455,156,129508,1,0,0:0:0:0:
455,156,129576,1,10,0:0:0:0:
376,66,129712,1,0,0:0:0:0:
422,236,129849,6,0,L|431:324,1,80,2|0,0:0|0:0,0:0:0:0:
430,315,130053,1,0,0:0:0:0:
430,315,130122,1,10,0:0:0:0:
286,163,130258,2,0,L|291:-2,1,160,2|0,0:0|0:0,0:0:0:0:
327,327,130667,2,0,P|282:336|244:327,1,80,10|0,0:0|0:0,0:0:0:0:
146,171,130940,5,0,0:0:0:0:
250,245,131076,1,2,0:0:0:0:
351,98,131212,1,10,0:0:0:0:
216,118,131349,6,0,P|146:135|82:66,1,160,2|0,0:0|0:0,0:0:0:0:
364,199,131758,2,0,P|377:242|364:289,1,80,10|0,0:0|0:0,0:0:0:0:
262,345,132031,5,2,0:0:0:0:
243,351,132099,1,0,0:0:0:0:
224,358,132167,1,2,0:0:0:0:
205,365,132235,1,0,0:0:0:0:
187,373,132303,2,0,L|139:366,3,40,10|0|2|0,0:0|0:0|0:0|0:0,0:0:0:0:
79,335,132576,6,0,L|23:340,3,40,2|0|2|0,0:0|0:0|0:0|0:0,0:0:0:0:
102,246,132849,2,0,L|146:251,3,40,8|0|0|0,0:0|0:0|0:0|0:0,0:0:0:0:
17,253,133122,6,0,L|1:158,1,80,4|0,0:0|0:0,0:0:0:0:
48,86,133394,1,8,0:0:0:0:
137,141,133531,2,0,P|205:166|289:124,1,160,2|0,0:0|0:0,0:0:0:0:
486,203,133940,2,0,P|418:178|334:220,1,160,8|4,0:0|0:0,0:0:0:0:
476,297,134349,5,0,0:0:0:0:
335,227,134485,1,8,0:0:0:0:
335,227,134622,1,0,0:0:0:0:
438,375,134758,5,2,0:0:0:0:
405,174,134894,1,0,0:0:0:0:
354,303,135031,2,0,P|313:306|267:276,1,80,10|2,0:0|0:0,0:0:0:0:
477,297,135303,5,2,0:0:0:0:
335,227,135440,1,2,0:0:0:0:
335,227,135508,1,0,0:0:0:0:
335,227,135576,1,10,0:0:0:0:
476,297,135712,1,0,0:0:0:0:
293,384,135849,5,2,0:0:0:0:
223,303,135985,1,0,0:0:0:0:
117,341,136122,2,0,L|108:251,1,80,10|2,0:0|0:0,0:0:0:0:
100,163,136394,5,2,0:0:0:0:
192,232,136531,1,0,0:0:0:0:
265,147,136667,2,0,L|275:60,1,80,10|2,0:0|0:0,0:0:0:0:
181,29,136940,5,2,0:0:0:0:
181,29,137076,1,0,0:0:0:0:
100,163,137212,1,10,0:0:0:0:
192,232,137349,1,2,0:0:0:0:
164,109,137485,2,0,P|98:83|19:143,1,160,2|10,0:0|0:0,0:0:0:0:
100,248,137894,1,2,0:0:0:0:
273,229,138031,5,2,0:0:0:0:
106,264,138167,1,2,0:0:0:0:
285,313,138303,1,10,0:0:0:0:
114,277,138440,1,0,0:0:0:0:
248,378,138576,6,0,P|319:380|355:291,1,160,4|8,0:0|0:0,0:0:0:0:
177,141,138985,2,0,L|192:306,1,160,0|2,0:0|0:0,0:0:0:0:
370,57,139394,2,0,B|296:35|296:35|214:45,1,160,10|2,0:0|0:0,0:0:0:0:
361,177,139803,5,2,0:0:0:0:
272,129,139940,2,0,B|256:169|256:169|254:220,1,80,10|0,0:0|0:0,0:0:0:0:
409,244,140212,5,2,0:0:0:0:
315,327,140349,1,2,0:0:0:0:
251,225,140485,2,0,B|233:266|233:266|186:295,1,80,8|0,0:0|0:0,0:0:0:0:
83,263,140758,5,2,0:0:0:0:
184,369,140894,1,0,0:0:0:0:
308,290,141031,1,10,0:0:0:0:
308,290,141167,1,2,0:0:0:0:
193,160,141303,5,0,0:0:0:0:
155,295,141440,1,2,0:0:0:0:
263,384,141576,1,8,0:0:0:0:
263,384,141712,1,0,0:0:0:0:
143,218,141849,6,0,L|130:52,1,160,6|14,0:0|0:0,0:0:0:0:
0,81,142258,1,0,0:0:0:0:
0,81,142326,1,0,0:0:0:0:
0,81,142394,1,6,0:0:0:0:
59,154,142531,1,0,0:0:0:0:
0,225,142667,1,14,0:0:0:0:
124,297,142803,1,0,0:0:0:0:
236,197,142940,5,4,0:0:0:0:
474,251,144031,1,8,0:0:0:0:
459,341,145122,1,8,0:0:0:0:
419,82,145940,5,0,0:0:0:0:
419,82,146212,1,8,0:0:0:0:
97,331,147303,5,8,0:0:0:0:
194,314,148394,1,8,0:0:0:0:
297,290,149485,1,8,0:0:0:0:
21,273,150303,5,0,0:0:0:0:
21,273,150576,1,8,0:0:0:0:
239,43,151122,1,8,0:0:0:0:
323,338,151667,5,12,0:0:0:0:
161,184,152758,1,8,0:0:0:0:
407,163,153849,5,8,0:0:0:0:
171,265,154940,1,8,0:0:0:0:
267,54,155758,5,0,0:0:0:0:
267,54,156031,1,8,0:0:0:0:
196,15,157122,6,0,B|167:107|226:80|200:173,1,160,2|4,0:0|0:0,0:0:0:0:
256,192,158281,12,0,160258,0:0:0:0:
256,192,162576,69,12,0:0:0:0:
256,192,163122,1,8,0:0:0:0:
256,192,163667,1,8,0:0:0:0:
256,192,164212,1,8,0:0:0:0:
256,192,164758,1,8,0:0:0:0:
256,192,165303,1,8,0:0:0:0:
256,192,165849,1,8,0:0:0:0:
255,192,166394,1,8,0:0:0:0:
317,326,166940,69,8,0:0:0:0:
317,326,167485,1,8,0:0:0:0:
317,326,168031,1,8,0:0:0:0:
317,326,168576,1,8,0:0:0:0:
156,346,169122,5,8,0:0:0:0:
352,229,169667,1,8,0:0:0:0:
156,346,170212,1,4,0:0:0:0:
246,85,171303,6,0,L|251:209,2,120,8|8|2,0:0|0:0|0:0,0:0:0:0:
357,183,172394,2,0,L|336:308,2,120,8|8|2,0:0|0:0|0:0,0:0:0:0:
190,360,173485,6,0,P|152:360|90:303,2,120,8|8|2,0:0|0:0|0:0,0:0:0:0:
318,337,174576,2,0,B|377:336|377:336|445:354,2,120,8|8|2,0:0|0:0|0:0,0:0:0:0:
495,180,175667,5,8,0:0:0:0:
495,180,176758,6,0,L|500:128,1,40,8|0,0:0|0:0,0:0:0:0:
415,157,177031,2,0,L|412:197,1,40,0|8,0:0|0:0,0:0:0:0:
325,212,177303,2,0,L|330:160,1,40,0|0,0:0|0:0,0:0:0:0:
290,95,177576,1,2,0:0:0:0:
215,332,177849,6,0,B|255:334|255:334|309:314,1,80,8|0,0:0|0:0,0:0:0:0:
176,195,178258,2,0,B|202:224|202:224|255:248,1,80,8|0,0:0|0:0,0:0:0:0:
193,93,178667,1,2,0:0:0:0:
193,93,178940,1,8,0:0:0:0:
193,93,180031,6,0,L|176:258,1,160,4|8,0:0|0:0,0:0:0:0:
127,340,180440,1,0,0:0:0:0:
127,340,180508,1,0,0:0:0:0:
127,340,180576,1,2,0:0:0:0:
259,288,180712,1,0,0:0:0:0:
66,279,180849,2,0,P|43:314|46:370,1,80,8|0,0:0|0:0,0:0:0:0:
141,241,181122,6,0,P|99:201|2:223,1,160,6|8,0:0|0:0,0:0:0:0:
16,100,181531,1,0,0:0:0:0:
100,55,181667,2,0,B|119:90|119:90|164:123,1,80,2|0,0:0|0:0,0:0:0:0:
151,113,181872,1,0,0:0:0:0:
151,113,181940,1,8,0:0:0:0:
252,65,182076,1,0,0:0:0:0:
296,183,182212,6,0,L|471:172,1,160,2|8,0:0|0:0,0:0:0:0:
503,272,182622,1,0,0:0:0:0:
414,334,182758,2,0,L|331:326,1,80,2|2,0:0|0:0,0:0:0:0:
255,261,183031,1,10,0:0:0:0:
182,344,183167,1,0,0:0:0:0:
182,344,183235,1,0,0:0:0:0:
182,344,183303,5,2,0:0:0:0:
56,289,183440,1,0,0:0:0:0:
134,189,183576,2,0,L|142:282,1,80,10|0,0:0|0:0,0:0:0:0:
25,203,183849,2,0,L|31:34,1,160,2|8,0:0|0:0,0:0:0:0:
141,93,184258,5,2,0:0:0:0:
141,93,184326,1,0,0:0:0:0:
141,93,184394,2,0,P|191:107|243:21,1,160,4|8,0:0|0:0,0:0:0:0:
380,164,184803,1,0,0:0:0:0:
300,218,184940,2,0,B|288:177|288:177|292:124,1,80,2|0,0:0|0:0,0:0:0:0:
359,72,185212,1,8,0:0:0:0:
209,183,185349,1,0,0:0:0:0:
365,286,185485,6,0,P|297:307|218:243,1,160,2|8,0:0|0:0,0:0:0:0:
443,228,185894,1,0,0:0:0:0:
443,228,185962,1,0,0:0:0:0:
443,228,186031,2,0,P|455:269|453:307,1,80,2|0,0:0|0:0,0:0:0:0:
512,174,186303,2,0,B|499:132|499:132|512:41,1,120,8|0,0:0|0:0,0:0:0:0:
501,9,186576,6,0,P|420:-1|375:64,1,160,2|8,0:0|0:0,0:0:0:0:
252,66,186985,1,0,0:0:0:0:
342,134,187122,5,2,0:0:0:0:
316,0,187258,1,0,0:0:0:0:
288,208,187394,2,0,P|322:225|373:222,1,80,8|0,0:0|0:0,0:0:0:0:
221,148,187667,6,0,P|163:133|100:160,1,120,2|2,0:0|0:0,0:0:0:0:
77,235,187940,6,0,L|114:383,1,150,12|0,0:0|0:0,0:0:0:0:
204,346,188212,6,0,B|240:312|292:319|292:319|339:332|391:299,1,180.000006866455,4|0,0:0|0:0,0:0:0:0:
388,212,188485,5,8,0:0:0:0:
399,165,188553,1,0,0:0:0:0:
394,116,188622,1,0,0:0:0:0:
372,73,188690,1,0,0:0:0:0:
336,39,188758,6,0,P|255:35|197:89,1,160,6|8,0:0|0:0,0:0:0:0:
286,117,189167,1,0,0:0:0:0:
143,0,189303,2,0,P|99:68|116:145,1,160,2|8,0:0|0:0,0:0:0:0:
286,117,189712,1,0,0:0:0:0:
187,208,189849,2,0,L|356:198,1,160,6|8,0:0|0:0,0:0:0:0:
345,337,190258,1,0,0:0:0:0:
345,337,190326,1,0,0:0:0:0:
345,337,190394,1,2,0:0:0:0:
246,365,190531,1,0,0:0:0:0:
409,269,190667,6,0,P|439:310|437:357,1,80,8|0,0:0|0:0,0:0:0:0:
246,365,190940,2,0,B|248:297|248:297|262:273|262:273|270:192,1,160,6|8,0:0|0:0,0:0:0:0:
149,99,191349,1,0,0:0:0:0:
27,213,191485,2,0,B|33:276|33:276|47:300|47:300|49:368,1,160,2|8,0:0|0:0,0:0:0:0:
187,231,191894,1,0,0:0:0:0:
73,140,192031,5,2,0:0:0:0:
213,49,192167,1,0,0:0:0:0:
18,0,192303,2,0,P|11:46|29:97,1,80,8|0,0:0|0:0,0:0:0:0:
261,144,192576,5,6,0:0:0:0:
94,36,192712,1,2,0:0:0:0:
261,144,192849,1,8,0:0:0:0:
111,282,192985,1,2,0:0:0:0:
111,282,193053,1,0,0:0:0:0:
111,282,193122,6,0,P|183:273|236:355,1,160,6|8,0:0|0:0,0:0:0:0:
350,268,193531,1,0,0:0:0:0:
261,143,193667,2,0,B|255:185|255:185|262:239,1,80,2|0,0:0|0:0,0:0:0:0:
435,318,193940,2,0,B|441:276|441:276|434:222,1,80,8|0,0:0|0:0,0:0:0:0:
340,116,194212,5,6,0:0:0:0:
283,320,194349,1,0,0:0:0:0:
405,218,194485,1,10,0:0:0:0:
273,65,194622,1,0,0:0:0:0:
405,218,194758,6,0,B|385:196|332:192|332:192|296:228|246:217,1,160,6|8,0:0|0:0,0:0:0:0:
118,261,195167,1,0,0:0:0:0:
353,368,195303,2,0,P|366:331|364:292,1,80,2|0,0:0|0:0,0:0:0:0:
263,142,195576,5,8,0:0:0:0:
201,283,195712,1,0,0:0:0:0:
405,218,195849,2,0,L|320:210,1,80,2|0,0:0|0:0,0:0:0:0:
450,148,196122,5,8,0:0:0:0:
254,221,196258,1,8,0:0:0:0:
484,307,196394,2,0,B|489:268|489:268|481:220,1,80,10|0,0:0|0:0,0:0:0:0:
202,92,196667,2,0,B|230:125|230:125|273:147,1,80,10|0,0:0|0:0,0:0:0:0:
74,328,196940,2,0,B|33:336|33:336|0:353,1,80,10|0,0:0|0:0,0:0:0:0:
211,303,197212,2,0,B|253:318|253:318|288:315,1,80,10|0,0:0|0:0,0:0:0:0:
123,197,197485,6,0,P|72:197|20:102,1,160,14|8,0:0|0:0,0:0:0:0:
278,166,197894,1,8,0:0:0:0:
102,118,198031,1,10,0:0:0:0:
270,245,198167,1,10,0:0:0:0:
101,106,198303,1,10,0:0:0:0:
211,303,198440,1,10,0:0:0:0:
221,26,198576,5,2,0:0:0:0:
221,26,198849,6,0,P|178:94|213:178,1,160,10|10,0:0|0:0,0:0:0:0:
208,180,199394,6,0,P|214:221|206:260,1,80,10|4,0:0|0:0,0:0:0:0:
