osu file format v13

[General]
AudioFilename: Watashi ga Motenai no wa Dou Kangaete mo Omaera ga Warui.mp3
AudioLeadIn: 0
PreviewTime: 68614
Countdown: 0
SampleSet: Normal
StackLeniency: 0.7
Mode: 1
LetterboxInBreaks: 0
WidescreenStoryboard: 1

[Editor]
Bookmarks: 2163
DistanceSpacing: 1
BeatDivisor: 2
GridSize: 8
TimelineZoom: 1

[Metadata]
Title:Watamote (TV Size)
TitleUnicode:私がモテないのはどう考えてもお前らが悪い! (TV Size)
Artist:Konomi Suzuki ft. Kiba of Akiba
ArtistUnicode:鈴木このみ ft. キバオブアキバ
Creator:truth revealer
Version:Kantan
Source:私がモテないのはどう考えてもお前らが悪い!
Tags:Opening ワタモテ Watashi ga Motenai dou Kangaetemo Omarea ga Warui Tomoko Kuroki
BeatmapID:408680
BeatmapSetID:142673

[Difficulty]
HPDrainRate:3
CircleSize:4
OverallDifficulty:5
ApproachRate:3
SliderMultiplier:1.2
SliderTickRate:1

[Events]
//Background and Video events
0,0,"Futsuu.jpg",0,30
//Break Periods
//Storyboard Layer 0 (Background)
//Storyboard Layer 1 (Fail)
//Storyboard Layer 2 (Pass)
//Storyboard Layer 3 (Foreground)
//Storyboard Sound Samples
//Background Colour Transformations
3,100,163,162,255

[TimingPoints]
513,300,4,1,0,80,1,0
6213,-100,4,1,0,50,0,0
16113,-100,4,1,0,75,0,0
35313,-100,4,1,0,50,0,0
42514,-100,4,1,0,75,0,0
51814,-100,4,1,0,80,0,1
61714,-100,4,1,0,50,0,0
68614,-100,4,1,0,80,0,1
73413,-100,4,1,0,50,0,0
76113,-100,4,1,0,80,0,0

[HitObjects]
256,192,1713,5,0,0:0:0:0:
256,192,2913,1,8,0:0:0:0:
256,192,3513,1,0,0:0:0:0:
256,192,4113,1,0,0:0:0:0:
256,192,5013,1,8,0:0:0:0:
256,192,5913,1,0,0:0:0:0:
256,192,6513,1,0,0:0:0:0:
256,192,7113,1,0,0:0:0:0:
256,192,7713,1,8,0:0:0:0:
256,192,8913,1,8,0:0:0:0:
256,192,9513,1,8,0:0:0:0:
256,192,10113,1,0,0:0:0:0:
256,192,11313,1,0,0:0:0:0:
256,192,11913,1,0,0:0:0:0:
256,192,12513,1,8,0:0:0:0:
256,192,13713,1,4,0:0:0:0:
256,192,14313,1,4,0:0:0:0:
256,192,14913,1,0,0:0:0:0:
256,192,15513,1,12,0:0:0:0:
256,192,16113,5,0,0:0:0:0:
256,192,16713,1,0,0:0:0:0:
256,192,17313,1,0,0:0:0:0:
256,192,17913,1,8,0:0:0:0:
256,192,18213,1,8,0:0:0:0:
256,192,18513,1,8,0:0:0:0:
256,192,19113,1,8,0:0:0:0:
256,192,19713,1,8,0:0:0:0:
256,192,20313,1,0,0:0:0:0:
256,192,20613,1,0,0:0:0:0:
256,192,20913,1,8,0:0:0:0:
256,192,21963,1,8,0:0:0:0:
256,192,23013,1,8,0:0:0:0:
256,192,23313,1,8,0:0:0:0:
256,192,24513,1,0,0:0:0:0:
256,192,25113,1,8,0:0:0:0:
256,192,25713,1,0,0:0:0:0:
256,192,26313,1,0,0:0:0:0:
256,192,27063,1,0,0:0:0:0:
256,192,27513,1,0,0:0:0:0:
256,192,28113,1,8,0:0:0:0:
256,192,28713,1,8,0:0:0:0:
256,192,29163,1,8,0:0:0:0:
256,192,29913,1,0,0:0:0:0:
256,192,30513,1,8,0:0:0:0:
256,192,31563,1,8,0:0:0:0:
256,192,32613,1,0,0:0:0:0:
256,192,32913,1,0,0:0:0:0:
256,192,34113,1,8,0:0:0:0:
256,192,34713,1,0,0:0:0:0:
256,192,35313,1,0,0:0:0:0:
256,192,36513,1,0,0:0:0:0:
256,192,36963,1,8,0:0:0:0:
256,192,38313,1,8,0:0:0:0:
256,192,38913,1,8,0:0:0:0:
256,192,40113,1,0,0:0:0:0:
256,192,41313,1,0,0:0:0:0:
256,192,42513,1,4,0:0:0:0:
256,192,43113,1,0,0:0:0:0:
256,192,43713,1,0,0:0:0:0:
256,192,44313,1,0,0:0:0:0:
256,192,44613,1,0,0:0:0:0:
256,192,44913,1,0,0:0:0:0:
256,192,45813,1,0,0:0:0:0:
256,192,46113,1,4,0:0:0:0:
256,192,47013,1,0,0:0:0:0:
256,192,47313,1,4,0:0:0:0:
256,192,48513,1,8,0:0:0:0:
256,192,49113,1,0,0:0:0:0:
256,192,49713,1,4,0:0:0:0:
256,192,50763,1,12,0:0:0:0:
256,192,51363,1,4,0:0:0:0:
256,192,52113,1,0,0:0:0:0:
256,192,52713,1,0,0:0:0:0:
256,192,53313,1,8,0:0:0:0:
256,192,53913,1,0,0:0:0:0:
256,192,54513,1,8,0:0:0:0:
256,192,55113,1,0,0:0:0:0:
256,192,55713,1,8,0:0:0:0:
256,192,56313,1,0,0:0:0:0:
256,192,56913,1,0,0:0:0:0:
256,192,57513,1,8,0:0:0:0:
256,192,58113,1,8,0:0:0:0:
256,192,58713,1,0,0:0:0:0:
256,192,59313,1,0,0:0:0:0:
256,192,59613,1,0,0:0:0:0:
256,192,59913,1,0,0:0:0:0:
256,192,60513,1,8,0:0:0:0:
256,192,61113,1,8,0:0:0:0:
256,192,61713,1,0,0:0:0:0:
256,192,62913,1,0,0:0:0:0:
256,192,63513,1,8,0:0:0:0:
256,192,64113,1,0,0:0:0:0:
256,192,65313,1,0,0:0:0:0:
256,192,65913,1,0,0:0:0:0:
256,192,66513,1,8,0:0:0:0:
256,192,67713,1,8,0:0:0:0:
256,192,68313,1,8,0:0:0:0:
256,192,68913,1,0,0:0:0:0:
256,192,69513,1,0,0:0:0:0:
256,192,70113,1,0,0:0:0:0:
256,192,71313,1,8,0:0:0:0:
256,192,71913,1,8,0:0:0:0:
256,192,72513,1,8,0:0:0:0:
256,192,73413,1,8,0:0:0:0:
256,192,74163,1,8,0:0:0:0:
256,192,74763,1,0,0:0:0:0:
256,192,75363,1,0,0:0:0:0:
256,192,75813,1,0,0:0:0:0:
256,192,76113,1,8,0:0:0:0:
256,192,77163,1,0,0:0:0:0:
256,192,77763,1,0,0:0:0:0:
256,192,78513,12,0,80313,0:0:0:0:
256,192,80913,5,0,0:0:0:0:
256,192,82113,1,0,0:0:0:0:
256,192,82713,1,8,0:0:0:0:
256,192,83313,1,0,0:0:0:0:
256,192,84363,1,4,0:0:0:0:
