osu file format v12

[General]
AudioFilename: Konomi Suzuki and Kiba of Akiba - WataMote.mp3
AudioLeadIn: 0
PreviewTime: 51400
Countdown: 1
SampleSet: Normal
StackLeniency: 0.7
Mode: 0
LetterboxInBreaks: 1
WidescreenStoryboard: 0

[Editor]
Bookmarks: 15625,34825,44425,51625,61225,68350,80500,84475
DistanceSpacing: 1.1
BeatDivisor: 4
GridSize: 8

[Metadata]
Title:WataMote
TitleUnicode:WataMote
Artist:Konomi Suzuki and Kiba of Akiba
ArtistUnicode:Konomi Suzuki and Kiba of Akiba
Creator:Yuugo
Version:Insane
Source:
Tags:
BeatmapID:305036
BeatmapSetID:118697

[Difficulty]
HPDrainRate:5
CircleSize:5
OverallDifficulty:7
ApproachRate:9
SliderMultiplier:1.8
SliderTickRate:1

[Events]
//Background and Video events
//Break Periods
//Storyboard Layer 0 (Background)
//Storyboard Layer 1 (Fail)
//Storyboard Layer 2 (Pass)
//Storyboard Layer 3 (Foreground)
//Storyboard Sound Samples
//Background Colour Transformations
3,100,163,162,255

[TimingPoints]
1225,300.002033286545,4,1,0,100,1,0
8200,-133.333333333333,4,1,0,100,0,0
8650,-100,4,1,0,100,0,0
10675,-133.333333333333,4,1,0,100,0,0
11125,-100,4,1,0,100,0,0
34825,-133.333333333333,4,1,0,100,0,0
41950,-100,4,1,0,100,0,0

[HitObjects]
256,192,1225,12,0,2425,0:0:0:0:
120,160,3025,1,0,0:0:0:0:
144,128,3325,1,0,0:0:0:0:
168,96,3625,1,0,0:0:0:0:
224,24,4075,1,0,0:0:0:0:
256,192,4525,12,0,5425,0:0:0:0:
96,160,5725,5,0,0:0:0:0:
96,160,5875,2,0,B|112:232|144:264|224:280,1,180
288,280,6325,1,0,0:0:0:0:
352,248,6475,1,0,0:0:0:0:
400,192,6625,2,0,P|416:144|408:88,1,90
280,64,6925,5,0,0:0:0:0:
280,64,7075,2,0,P|216:64|184:80,2,90
344,104,7525,1,0,0:0:0:0:
384,168,7675,1,0,0:0:0:0:
392,240,7825,2,0,P|376:288|328:312,2,90
400,128,8275,6,0,B|384:72|352:48|304:40,1,135.000005149842
176,80,8725,6,0,L|88:128,2,90
248,64,9175,1,0,0:0:0:0:
320,64,9325,1,0,0:0:0:0:
392,80,9475,2,0,B|464:112|480:160|472:208|456:248,1,180
424,288,9925,1,0,0:0:0:0:
136,304,10225,5,0,0:0:0:0:
112,280,10300,1,0,0:0:0:0:
96,248,10375,1,0,0:0:0:0:
168,64,10525,5,0,0:0:0:0:
168,64,10675,2,0,P|240:56|312:80,1,135.000005149842
376,264,11125,2,0,P|344:304|304:312,1,90
104,56,11425,5,0,0:0:0:0:
104,56,11575,1,0,0:0:0:0:
104,56,11725,2,0,P|144:88|160:144,1,90
184,256,12025,1,0,0:0:0:0:
184,256,12175,1,0,0:0:0:0:
184,256,12325,2,0,P|208:304|256:328,1,90
312,320,12625,1,0,0:0:0:0:
384,296,12775,1,0,0:0:0:0:
432,240,12925,1,0,0:0:0:0:
224,64,13225,5,0,0:0:0:0:
160,104,13375,1,0,0:0:0:0:
224,224,13675,5,0,0:0:0:0:
152,264,13825,1,0,0:0:0:0:
88,304,13975,1,0,0:0:0:0:
232,312,14275,1,0,0:0:0:0:
304,312,14425,5,0,0:0:0:0:
336,304,14500,1,0,0:0:0:0:
368,288,14575,1,0,0:0:0:0:
400,264,14650,1,0,0:0:0:0:
424,240,14725,1,0,0:0:0:0:
448,208,14800,1,0,0:0:0:0:
464,176,14875,1,0,0:0:0:0:
464,144,14950,1,0,0:0:0:0:
456,112,15025,1,0,0:0:0:0:
432,80,15100,1,0,0:0:0:0:
408,56,15175,1,0,0:0:0:0:
376,32,15250,1,0,0:0:0:0:
344,24,15325,2,0,P|288:16|240:24,1,90
160,32,15625,6,0,P|104:56|80:176,1,180
112,256,16075,2,0,L|192:304,1,90
232,208,16375,2,0,L|312:256,1,90
320,136,16675,2,0,P|360:160|408:152,1,90
424,88,16975,1,0,0:0:0:0:
360,56,17125,2,0,P|288:40|248:48,1,90
200,56,17425,2,0,P|144:72|112:96,1,90
96,160,17725,1,0,0:0:0:0:
144,248,17875,1,0,0:0:0:0:
360,224,18025,5,0,0:0:0:0:
192,56,18325,1,0,0:0:0:0:
88,240,18625,5,0,0:0:0:0:
160,296,18775,2,0,P|216:320|272:312,1,90
328,288,19075,2,0,P|392:256|424:208,1,90
432,160,19375,1,0,0:0:0:0:
400,240,19525,1,0,0:0:0:0:
432,160,19675,2,0,P|432:104|408:72,1,90
328,40,19975,2,0,P|288:32|232:40,1,90
256,304,20275,5,0,0:0:0:0:
256,304,20575,1,0,0:0:0:0:
256,304,20725,2,0,P|328:288|344:272,1,90
392,208,21025,2,0,P|400:160|376:112,1,90
304,56,21325,1,0,0:0:0:0:
72,144,21475,6,0,P|48:208|56:248,1,90
80,312,21775,1,0,0:0:0:0:
136,240,21925,2,0,P|160:184|152:144,1,90
136,72,22225,1,0,0:0:0:0:
240,240,22525,5,0,0:0:0:0:
408,240,22825,2,0,P|416:184|400:136,1,90
344,88,23125,1,0,0:0:0:0:
208,64,23275,1,0,0:0:0:0:
256,192,23425,1,0,0:0:0:0:
344,88,23575,1,0,0:0:0:0:
208,64,23725,2,0,P|152:72|112:104,1,90
256,192,23950,12,0,24850,0:0:0:0:
88,104,25225,5,0,0:0:0:0:
352,64,25525,1,0,0:0:0:0:
256,312,25675,2,0,P|192:312|160:288,1,90
256,312,25975,2,0,P|208:304|176:256,1,90
160,176,26275,1,0,0:0:0:0:
208,88,26425,1,0,0:0:0:0:
304,64,26575,1,0,0:0:0:0:
448,296,26725,6,0,P|408:328|360:336,1,90
272,336,27025,1,0,0:0:0:0:
184,296,27175,1,0,0:0:0:0:
136,144,27325,2,0,P|160:96|200:80,1,90
288,88,27625,1,0,0:0:0:0:
240,216,27775,1,0,0:0:0:0:
160,104,27925,1,0,0:0:0:0:
360,72,28075,6,0,P|408:64|448:40,2,90
264,80,28525,2,0,P|208:88|168:112,1,90
112,176,28825,1,0,0:0:0:0:
128,272,28975,1,0,0:0:0:0:
248,336,29125,2,0,B|320:336|368:288|368:216,2,180
64,184,30025,6,0,P|48:136|80:96,1,90
144,48,30325,1,0,0:0:0:0:
232,88,30475,6,0,P|248:136|216:176,1,90
152,224,30775,1,0,0:0:0:0:
144,128,30925,1,0,0:0:0:0:
232,88,31075,1,0,0:0:0:0:
344,112,31225,2,0,P|368:160|360:200,1,90
304,272,31525,1,0,0:0:0:0:
208,304,31675,2,0,P|160:312|120:272,1,90
80,96,32125,1,0,0:0:0:0:
120,224,32425,5,0,0:0:0:0:
72,280,32575,1,0,0:0:0:0:
432,48,32875,5,0,0:0:0:0:
384,104,33025,1,0,0:0:0:0:
336,160,33175,1,0,0:0:0:0:
96,80,33475,5,0,0:0:0:0:
152,120,33625,1,0,0:0:0:0:
80,176,34825,6,0,L|128:240,1,67.5000025749208
240,280,35200,1,0,0:0:0:0:
304,272,35425,1,0,0:0:0:0:
352,232,35650,1,0,0:0:0:0:
256,64,35950,6,0,B|200:72|184:80|160:112|144:152,1,135.000005149842
152,248,36550,1,0,0:0:0:0:
160,272,36625,1,0,0:0:0:0:
288,216,36850,1,0,0:0:0:0:
296,240,36925,1,0,0:0:0:0:
424,184,37150,6,0,L|456:248,1,67.5000025749208
240,80,37525,1,0,0:0:0:0:
88,184,37825,1,0,0:0:0:0:
128,256,38050,5,0,0:0:0:0:
232,280,38350,1,0,0:0:0:0:
352,216,38725,1,0,0:0:0:0:
320,96,39100,2,0,P|288:64|264:56,1,67.5000025749208
160,80,39550,1,0,0:0:0:0:
136,128,39700,1,0,0:0:0:0:
120,176,39850,1,0,0:0:0:0:
104,224,40000,1,0,0:0:0:0:
88,272,40150,1,0,0:0:0:0:
336,288,40525,6,0,L|408:248,3,67.5000025749208
72,56,42025,6,0,P|72:112|112:144,1,90
264,192,42475,2,0,P|288:248|264:280,1,90
72,328,42925,6,0,P|72:272|112:240,1,90
224,128,43375,2,0,L|304:80,1,90
456,168,43825,2,0,P|432:240|400:264,1,90
288,296,44275,6,0,L|192:296,1,90
136,264,44575,1,0,0:0:0:0:
80,216,44725,2,0,P|56:160|64:104,2,90
208,40,45475,6,0,L|304:40,1,90
360,72,45775,1,0,0:0:0:0:
416,120,45925,2,0,P|440:176|432:232,2,90
360,72,46375,2,0,B|320:48|320:48|288:88,1,90
256,144,46675,1,0,0:0:0:0:
120,184,46975,2,0,L|80:152,2,45
104,216,47200,2,0,L|72:248,2,45
136,232,47425,2,0,L|176:256,2,45
160,208,47650,2,0,P|176:136|232:96,1,135
296,96,48025,5,0,0:0:0:0:
360,120,48175,1,0,0:0:0:0:
408,176,48325,2,0,B|440:208|440:208|400:232,1,90
344,272,48625,1,0,0:0:0:0:
272,280,48775,1,0,0:0:0:0:
200,256,48925,1,0,0:0:0:0:
144,208,49075,6,0,P|120:144|144:96,1,90
408,64,49525,6,0,P|448:96|448:144,1,90
432,200,49825,1,0,0:0:0:0:
384,256,49975,1,0,0:0:0:0:
328,304,50125,2,0,P|288:328|224:304,2,90
384,256,50575,1,0,0:0:0:0:
432,200,50725,6,0,P|448:152|424:96,1,90
440,112,51025,1,0,0:0:0:0:
440,112,51175,1,0,0:0:0:0:
144,72,51475,6,0,B|96:112|80:192|120:256,1,180
160,288,51925,1,0,0:0:0:0:
304,320,52225,2,0,P|392:288|432:208,1,180
431,215,52675,1,0,0:0:0:0:
431,215,52975,1,0,0:0:0:0:
144,72,53275,6,0,P|88:112|88:152,1,90
84,128,53575,1,0,0:0:0:0:
104,272,53875,2,0,B|136:344|240:344|288:312,1,180
260,325,54325,1,0,0:0:0:0:
344,208,54625,1,0,0:0:0:0:
368,64,54925,5,0,0:0:0:0:
368,64,55075,1,0,0:0:0:0:
368,64,55225,2,0,L|272:64,1,90
278,64,55675,1,0,0:0:0:0:
64,192,55975,1,0,0:0:0:0:
336,328,56275,1,0,0:0:0:0:
424,128,56575,6,0,P|400:88|360:80,1,90
359,80,56875,1,0,0:0:0:0:
359,80,57025,1,0,0:0:0:0:
359,80,57175,1,0,0:0:0:0:
80,256,57475,2,0,P|96:304|144:312,1,90
136,312,57775,1,0,0:0:0:0:
208,312,57925,1,0,0:0:0:0:
280,288,58075,1,0,0:0:0:0:
376,176,58375,5,0,0:0:0:0:
400,112,58525,2,0,B|416:56|416:56|360:48,1,90
312,48,58825,1,0,0:0:0:0:
168,56,59125,2,0,P|104:96|96:136,1,90
96,248,59575,1,0,0:0:0:0:
96,248,59725,2,0,P|120:304|160:312,1,90
360,288,60175,5,0,0:0:0:0:
416,72,60325,1,0,0:0:0:0:
192,88,60475,1,0,0:0:0:0:
152,320,61525,5,0,0:0:0:0:
64,272,61675,1,0,0:0:0:0:
48,176,61825,2,0,P|48:128|88:96,1,90
168,48,62125,2,0,P|248:48|280:64,1,90
416,176,62425,6,0,B|448:240|424:304|352:312,1,180
353,311,62875,1,0,0:0:0:0:
248,32,63325,2,0,P|200:24|152:48,1,90
200,232,63775,2,0,P|152:224|104:248,1,90
176,320,64075,1,0,0:0:0:0:
272,336,64225,2,0,P|336:328|360:304,1,90
408,232,64525,1,0,0:0:0:0:
432,136,64675,2,0,B|432:88|376:40|296:32,1,180
64,128,65125,6,0,L|56:184,1,45,0|0,0:0|2:2,0:0:0:0:
256,288,65425,2,0,L|312:288,1,45,0|0,0:0|2:2,0:0:0:0:
424,96,65725,2,0,L|392:64,1,45,0|0,0:0|2:2,0:0:0:0:
64,224,66025,6,0,P|72:280|112:296,1,90
192,328,66325,1,0,0:0:0:0:
96,296,66475,1,0,0:0:0:0:
192,328,66625,2,0,P|264:328|304:296,1,90
424,184,67075,5,0,0:0:0:0:
424,184,67375,1,0,0:0:0:0:
424,184,67675,2,0,P|384:136|336:128,1,90
359,128,67975,1,0,0:0:0:0:
136,80,68275,6,0,P|80:88|56:136,2,90
336,88,68875,2,0,L|432:72,1,90
336,88,69175,1,0,0:0:0:0:
168,200,69475,2,0,P|136:248|136:280,1,90
168,200,69775,1,0,0:0:0:0:
344,280,70075,6,0,L|432:320,1,90
344,280,70375,1,0,0:0:0:0:
208,136,70675,2,0,P|176:104|168:56,2,90
384,224,71275,2,0,L|488:272,2,90
208,136,71875,2,0,P|152:112|112:120,1,90
40,168,72175,1,0,0:0:0:0:
176,312,72475,6,0,L|280:328,1,90
360,320,72775,1,0,0:0:0:0:
464,40,73225,5,0,0:0:0:0:
360,152,73375,1,0,0:0:0:0:
216,104,73525,1,0,0:0:0:0:
144,240,73675,1,0,0:0:0:0:
448,280,73975,5,0,0:0:0:0:
440,128,74125,1,0,0:0:0:0:
288,128,74275,1,0,0:0:0:0:
56,328,74575,1,0,0:0:0:0:
72,176,74725,1,0,0:0:0:0:
160,48,74875,1,0,0:0:0:0:
312,312,75175,5,0,0:0:0:0:
312,312,75325,1,0,0:0:0:0:
456,40,75625,6,0,P|416:80|368:80,1,90
288,72,75925,2,0,P|232:72|184:112,1,90
104,264,76375,1,0,0:0:0:0:
104,264,76525,2,0,P|144:304|184:312,1,90
368,288,76975,1,0,0:0:0:0:
368,288,77125,2,0,P|416:248|416:208,1,90
288,80,77575,2,0,P|232:80|200:104,1,90
256,192,77875,12,0,80275,0:0:0:0:
72,128,80425,5,0,0:0:0:0:
72,128,80575,1,0,0:0:0:0:
368,296,80875,1,0,0:0:0:0:
368,296,81025,1,0,0:0:0:0:
368,296,81175,1,0,0:0:0:0:
416,208,81325,5,0,0:0:0:0:
432,112,81475,2,0,B|392:64|352:48|288:40|256:40,1,180
176,64,81925,1,0,0:0:0:0:
96,128,82075,2,0,P|64:176|80:224,1,90
136,280,82375,2,0,L|216:336,2,90
72,208,82825,5,0,0:0:0:0:
120,120,82975,1,0,0:0:0:0:
208,80,83125,1,0,0:0:0:0:
304,80,83275,2,0,P|352:104|376:144,1,90
416,248,83575,1,0,0:0:0:0:
240,336,83875,1,0,0:0:0:0:
