osu file format v14

[General]
AudioFilename: This Game - Konomi Suzuki.mp3
AudioLeadIn: 0
PreviewTime: 54194
Countdown: 0
SampleSet: Soft
StackLeniency: 0.7
Mode: 3
LetterboxInBreaks: 0
SpecialStyle: 0
WidescreenStoryboard: 0

[Editor]
DistanceSpacing: 0.6
BeatDivisor: 4
GridSize: 4
TimelineZoom: 1

[Metadata]
Title:This game(TV-Size)
TitleUnicode:This game(TV-Size)
Artist:Konomi Suzuki
ArtistUnicode:鈴木このみ
Creator:victorica_db
Version:4K Hard
Source:ノーゲーム・ノーライフ
Tags:No Game No Life opening lieselotte simple_star
BeatmapID:486859
BeatmapSetID:206471

[Difficulty]
HPDrainRate:7
CircleSize:4
OverallDifficulty:7
ApproachRate:5
SliderMultiplier:1.4
SliderTickRate:1

[Events]
//Background and Video events
Video,-400,"This game.avi"
0,0,"3d2c392442a7d933e1c486faaf4bd11372f0016d.png",0,0
//Break Periods
//Storyboard Layer 0 (Background)
//Storyboard Layer 1 (Fail)
//Storyboard Layer 2 (Pass)
//Storyboard Layer 3 (Foreground)
//Storyboard Sound Samples

[TimingPoints]
317,408.163265306122,4,2,1,30,1,0
11745,-66.6666666666667,4,2,1,30,0,0
11898,-200,4,2,1,30,0,0
12051,-66.6666666666667,4,2,1,30,0,0
12255,-200,4,2,1,30,0,0
12357,-66.6666666666667,4,2,1,30,0,0
12561,-200,4,2,1,30,0,0
12765,-100,4,2,1,30,0,0
24806,-66.6666666666667,4,2,1,30,0,0
25010,-200,4,2,1,30,0,0
25112,-66.6666666666667,4,2,1,30,0,0
25316,-200,4,2,1,30,0,0
25419,-66.6666666666667,4,2,1,30,0,0
25623,-200,4,2,1,30,0,0
25725,-66.6666666666667,4,2,1,30,0,0
25878,-200,4,2,1,30,0,0
26031,-100,4,2,1,30,0,0
31337,-66.6666666666667,4,2,1,30,0,0
31490,-133.333333333333,4,2,1,30,0,0
31641,-66.6666666666667,4,2,1,30,0,0
31796,-133.333333333333,4,2,1,30,0,0
31949,-66.6666666666667,4,2,1,30,0,0
32102,-133.333333333333,4,2,1,30,0,0
32255,-66.6666666666667,4,2,1,30,0,0
32408,-133.333333333333,4,2,1,30,0,0
32561,-100,4,2,1,30,0,0
46031,-74.0740740740741,4,2,1,30,0,0
46201,-153.846153846154,4,2,1,30,0,0
46337,-74.0740740740741,4,2,1,30,0,0
46507,-153.846153846154,4,2,1,30,0,0
46643,-74.0740740740741,4,2,1,30,0,0
46779,-133.333333333333,4,2,1,30,0,0
46847,-100,4,2,1,30,0,0
46879,-71.4285714285714,4,2,1,30,0,0
47663,-250,4,2,1,30,0,0
47834,-74.0740740740741,4,2,1,30,0,0
47970,-153.846153846154,4,2,1,30,0,0
48174,-74.0740740740741,4,2,1,30,0,0
48276,-133.333333333333,4,2,1,30,0,0
48412,-76.9230769230769,4,2,1,30,0,0
48480,-100,4,2,1,30,0,0
52561,-74.0740740740741,4,2,1,30,0,0
52765,-153.846153846154,4,2,1,30,0,0
52868,-74.0740740740741,4,2,1,30,0,0
53038,-133.333333333333,4,2,1,30,0,0
53174,-100,4,2,1,30,0,0
54194,-100,4,2,1,30,0,1
87765,-100,4,2,1,30,0,0

[HitObjects]
192,192,317,5,0,0:0:0:0:
448,192,317,1,0,0:0:0:0:
320,192,623,1,0,0:0:0:0:
64,192,929,1,0,0:0:0:0:
64,192,1337,1,0,0:0:0:0:
192,192,1541,1,0,0:0:0:0:
320,192,1745,1,0,0:0:0:0:
64,192,1949,1,0,0:0:0:0:
448,192,1949,1,0,0:0:0:0:
192,192,2153,1,0,0:0:0:0:
320,192,2255,1,0,0:0:0:0:
64,192,2561,1,0,0:0:0:0:
448,192,2561,1,0,0:0:0:0:
320,192,2970,1,0,0:0:0:0:
192,192,3174,1,0,0:0:0:0:
320,192,3378,1,0,0:0:0:0:
64,192,3582,1,0,0:0:0:0:
448,192,3582,1,0,0:0:0:0:
192,192,3786,1,0,0:0:0:0:
320,192,3888,1,0,0:0:0:0:
64,192,3990,1,0,0:0:0:0:
448,192,4194,1,0,0:0:0:0:
192,192,4602,1,0,0:0:0:0:
320,192,4806,1,0,0:0:0:0:
448,192,5010,1,0,0:0:0:0:
64,192,5214,1,0,0:0:0:0:
320,192,5214,1,0,0:0:0:0:
448,192,5419,1,0,0:0:0:0:
192,192,5521,1,0,0:0:0:0:
320,192,5623,1,0,0:0:0:0:
448,192,5827,128,0,6847:0:0:0:0:
192,192,5827,1,0,0:0:0:0:
64,192,6235,1,0,0:0:0:0:
192,192,6439,1,0,0:0:0:0:
320,192,6643,1,0,0:0:0:0:
192,192,6847,1,4,0:0:0:0:
64,192,6847,128,2,7051:0:0:0:0:
320,192,6847,128,0,7051:0:0:0:0:
64,192,7153,1,0,0:0:0:0:
320,192,7153,1,0,0:0:0:0:
320,192,7459,128,0,7868:0:0:0:0:
64,192,7459,128,0,7868:0:0:0:0:
192,192,7868,1,0,0:0:0:0:
320,192,8072,1,0,0:0:0:0:
192,192,8276,1,2,0:0:0:0:
64,192,8480,128,2,8684:0:0:0:0:
448,192,8480,128,0,8684:0:0:0:0:
448,192,8786,1,2,0:0:0:0:
64,192,8786,1,0,0:0:0:0:
64,192,9092,128,2,9500:0:0:0:0:
448,192,9092,128,2,9500:0:0:0:0:
320,192,9500,1,0,0:0:0:0:
192,192,9704,1,2,0:0:0:0:
320,192,9908,1,2,0:0:0:0:
448,192,10112,128,2,10316:0:0:0:0:
192,192,10112,128,0,10316:0:0:0:0:
192,192,10419,1,2,0:0:0:0:
448,192,10419,1,0,0:0:0:0:
448,192,10725,128,0,11133:0:0:0:0:
192,192,10725,128,2,11133:0:0:0:0:
320,192,11133,1,0,0:0:0:0:
192,192,11337,1,0,0:0:0:0:
64,192,11541,1,0,0:0:0:0:
192,192,11745,1,2,0:0:0:0:
448,192,11745,1,0,0:0:0:0:
320,192,12051,1,2,0:0:0:0:
64,192,12051,1,0,0:0:0:0:
192,192,12357,1,2,0:0:0:0:
448,192,12357,1,0,0:0:0:0:
64,192,12765,1,0,0:0:0:0:
320,192,12765,1,0,0:0:0:0:
192,192,12970,1,0,0:0:0:0:
448,192,12970,128,0,13378:0:0:0:0:
64,192,13378,128,0,13684:0:0:0:0:
192,192,13684,1,0,0:0:0:0:
320,192,13684,1,2,0:0:0:0:
448,192,13786,1,0,0:0:0:0:
192,192,13990,128,2,14398:0:0:0:0:
448,192,14398,1,2,0:0:0:0:
448,192,14602,1,8,0:0:0:0:
64,192,14602,1,0,0:0:0:0:
192,192,14806,1,8,0:0:0:0:
320,192,14908,1,8,0:0:0:0:
448,192,15010,1,8,0:0:0:0:
64,192,15010,1,0,0:0:0:0:
192,192,15112,1,0,0:0:0:0:
320,192,15214,1,0,0:0:0:0:
448,192,15316,1,0,0:0:0:0:
64,192,15419,1,0,0:0:0:0:
320,192,15419,1,0,0:0:0:0:
192,192,15521,1,0,0:0:0:0:
320,192,15623,1,0,0:0:0:0:
448,192,15725,1,0,0:0:0:0:
320,192,15827,1,0,0:0:0:0:
192,192,15929,1,0,0:0:0:0:
320,192,16031,1,2,0:0:0:0:
64,192,16031,1,0,0:0:0:0:
448,192,16133,1,0,0:0:0:0:
64,192,16235,1,8,0:0:0:0:
320,192,16235,1,0,0:0:0:0:
192,192,16337,1,0,0:0:0:0:
448,192,16439,1,0,0:0:0:0:
192,192,16541,1,0,0:0:0:0:
448,192,16643,1,2,0:0:0:0:
64,192,16643,1,0,0:0:0:0:
64,192,17051,1,8,0:0:0:0:
448,192,17051,1,0,0:0:0:0:
192,192,17255,1,0,0:0:0:0:
320,192,17357,1,0,0:0:0:0:
448,192,17459,1,2,0:0:0:0:
64,192,17663,1,2,0:0:0:0:
192,192,17868,1,8,0:0:0:0:
448,192,17868,1,0,0:0:0:0:
64,192,18072,1,2,0:0:0:0:
192,192,18174,1,2,0:0:0:0:
320,192,18276,1,2,0:0:0:0:
448,192,18378,1,2,0:0:0:0:
64,192,18480,1,8,0:0:0:0:
192,192,18480,1,0,0:0:0:0:
320,192,18582,1,2,0:0:0:0:
64,192,18786,1,8,0:0:0:0:
192,192,18786,1,0,0:0:0:0:
320,192,18888,1,2,0:0:0:0:
64,192,19092,1,8,0:0:0:0:
192,192,19092,1,0,0:0:0:0:
448,192,19194,1,2,0:0:0:0:
320,192,19296,1,2,0:0:0:0:
192,192,19398,1,2,0:0:0:0:
64,192,19500,1,2,0:0:0:0:
192,192,19602,1,2,0:0:0:0:
320,192,19704,1,2,0:0:0:0:
448,192,19908,1,2,0:0:0:0:
64,192,19908,128,4,20316:0:0:0:0:
320,192,20316,1,0,0:0:0:0:
448,192,20316,1,8,0:0:0:0:
64,192,20521,128,2,20929:0:0:0:0:
320,192,20725,1,0,0:0:0:0:
192,192,20929,1,2,0:0:0:0:
448,192,21133,1,0,0:0:0:0:
64,192,21133,1,8,0:0:0:0:
320,192,21235,1,0,0:0:0:0:
192,192,21337,1,0,0:0:0:0:
448,192,21541,128,4,21949:0:0:0:0:
64,192,21541,1,2,0:0:0:0:
64,192,21949,1,8,0:0:0:0:
192,192,21949,1,0,0:0:0:0:
192,192,22153,1,0,0:0:0:0:
320,192,22255,1,0,0:0:0:0:
448,192,22357,128,0,23174:0:0:0:0:
320,192,22663,128,0,23174:0:0:0:0:
192,192,22970,128,0,23174:0:0:0:0:
64,192,23174,128,2,23582:0:0:0:0:
192,192,23582,1,8,0:0:0:0:
448,192,23582,1,0,0:0:0:0:
192,192,23786,128,2,24398:0:0:0:0:
320,192,23786,1,0,0:0:0:0:
448,192,24194,1,2,0:0:0:0:
64,192,24398,1,8,0:0:0:0:
320,192,24398,1,0,0:0:0:0:
192,192,24602,1,2,0:0:0:0:
64,192,24806,1,8,0:0:0:0:
448,192,24806,1,8,0:0:0:0:
192,192,25112,1,8,0:0:0:0:
448,192,25112,1,0,0:0:0:0:
320,192,25419,1,8,0:0:0:0:
64,192,25419,1,0,0:0:0:0:
192,192,25725,1,8,0:0:0:0:
448,192,25725,1,0,0:0:0:0:
320,192,26031,1,0,0:0:0:0:
448,192,26031,1,0,0:0:0:0:
320,192,26439,1,0,0:0:0:0:
64,192,26439,1,2,0:0:0:0:
192,192,26643,1,2,0:0:0:0:
320,192,26745,1,2,0:0:0:0:
448,192,26847,1,8,0:0:0:0:
64,192,27051,1,2,0:0:0:0:
320,192,27153,1,2,0:0:0:0:
192,192,27255,1,2,0:0:0:0:
448,192,27357,1,2,0:0:0:0:
320,192,27459,1,2,0:0:0:0:
64,192,27561,1,2,0:0:0:0:
320,192,27663,1,8,0:0:0:0:
192,192,27868,1,2,0:0:0:0:
320,192,28072,1,8,0:0:0:0:
192,192,28276,1,0,0:0:0:0:
320,192,28378,1,0,0:0:0:0:
64,192,28480,1,8,0:0:0:0:
192,192,28582,1,0,0:0:0:0:
320,192,28684,1,0,0:0:0:0:
64,192,28786,1,2,0:0:0:0:
448,192,28888,1,2,0:0:0:0:
192,192,28990,1,2,0:0:0:0:
448,192,29092,1,2,0:0:0:0:
192,192,29194,1,2,0:0:0:0:
320,192,29296,1,8,0:0:0:0:
192,192,29500,1,2,0:0:0:0:
64,192,29704,1,6,0:0:0:0:
192,192,29908,1,0,0:0:0:0:
320,192,30010,1,0,0:0:0:0:
448,192,30112,1,8,0:0:0:0:
320,192,30214,1,0,0:0:0:0:
192,192,30316,1,0,0:0:0:0:
64,192,30419,1,8,0:0:0:0:
192,192,30521,1,0,0:0:0:0:
320,192,30623,1,0,0:0:0:0:
448,192,30725,1,8,0:0:0:0:
64,192,30827,1,0,0:0:0:0:
320,192,30929,1,8,0:0:0:0:
192,192,31133,1,2,0:0:0:0:
64,192,31337,1,8,0:0:0:0:
448,192,31337,1,0,0:0:0:0:
64,192,31643,1,8,0:0:0:0:
448,192,31643,1,0,0:0:0:0:
64,192,31949,1,8,0:0:0:0:
448,192,31949,1,0,0:0:0:0:
192,192,32255,1,8,0:0:0:0:
320,192,32255,1,0,0:0:0:0:
64,192,32561,1,8,0:0:0:0:
448,192,32561,1,0,0:0:0:0:
320,192,32663,1,2,0:0:0:0:
192,192,32765,1,2,0:0:0:0:
320,192,32868,1,2,0:0:0:0:
448,192,32970,1,2,0:0:0:0:
64,192,32970,1,2,0:0:0:0:
192,192,33174,1,0,0:0:0:0:
320,192,33378,1,0,0:0:0:0:
448,192,33378,1,8,0:0:0:0:
192,192,33582,1,0,0:0:0:0:
320,192,33684,1,0,0:0:0:0:
448,192,33786,1,0,0:0:0:0:
64,192,33786,1,0,0:0:0:0:
320,192,33888,128,0,34194:0:0:0:0:
64,192,33990,1,2,0:0:0:0:
192,192,34092,1,0,0:0:0:0:
448,192,34194,1,0,0:0:0:0:
64,192,34194,1,8,0:0:0:0:
320,192,34398,1,2,0:0:0:0:
64,192,34500,1,0,0:0:0:0:
192,192,34602,1,2,0:0:0:0:
320,192,34704,1,0,0:0:0:0:
192,192,34806,1,0,0:0:0:0:
64,192,34908,1,0,0:0:0:0:
448,192,35010,1,8,0:0:0:0:
320,192,35112,1,0,0:0:0:0:
192,192,35214,1,0,0:0:0:0:
64,192,35316,1,2,0:0:0:0:
192,192,35419,1,0,0:0:0:0:
320,192,35521,1,0,0:0:0:0:
448,192,35623,1,2,0:0:0:0:
320,192,35725,1,2,0:0:0:0:
64,192,35827,1,8,0:0:0:0:
192,192,35827,1,0,0:0:0:0:
320,192,36031,1,2,0:0:0:0:
448,192,36031,1,0,0:0:0:0:
64,192,36235,1,4,0:0:0:0:
192,192,36235,1,2,0:0:0:0:
320,192,36235,1,0,0:0:0:0:
320,192,36439,1,0,0:0:0:0:
192,192,36541,1,0,0:0:0:0:
64,192,36643,1,0,0:0:0:0:
448,192,36643,1,2,0:0:0:0:
192,192,36745,1,0,0:0:0:0:
320,192,36847,1,0,0:0:0:0:
192,192,36949,1,2,0:0:0:0:
64,192,36949,1,0,0:0:0:0:
448,192,37051,1,0,0:0:0:0:
320,192,37153,1,0,0:0:0:0:
192,192,37255,1,2,0:0:0:0:
64,192,37255,1,0,0:0:0:0:
448,192,37459,1,8,0:0:0:0:
192,192,37459,1,0,0:0:0:0:
64,192,37663,1,2,0:0:0:0:
320,192,37663,1,0,0:0:0:0:
448,192,37868,1,2,0:0:0:0:
64,192,37868,1,0,0:0:0:0:
64,192,38174,1,0,0:0:0:0:
448,192,38174,1,2,0:0:0:0:
320,192,38480,1,2,0:0:0:0:
64,192,38480,1,0,0:0:0:0:
192,192,38684,1,8,0:0:0:0:
448,192,38684,1,0,0:0:0:0:
320,192,38888,1,2,0:0:0:0:
192,192,39092,128,0,39500:0:0:0:0:
64,192,39500,1,4,0:0:0:0:
320,192,39500,1,2,0:0:0:0:
448,192,39500,128,0,40929:0:0:0:0:
64,192,40112,1,2,0:0:0:0:
192,192,40214,1,2,0:0:0:0:
64,192,40316,1,8,0:0:0:0:
320,192,40316,1,0,0:0:0:0:
192,192,40623,1,2,0:0:0:0:
192,192,40929,1,2,0:0:0:0:
448,192,41133,128,0,42561:0:0:0:0:
64,192,41133,1,2,0:0:0:0:
64,192,41745,1,10,0:0:0:0:
192,192,41847,1,10,0:0:0:0:
64,192,41949,1,10,0:0:0:0:
320,192,41949,1,0,0:0:0:0:
64,192,42357,128,0,42561:0:0:0:0:
192,192,42561,1,2,0:0:0:0:
64,192,42765,1,8,0:0:0:0:
448,192,42765,128,0,43990:0:0:0:0:
320,192,42765,1,4,0:0:0:0:
64,192,43174,1,2,0:0:0:0:
192,192,43378,1,2,0:0:0:0:
320,192,43582,1,8,0:0:0:0:
64,192,43582,1,0,0:0:0:0:
192,192,43888,1,2,0:0:0:0:
64,192,43990,1,0,0:0:0:0:
192,192,44092,1,0,0:0:0:0:
320,192,44194,1,2,0:0:0:0:
448,192,44296,1,0,0:0:0:0:
448,192,44398,1,2,0:0:0:0:
320,192,44500,1,0,0:0:0:0:
192,192,44602,1,0,0:0:0:0:
64,192,44704,1,2,0:0:0:0:
448,192,44806,1,0,0:0:0:0:
320,192,44908,1,0,0:0:0:0:
192,192,45010,1,2,0:0:0:0:
64,192,45112,1,0,0:0:0:0:
192,192,45214,1,8,0:0:0:0:
448,192,45214,1,0,0:0:0:0:
64,192,45419,1,8,0:0:0:0:
320,192,45419,1,8,0:0:0:0:
448,192,45521,1,0,0:0:0:0:
192,192,45521,1,8,0:0:0:0:
192,192,45725,1,2,0:0:0:0:
448,192,45827,1,2,0:0:0:0:
64,192,46031,1,0,0:0:0:0:
448,192,46031,1,8,0:0:0:0:
448,192,46337,1,8,0:0:0:0:
64,192,46337,1,0,0:0:0:0:
192,192,46643,1,0,0:0:0:0:
448,192,46643,1,8,0:0:0:0:
448,192,46847,128,0,47663:0:0:0:0:
64,192,47663,1,0,0:0:0:0:
320,192,47663,1,2,0:0:0:0:
192,192,47970,1,0,0:0:0:0:
448,192,47970,1,8,0:0:0:0:
448,192,48276,1,0,0:0:0:0:
64,192,48276,1,8,0:0:0:0:
320,192,48480,1,2,0:0:0:0:
64,192,48480,128,0,49092:0:0:0:0:
192,192,48684,1,2,0:0:0:0:
448,192,48786,1,2,0:0:0:0:
192,192,49092,1,2,0:0:0:0:
320,192,49194,1,8,0:0:0:0:
192,192,49296,1,8,0:0:0:0:
448,192,49296,1,0,0:0:0:0:
192,192,49602,1,2,0:0:0:0:
320,192,49602,1,0,0:0:0:0:
192,192,49908,1,0,0:0:0:0:
448,192,49908,1,2,0:0:0:0:
320,192,50112,1,0,0:0:0:0:
64,192,50214,1,2,0:0:0:0:
448,192,50521,1,8,0:0:0:0:
192,192,50521,1,0,0:0:0:0:
64,192,50725,1,2,0:0:0:0:
192,192,50827,1,2,0:0:0:0:
320,192,50929,1,8,0:0:0:0:
64,192,50929,1,0,0:0:0:0:
192,192,51235,1,8,0:0:0:0:
64,192,51235,1,0,0:0:0:0:
320,192,51337,1,0,0:0:0:0:
448,192,51439,1,0,0:0:0:0:
192,192,51541,1,2,0:0:0:0:
448,192,51745,1,0,0:0:0:0:
64,192,51745,1,2,0:0:0:0:
64,192,52051,1,8,0:0:0:0:
448,192,52153,1,2,0:0:0:0:
320,192,52153,1,0,0:0:0:0:
64,192,52357,1,2,0:0:0:0:
192,192,52459,1,2,0:0:0:0:
320,192,52561,1,0,0:0:0:0:
448,192,52561,1,8,0:0:0:0:
320,192,52868,1,0,0:0:0:0:
192,192,52868,1,8,0:0:0:0:
64,192,53174,1,8,0:0:0:0:
192,192,53174,1,0,0:0:0:0:
64,192,53582,1,2,0:0:0:0:
320,192,53684,1,2,0:0:0:0:
64,192,53786,1,2,0:0:0:0:
448,192,53786,1,2,0:0:0:0:
192,192,53854,1,0,0:0:0:0:
320,192,53922,1,0,0:0:0:0:
448,192,53990,1,0,0:0:0:0:
320,192,54058,1,0,0:0:0:0:
192,192,54126,1,0,0:0:0:0:
64,192,54194,1,2,0:0:0:0:
448,192,54194,1,4,0:0:0:0:
192,192,54398,1,0,0:0:0:0:
64,192,54602,1,8,0:0:0:0:
320,192,54602,1,0,0:0:0:0:
192,192,54806,1,0,0:0:0:0:
64,192,55010,1,2,0:0:0:0:
448,192,55010,1,0,0:0:0:0:
192,192,55214,1,0,0:0:0:0:
64,192,55419,1,8,0:0:0:0:
320,192,55419,1,0,0:0:0:0:
64,192,55623,1,0,0:0:0:0:
448,192,55623,1,0,0:0:0:0:
192,192,55827,1,2,0:0:0:0:
320,192,55827,1,0,0:0:0:0:
64,192,56031,1,0,0:0:0:0:
192,192,56235,1,8,0:0:0:0:
448,192,56235,1,0,0:0:0:0:
320,192,56439,1,0,0:0:0:0:
64,192,56439,1,0,0:0:0:0:
192,192,56643,1,2,0:0:0:0:
64,192,56643,1,0,0:0:0:0:
320,192,56847,1,0,0:0:0:0:
192,192,57051,1,8,0:0:0:0:
448,192,57051,1,8,0:0:0:0:
320,192,57255,1,0,0:0:0:0:
64,192,57459,1,2,0:0:0:0:
192,192,57459,1,0,0:0:0:0:
192,192,57663,1,0,0:0:0:0:
64,192,57868,1,8,0:0:0:0:
320,192,57868,1,0,0:0:0:0:
320,192,58072,1,0,0:0:0:0:
64,192,58276,1,2,0:0:0:0:
448,192,58276,1,0,0:0:0:0:
192,192,58480,1,0,0:0:0:0:
64,192,58684,1,8,0:0:0:0:
320,192,58684,1,0,0:0:0:0:
192,192,58888,1,0,0:0:0:0:
320,192,59092,1,0,0:0:0:0:
64,192,59092,1,2,0:0:0:0:
320,192,59296,1,0,0:0:0:0:
192,192,59500,1,8,0:0:0:0:
448,192,59500,1,0,0:0:0:0:
320,192,59704,1,0,0:0:0:0:
192,192,59908,1,2,0:0:0:0:
448,192,59908,1,0,0:0:0:0:
320,192,60112,1,0,0:0:0:0:
192,192,60214,1,0,0:0:0:0:
64,192,60316,1,8,0:0:0:0:
320,192,60316,1,0,0:0:0:0:
192,192,60419,1,0,0:0:0:0:
320,192,60521,1,2,0:0:0:0:
64,192,60521,1,0,0:0:0:0:
448,192,60623,1,2,0:0:0:0:
192,192,60623,1,0,0:0:0:0:
64,192,60725,1,2,0:0:0:0:
320,192,60725,1,0,0:0:0:0:
192,192,60929,1,0,0:0:0:0:
64,192,61133,1,8,0:0:0:0:
448,192,61133,1,0,0:0:0:0:
192,192,61337,1,0,0:0:0:0:
192,192,61541,1,0,0:0:0:0:
64,192,61541,1,2,0:0:0:0:
320,192,61745,1,0,0:0:0:0:
448,192,61949,1,8,0:0:0:0:
64,192,61949,1,8,0:0:0:0:
192,192,62153,1,0,0:0:0:0:
320,192,62357,1,0,0:0:0:0:
64,192,62357,1,2,0:0:0:0:
192,192,62561,1,0,0:0:0:0:
448,192,62561,1,0,0:0:0:0:
64,192,62765,1,8,0:0:0:0:
320,192,62765,1,0,0:0:0:0:
320,192,62970,1,0,0:0:0:0:
64,192,63174,1,2,0:0:0:0:
448,192,63174,1,0,0:0:0:0:
320,192,63378,1,0,0:0:0:0:
448,192,63582,1,0,0:0:0:0:
192,192,63582,1,8,0:0:0:0:
320,192,63786,1,0,0:0:0:0:
192,192,63786,1,0,0:0:0:0:
320,192,63990,1,2,0:0:0:0:
64,192,63990,1,0,0:0:0:0:
64,192,64296,1,0,0:0:0:0:
320,192,64296,1,2,0:0:0:0:
64,192,64602,1,2,0:0:0:0:
448,192,64602,128,0,65010:0:0:0:0:
320,192,65010,1,2,0:0:0:0:
192,192,65214,1,2,0:0:0:0:
320,192,65419,1,2,0:0:0:0:
448,192,65623,1,2,0:0:0:0:
64,192,65623,128,0,66235:0:0:0:0:
192,192,66235,1,0,0:0:0:0:
320,192,66337,1,0,0:0:0:0:
448,192,66439,128,2,66847:0:0:0:0:
320,192,66847,128,10,67255:0:0:0:0:
64,192,67255,1,2,0:0:0:0:
448,192,67255,1,0,0:0:0:0:
192,192,67459,1,0,0:0:0:0:
64,192,67663,1,8,0:0:0:0:
320,192,67663,1,0,0:0:0:0:
192,192,67868,1,0,0:0:0:0:
320,192,68072,1,0,0:0:0:0:
448,192,68072,1,2,0:0:0:0:
192,192,68276,1,0,0:0:0:0:
320,192,68378,1,0,0:0:0:0:
64,192,68480,1,8,0:0:0:0:
448,192,68480,1,0,0:0:0:0:
320,192,68684,1,0,0:0:0:0:
448,192,68888,1,0,0:0:0:0:
192,192,68888,1,2,0:0:0:0:
64,192,69092,1,0,0:0:0:0:
320,192,69092,1,0,0:0:0:0:
448,192,69296,1,8,0:0:0:0:
192,192,69296,1,0,0:0:0:0:
64,192,69500,1,0,0:0:0:0:
320,192,69500,1,0,0:0:0:0:
320,192,69704,1,2,0:0:0:0:
448,192,69704,1,0,0:0:0:0:
192,192,69908,1,0,0:0:0:0:
320,192,70010,1,0,0:0:0:0:
448,192,70112,1,0,0:0:0:0:
64,192,70112,1,8,0:0:0:0:
320,192,70316,1,0,0:0:0:0:
192,192,70521,1,2,0:0:0:0:
448,192,70521,1,0,0:0:0:0:
64,192,70521,1,0,0:0:0:0:
320,192,70725,1,0,0:0:0:0:
192,192,70827,1,0,0:0:0:0:
448,192,70929,1,0,0:0:0:0:
64,192,70929,1,8,0:0:0:0:
192,192,71133,1,0,0:0:0:0:
192,192,71337,1,2,0:0:0:0:
64,192,71337,1,0,0:0:0:0:
320,192,71541,1,0,0:0:0:0:
448,192,71541,1,0,0:0:0:0:
192,192,71745,1,8,0:0:0:0:
320,192,71745,1,0,0:0:0:0:
64,192,71949,1,0,0:0:0:0:
448,192,71949,1,0,0:0:0:0:
192,192,72153,1,0,0:0:0:0:
320,192,72153,1,2,0:0:0:0:
64,192,72357,1,0,0:0:0:0:
192,192,72459,1,0,0:0:0:0:
320,192,72561,1,8,0:0:0:0:
448,192,72561,1,0,0:0:0:0:
64,192,72765,1,0,0:0:0:0:
320,192,72970,1,2,0:0:0:0:
448,192,72970,128,0,73378:0:0:0:0:
192,192,73072,1,2,0:0:0:0:
64,192,73174,1,2,0:0:0:0:
192,192,73276,1,2,0:0:0:0:
64,192,73378,128,0,73786:0:0:0:0:
320,192,73378,1,8,0:0:0:0:
448,192,73582,1,2,0:0:0:0:
320,192,73786,1,2,0:0:0:0:
192,192,73990,1,0,0:0:0:0:
64,192,74194,1,8,0:0:0:0:
448,192,74194,1,8,0:0:0:0:
192,192,74398,1,0,0:0:0:0:
64,192,74602,1,2,0:0:0:0:
320,192,74806,1,0,0:0:0:0:
64,192,75010,1,8,0:0:0:0:
448,192,75010,1,0,0:0:0:0:
192,192,75214,1,0,0:0:0:0:
320,192,75419,1,2,0:0:0:0:
192,192,75623,1,0,0:0:0:0:
448,192,75827,1,8,0:0:0:0:
320,192,75827,1,0,0:0:0:0:
192,192,76031,1,0,0:0:0:0:
448,192,76235,1,2,0:0:0:0:
192,192,76439,1,0,0:0:0:0:
64,192,76643,1,8,0:0:0:0:
448,192,76643,1,0,0:0:0:0:
192,192,76847,1,0,0:0:0:0:
320,192,77051,1,2,0:0:0:0:
192,192,77255,1,0,0:0:0:0:
320,192,77459,1,8,0:0:0:0:
448,192,77459,1,0,0:0:0:0:
64,192,77663,1,0,0:0:0:0:
192,192,77868,1,2,0:0:0:0:
320,192,78072,1,0,0:0:0:0:
448,192,78276,1,8,0:0:0:0:
64,192,78276,1,0,0:0:0:0:
320,192,78378,1,0,0:0:0:0:
192,192,78480,1,2,0:0:0:0:
448,192,78480,1,0,0:0:0:0:
64,192,78582,1,0,0:0:0:0:
192,192,78684,1,0,0:0:0:0:
448,192,78684,128,0,79092:0:0:0:0:
192,192,79092,1,8,0:0:0:0:
64,192,79092,1,0,0:0:0:0:
320,192,79296,1,0,0:0:0:0:
64,192,79398,1,2,0:0:0:0:
192,192,79500,1,2,0:0:0:0:
320,192,79602,1,8,0:0:0:0:
64,192,79704,1,8,0:0:0:0:
192,192,79772,1,8,0:0:0:0:
320,192,79840,1,8,0:0:0:0:
448,192,79908,1,8,0:0:0:0:
64,192,79908,128,2,80316:0:0:0:0:
320,192,80214,1,0,0:0:0:0:
448,192,80316,1,2,0:0:0:0:
192,192,80316,1,0,0:0:0:0:
320,192,80521,1,0,0:0:0:0:
64,192,80725,1,8,0:0:0:0:
448,192,80725,1,0,0:0:0:0:
320,192,80929,1,0,0:0:0:0:
64,192,81133,1,8,0:0:0:0:
448,192,81133,1,0,0:0:0:0:
320,192,81337,1,0,0:0:0:0:
64,192,81541,1,8,0:0:0:0:
448,192,81541,1,0,0:0:0:0:
192,192,81745,1,0,0:0:0:0:
192,192,81949,1,0,0:0:0:0:
448,192,81949,1,2,0:0:0:0:
320,192,81949,128,0,82357:0:0:0:0:
448,192,82255,1,2,0:0:0:0:
64,192,82357,1,8,0:0:0:0:
192,192,82357,1,0,0:0:0:0:
192,192,82493,1,8,0:0:0:0:
64,192,82493,1,0,0:0:0:0:
448,192,82663,1,2,0:0:0:0:
64,192,82765,1,8,0:0:0:0:
192,192,82765,1,0,0:0:0:0:
64,192,82902,1,8,0:0:0:0:
192,192,82902,1,0,0:0:0:0:
320,192,83072,1,2,0:0:0:0:
64,192,83310,1,8,0:0:0:0:
448,192,83310,1,0,0:0:0:0:
192,192,83378,1,8,0:0:0:0:
320,192,83446,1,8,0:0:0:0:
192,192,83514,1,8,0:0:0:0:
64,192,83582,1,0,0:0:0:0:
320,192,83582,1,0,0:0:0:0:
448,192,83582,128,0,83888:0:0:0:0:
64,192,83888,1,0,0:0:0:0:
192,192,83888,1,0,0:0:0:0:
320,192,83888,128,0,84194:0:0:0:0:
64,192,84194,1,0,0:0:0:0:
448,192,84194,1,0,0:0:0:0:
192,192,84194,128,0,84500:0:0:0:0:
320,192,84500,128,0,84806:0:0:0:0:
448,192,84500,1,0,0:0:0:0:
64,192,84500,1,0,0:0:0:0:
64,192,84806,128,0,85214:0:0:0:0:
448,192,84806,1,0,0:0:0:0:
192,192,84806,1,0,0:0:0:0:
192,192,85214,1,0,0:0:0:0:
320,192,85214,1,0,0:0:0:0:
448,192,85214,128,0,86541:0:0:0:0:
64,192,86643,128,0,87765:0:0:0:0:
192,192,86711,128,0,87765:0:0:0:0:
320,192,86779,128,0,87765:0:0:0:0:
448,192,86847,128,0,87765:0:0:0:0:
