osu file format v14

[General]
AudioFilename: 01. This game.mp3
AudioLeadIn: 0
PreviewTime: 53786
Countdown: 0
SampleSet: Soft
StackLeniency: 0.7
Mode: 0
LetterboxInBreaks: 0
WidescreenStoryboard: 1

[Editor]
DistanceSpacing: 1.4
BeatDivisor: 8
GridSize: 4
TimelineZoom: 1.6

[Metadata]
Title:This game(TV-Size)
TitleUnicode:This game(TV-Size)
Artist:Konomi Suzuki
ArtistUnicode:鈴木このみ
Creator:Blizs
Version:Maverick
Source:ノーゲーム・ノーライフ
Tags:madhouse No Game No Life NGNL OP Opening Lumael HappyRocket88 Fantastica
BeatmapID:405146
BeatmapSetID:166699

[Difficulty]
HPDrainRate:7
CircleSize:4
OverallDifficulty:8
ApproachRate:9
SliderMultiplier:1.8
SliderTickRate:1

[Events]
//Background and Video events
0,0,"01.jpg",0,0
//Break Periods
//Storyboard Layer 0 (Background)
//Storyboard Layer 1 (Fail)
//Storyboard Layer 2 (Pass)
//Storyboard Layer 3 (Foreground)
//Storyboard Sound Samples

[TimingPoints]
315,408.163265306122,4,2,1,40,1,0
315,-133.333333333333,4,2,1,40,0,0
6233,-133.333333333333,4,2,1,40,0,0
6437,-133.333333333333,4,2,1,50,0,0
6641,-133.333333333333,4,2,1,60,0,0
6845,-90.9090909090909,4,2,1,70,0,0
13376,-100,4,2,1,55,0,0
13988,-100,4,2,1,80,0,0
14090,-100,4,2,1,75,0,0
15008,-100,4,2,1,70,0,0
18274,-83.3333333333333,4,2,1,70,0,0
19906,-100,4,2,1,75,0,0
24804,-71.4285714285714,4,2,1,75,0,0
26029,-111.111111111111,4,2,1,75,0,0
26437,-83.3333333333333,4,2,1,90,0,0
31335,-71.4285714285714,4,2,1,90,0,0
32968,-83.3333333333333,4,2,1,90,0,0
37866,-90.9090909090909,4,2,1,90,0,0
39498,-142.857142857143,4,2,1,80,0,0
44396,-100,4,2,1,80,0,0
45212,-117.647058823529,4,2,1,80,0,0
46845,-117.647058823529,4,2,1,90,0,0
46896,-117.647058823529,4,2,1,80,0,0
46947,-117.647058823529,4,2,1,70,0,0
46998,-117.647058823529,4,2,1,60,0,0
47049,-117.647058823529,4,2,1,50,0,0
47100,-117.647058823529,4,2,1,40,0,0
47151,-117.647058823529,4,2,1,30,0,0
47202,-117.647058823529,4,2,1,20,0,0
47253,-117.647058823529,4,2,1,80,0,0
50927,-83.3333333333333,4,2,1,80,0,0
52559,-71.4285714285714,4,2,1,80,0,0
53784,-142.857142857143,4,2,1,80,0,0
54192,-90.9090909090909,4,2,1,90,0,1
66845,-90.9090909090909,4,2,1,90,0,0
67253,-90.9090909090909,4,2,1,90,0,1
81947,-90.9090909090909,4,2,1,90,0,0
83580,-76.9230769230769,4,2,1,90,0,0
85212,-142.857142857143,4,2,1,90,0,0
86845,-142.857142857143,4,2,1,60,0,0

[Colours]
Combo1 : 128,255,128
Combo2 : 128,255,255
Combo3 : 255,128,255
Combo4 : 214,173,173
Combo5 : 157,206,206

[HitObjects]
97,138,315,5,2,0:0:0:0:
190,100,621,1,0,0:0:0:0:
180,200,927,1,2,0:0:0:0:
180,200,1335,2,0,L|172:267,2,67.5000025749208,0|2|0,0:0|0:0|0:0,0:0:0:0:
190,100,1947,6,0,L|267:95,1,67.5000025749208,2|0,0:0|0:0,0:0:0:0:
288,107,2253,2,0,L|389:99,1,101.250003862381,2|2,0:0|0:0,0:0:0:0:
389,99,2968,1,0,0:0:0:0:
446,180,3172,1,2,0:0:0:0:
345,190,3376,1,0,0:0:0:0:
288,106,3580,6,0,P|227:112|191:99,1,101.250003862381,2|2,0:0|0:0,0:0:0:0:
159,86,3988,2,0,L|92:94,1,67.1999979492188,0|2,0:0|0:0,0:0:0:0:
84,89,4600,2,0,L|70:155,1,67.1999979492188,0|2,0:0|0:0,0:0:0:0:
110,246,5008,1,0,0:0:0:0:
210,239,5212,6,0,B|231:235|231:235|283:218|283:218|307:215,2,101.250003862381,2|2|2,0:0|0:0|0:0,0:0:0:0:
256,192,5927,12,12,6845,0:0:0:0:
170,302,7253,5,0,1:0:0:0:
341,138,7457,1,12,0:0:0:0:
341,138,7559,1,8,0:0:0:0:
341,138,7661,2,0,B|352:188|352:188|339:236,1,99.0000030212403,0|0,1:0|3:0,0:0:0:0:
170,302,8070,2,0,B|159:252|159:252|171:203,1,99.0000030212403,8|0,0:0|3:0,0:0:0:0:
179,189,8376,1,0,3:0:0:0:
186,172,8478,6,0,B|148:138|148:138|86:126|52:155,1,148.50000453186,12|0,0:0|3:0,0:0:0:0:
41,167,8886,1,0,1:0:0:0:
170,302,9090,1,12,0:0:0:0:
170,302,9192,1,8,0:0:0:0:
170,302,9294,2,0,P|220:286|271:283,1,99.0000030212403,0|0,1:0|3:0,0:0:0:0:
422,358,9702,2,0,P|372:354|326:339,1,99.0000030212403,8|0,0:0|3:0,0:0:0:0:
266,283,10008,1,0,3:0:0:0:
260,267,10110,6,0,B|238:171|238:171|259:126,1,148.50000453186,12|0,0:0|3:0,0:0:0:0:
270,110,10519,1,0,1:0:0:0:
436,236,10723,1,12,0:0:0:0:
440,249,10825,1,8,0:0:0:0:
444,262,10927,2,0,L|421:358,1,99.0000030212403,0|0,1:0|3:0,0:0:0:0:
270,110,11335,2,0,L|247:206,1,99.0000030212403,8|0,0:0|3:0,0:0:0:0:
436,65,11743,6,0,P|389:50|342:61,1,99.0000030212403,12|0,0:0|0:0,0:0:0:0:
270,110,12049,2,0,P|223:125|176:114,1,99.0000030212403,12|0,0:0|0:0,0:0:0:0:
104,158,12355,2,0,L|97:265,1,99.0000030212403,12|0,0:0|1:0,0:0:0:0:
210,336,12763,2,0,L|207:368,2,33.0000010070801,8|8|8,0:0|0:0|0:0,0:0:0:0:
210,336,12968,2,0,L|365:313,1,148.50000453186,8|0,0:0|0:0,0:0:0:0:
372,326,13376,6,0,P|356:275|362:238,1,90,0|8,1:0|0:3,0:0:0:0:
372,223,13682,1,8,0:0:0:0:
307,90,13988,2,0,P|227:54|146:88,1,180,4|0,1:2|1:0,0:0:0:0:
104,158,14498,1,0,1:0:0:0:
113,177,14600,2,0,P|117:200|120:221,1,45,8|8,0:0|0:0,0:0:0:0:
210,336,14804,2,0,P|213:313|217:291,1,45,8|8,0:0|0:0,0:0:0:0:
356,313,15008,6,0,B|382:350|382:350|292:331,1,135,4|0,1:2|0:0,0:0:0:0:
210,336,15417,2,0,B|165:342|165:342|121:330,1,90,8|0,0:0|0:0,0:0:0:0:
318,211,15825,2,0,B|363:205|363:205|406:216,1,90,2|0,0:0|1:0,0:0:0:0:
172,234,16233,2,0,P|166:214|164:189,1,45,8|8,0:0|0:0,0:0:0:0:
73,156,16437,2,0,P|82:138|99:118,1,45,8|8,0:0|0:0,0:0:0:0:
58,30,16641,6,0,B|101:10|147:33|147:33|191:38,1,135,0|0,1:0|0:0,0:0:0:0:
214,39,17049,1,8,0:0:0:0:
328,179,17253,1,0,1:0:0:0:
323,195,17355,1,0,1:0:0:0:
318,211,17457,1,0,1:0:0:0:
172,234,17661,1,0,1:0:0:0:
333,163,17866,2,0,L|422:152,1,90,8|0,0:0|1:0,0:0:0:0:
214,39,18274,5,8,0:0:0:0:
169,42,18376,1,8,0:0:0:0:
133,67,18478,1,8,0:0:0:0:
115,108,18580,2,0,L|102:55,1,53.9999983520508,4|0,1:2|0:0,0:0:0:0:
198,120,18784,1,8,0:0:0:0:
215,160,18886,2,0,L|201:213,1,53.9999983520508,0|0,1:0|0:0,0:0:0:0:
122,345,19090,5,8,0:0:0:0:
162,365,19192,1,8,0:0:0:0:
207,365,19294,1,0,1:0:0:0:
247,345,19396,2,0,L|301:349,1,53.9999983520508,0|0,1:0|0:0,0:0:0:0:
433,275,19600,1,0,1:0:0:0:
393,255,19702,2,0,L|339:259,1,53.9999983520508,0|0,1:0|0:0,0:0:0:0:
122,345,19906,6,0,P|92:289|109:223,1,135,4|0,1:2|0:0,0:0:0:0:
124,207,20314,1,8,0:0:0:0:
393,255,20519,2,0,L|303:261,2,90,2|0|0,0:0|1:0|0:0,0:0:0:0:
491,126,21131,1,8,0:0:0:0:
485,114,21233,1,0,1:0:0:0:
479,102,21335,2,0,L|435:98,1,45,0|0,1:0|0:0,0:0:0:0:
296,39,21539,6,0,P|226:49|158:49,1,135,4|0,1:2|0:0,0:0:0:0:
85,12,21947,2,0,L|91:104,1,90,8|2,0:0|0:0,0:0:0:0:
84,124,22253,1,2,0:0:0:0:
77,146,22355,1,2,0:0:0:0:
36,261,22559,2,0,L|39:308,1,45,0|2,1:0|0:0,0:0:0:0:
141,351,22763,1,8,0:0:0:0:
163,345,22866,1,8,0:0:0:0:
185,338,22968,2,0,L|188:291,1,45,0|2,1:0|0:0,0:0:0:0:
402,318,23172,6,0,P|346:339|267:323,1,135,4|0,1:2|0:0,0:0:0:0:
268,309,23580,1,8,0:0:0:0:
296,39,23784,1,0,1:0:0:0:
411,151,23988,2,0,L|404:240,1,90,0|0,1:0|0:0,0:0:0:0:
268,309,24396,2,0,L|261:219,1,90,8|0,0:0|0:0,0:0:0:0:
110,315,24804,6,0,B|132:373|132:373|185:338,1,125.999996154785,12|0,0:0|0:0,0:0:0:0:
261,219,25110,2,0,B|239:161|239:161|185:195,1,125.999996154785,12|0,0:0|0:0,0:0:0:0:
268,309,25417,2,0,L|393:316,1,125.999996154785,12|0,0:0|0:0,0:0:0:0:
469,185,25723,2,0,L|344:178,1,125.999996154785,4|0,1:2|1:0,0:0:0:0:
294,73,26029,6,0,P|302:24|335:60,1,121.499996292114,8|0,0:0|0:0,0:0:0:0:
294,73,26437,6,0,L|186:66,1,107.999996704102,4|0,1:2|1:0,0:0:0:0:
103,132,26743,1,0,1:0:0:0:
125,161,26845,2,0,P|130:191|126:215,1,53.9999983520508,8|0,0:0|0:0,0:0:0:0:
110,315,27049,1,0,1:0:0:0:
130,342,27151,2,0,L|245:332,1,107.999996704102,8|0,0:0|1:0,0:0:0:0:
333,273,27457,1,0,1:0:0:0:
344,292,27559,1,0,1:0:0:0:
355,311,27661,2,0,L|361:188,1,107.999996704102,8|0,0:0|1:0,0:0:0:0:
130,53,28070,6,0,L|124:176,1,107.999996704102,0|0,1:0|1:0,0:0:0:0:
197,240,28376,1,0,1:0:0:0:
221,228,28478,2,0,P|253:223|291:228,1,53.9999983520508,8|0,0:0|0:0,0:0:0:0:
428,284,28682,1,0,1:0:0:0:
442,306,28784,2,0,P|443:246|448:183,1,107.999996704102,8|0,0:0|1:0,0:0:0:0:
472,77,29090,1,0,1:0:0:0:
482,62,29192,1,0,1:0:0:0:
492,47,29294,2,0,L|385:51,1,107.999996704102,12|4,0:0|1:2,0:0:0:0:
20,140,29702,6,0,L|127:144,1,107.999996704102,4|0,1:2|1:0,0:0:0:0:
221,228,30008,1,0,1:0:0:0:
242,248,30110,2,0,L|349:244,1,107.999996704102,8|0,0:0|1:0,0:0:0:0:
472,77,30417,2,0,P|421:67|365:81,1,107.999996704102,0|0,1:0|1:0,0:0:0:0:
274,45,30723,2,0,L|269:100,1,53.9999983520508,0|0,1:0|1:0,0:0:0:0:
221,228,30927,2,0,L|216:173,1,53.9999983520508,8|0,0:0|0:0,0:0:0:0:
168,45,31131,2,0,L|163:100,1,53.9999983520508,0|0,1:0|0:0,0:0:0:0:
146,278,31335,6,0,B|171:282|197:313|197:313|235:300|262:304,1,125.999996154785,8|0,0:0|0:0,0:0:0:0:
431,217,31641,2,0,B|405:221|379:252|379:252|341:239|314:243,1,125.999996154785,8|0,0:0|0:0,0:0:0:0:
146,156,31947,2,0,B|171:160|197:191|197:191|235:178|262:182,1,125.999996154785,12|0,0:0|0:0,0:0:0:0:
431,95,32253,2,0,B|405:99|379:130|379:130|341:117|314:121,1,125.999996154785,8|0,0:0|0:0,0:0:0:0:
146,34,32559,2,0,L|84:43,1,62.9999980773926,8|8,0:0|0:0,0:0:0:0:
146,156,32763,2,0,L|84:165,1,62.9999980773926,8|4,0:3|0:3,0:0:0:0:
146,278,32968,6,0,P|190:306|248:304,1,107.999996704102,4|0,1:2|1:0,0:0:0:0:
308,225,33274,1,0,1:0:0:0:
288,197,33376,2,0,L|291:140,1,53.9999983520508,8|0,0:0|0:0,0:0:0:0:
229,44,33580,1,0,1:0:0:0:
199,28,33682,2,0,P|149:42|91:33,1,107.999996704102,8|0,0:0|1:0,0:0:0:0:
30,120,33988,1,0,1:0:0:0:
34,138,34090,1,0,1:0:0:0:
38,156,34192,2,0,L|31:264,1,107.999996704102,8|2,0:0|0:2,0:0:0:0:
122,328,34498,1,2,0:0:0:0:
146,313,34600,6,0,L|199:308,2,53.9999983520508,2|2|2,1:2|0:0|0:0,0:0:0:0:
172,217,34906,2,0,L|225:212,2,53.9999983520508,2|10|2,0:0|0:0|0:0,0:0:0:0:
198,121,35212,2,0,L|251:116,2,53.9999983520508,2|2|2,0:0|1:2|0:0,0:0:0:0:
224,25,35519,2,0,L|277:20,2,53.9999983520508,2|2|2,1:2|0:0|0:0,0:0:0:0:
198,121,35825,2,0,L|145:116,1,53.9999983520508,12|0,0:0|0:0,0:0:0:0:
0,51,36029,2,0,L|53:46,1,53.9999983520508,12|0,0:0|0:0,0:0:0:0:
224,25,36233,6,0,P|272:34|340:32,1,107.999996704102,4|0,1:2|1:0,0:0:0:0:
434,97,36539,1,0,1:0:0:0:
452,123,36641,2,0,L|450:176,1,53.9999983520508,8|0,0:0|0:0,0:0:0:0:
370,265,36845,1,0,1:0:0:0:
347,287,36947,2,0,P|295:282|232:283,1,107.999996704102,8|0,0:0|1:0,0:0:0:0:
126,322,37253,1,0,1:0:0:0:
110,306,37355,1,0,1:0:0:0:
94,290,37457,2,0,L|81:180,1,107.999996704102,8|0,0:0|1:0,0:0:0:0:
224,25,37866,6,0,B|273:22|273:22|319:40|319:40|369:38,1,148.50000453186,4|2,1:2|0:0,0:0:0:0:
424,191,38478,1,0,1:0:0:0:
424,191,38580,1,0,1:0:0:0:
424,191,38682,2,0,B|325:194,1,99.0000030212403,12|0,0:0|0:0,0:0:0:0:
88,238,39090,2,0,B|186:241,1,99.0000030212403,4|0,1:2|0:0,0:0:0:0:
476,255,39498,6,0,P|505:198|485:135,1,125.999996154785,4|0,0:0|0:0,0:0:0:0:
368,38,40110,1,0,1:0:0:0:
368,38,40212,1,0,1:0:0:0:
368,38,40314,2,0,L|270:46,1,94.499997116089,8|0,0:0|1:0,0:0:0:0:
201,96,40723,2,0,P|170:92|138:90,1,62.9999980773926,2|0,0:0|1:0,0:0:0:0:
351,256,41131,6,0,P|413:261|476:255,1,125.999996154785,0|0,1:0|0:0,0:0:0:0:
264,207,41743,1,8,0:0:0:0:
264,207,41845,1,8,0:0:0:0:
264,207,41947,2,0,P|214:208|166:215,1,94.499997116089,8|0,0:0|1:0,0:0:0:0:
94,252,42356,2,0,L|90:189,1,62.9999980773926,2|0,0:0|1:0,0:0:0:0:
272,81,42763,6,0,L|263:213,1,125.999996154785,4|0,1:2|0:0,0:0:0:0:
384,338,43376,1,0,1:0:0:0:
399,322,43478,1,0,0:0:0:0:
414,306,43580,2,0,L|419:211,1,94.499997116089,8|0,0:0|1:0,0:0:0:0:
461,144,43988,1,2,0:0:0:0:
446,120,44090,1,2,0:0:0:0:
441,93,44192,1,2,1:2:0:0:
447,66,44294,1,2,0:0:0:0:
461,43,44396,6,0,L|414:49,1,45,2|2,1:2|0:0,0:0:0:0:
341,98,44600,2,0,L|294:92,1,45,2|2,0:0|1:2,0:0:0:0:
221,43,44804,2,0,L|174:49,1,45,2|2,0:0|0:0,0:0:0:0:
101,98,45008,2,0,L|54:92,1,45,2|2,1:2|0:0,0:0:0:0:
0,164,45212,2,0,P|1:202|12:244,1,76.5000014591217,8|0,0:0|1:0,0:0:0:0:
85,292,45519,2,0,P|123:293|165:304,1,76.5000014591217,8|0,0:0|1:0,0:0:0:0:
221,363,45825,1,0,1:0:0:0:
230,156,46029,6,0,P|228:99|221:42,2,114.750002188683,8|8|8,0:0|0:0|0:0,0:0:0:0:
85,292,46845,2,0,L|80:264,7,19.1250003647804,2|2|2|2|2|2|2|2,0:0|0:0|0:0|0:0|0:0|0:0|0:0|0:0,0:0:0:0:
89,311,47253,2,0,P|130:285|194:291,1,114.750002188683,0|0,1:0|0:0,0:0:0:0:
278,339,47661,6,0,L|269:216,2,114.750002188683,8|12|0,0:0|0:0|1:0,0:0:0:0:
362,290,48376,1,0,1:0:0:0:
376,273,48478,2,0,P|431:265|480:293,1,114.750002188683,12|8,0:0|0:0,0:0:0:0:
415,348,48886,1,0,1:0:0:0:
483,191,49090,1,0,1:0:0:0:
483,191,49192,1,8,0:0:0:0:
483,191,49294,6,0,L|472:73,1,114.750002188683,4|0,1:2|0:0,0:0:0:0:
450,53,49702,1,0,1:0:0:0:
376,273,49906,2,0,L|365:155,1,114.750002188683,12|8,0:0|0:0,0:0:0:0:
343,135,50314,1,0,1:0:0:0:
269,355,50519,2,0,L|261:278,1,76.5000014591217,12|0,0:0|1:0,0:0:0:0:
147,26,50927,6,0,L|137:134,1,107.999996704102,12|0,0:0|1:0,0:0:0:0:
150,214,51233,1,8,0:0:0:0:
150,214,51335,1,0,1:0:0:0:
269,355,51539,1,8,0:0:0:0:
450,145,51743,6,0,L|343:135,1,107.999996704102,12|0,0:0|1:0,0:0:0:0:
277,194,52049,1,8,0:0:0:0:
256,225,52151,2,0,L|250:278,1,53.9999983520508,8|8,0:0|0:0,0:0:0:0:
129,183,52355,2,0,L|123:129,1,53.9999983520508,8|8,0:0|0:0,0:0:0:0:
70,20,52559,6,0,B|120:14|163:29|163:29|205:6|257:4,2,188.999994232178,12|12|12,0:0|0:0|0:0,0:0:0:0:
70,20,53580,5,0,1:0:0:0:
65,57,53682,1,0,1:0:0:0:
60,96,53784,2,0,B|53:156|53:156|68:193,1,94.499997116089,4|0,0:3|0:0,0:0:0:0:
150,213,54192,6,0,P|197:202|252:196,1,99.0000030212403,4|0,1:2|0:0,0:0:0:0:
440,41,54600,2,0,P|393:52|338:58,1,99.0000030212403,8|0,0:0|0:0,0:0:0:0:
70,20,55008,1,0,1:0:0:0:
150,213,55212,1,2,0:0:0:0:
150,213,55314,1,2,0:0:0:0:
150,213,55417,1,8,0:0:0:0:
230,20,55621,1,0,0:0:0:0:
201,282,55825,6,0,P|166:296|104:286,1,99.0000030212403,0|0,1:0|0:0,0:0:0:0:
247,44,56233,2,0,B|245:142,1,99.0000030212403,8|0,0:0|0:0,0:0:0:0:
340,325,56641,1,0,1:0:0:0:
150,213,56845,1,2,0:0:0:0:
150,213,56947,1,2,0:0:0:0:
150,213,57049,1,8,0:0:0:0:
362,171,57253,1,0,0:0:0:0:
99,144,57457,6,0,L|0:138,1,99.0000030212403,0|0,1:0|0:0,0:0:0:0:
413,240,57866,2,0,L|512:246,1,99.0000030212403,8|0,0:0|0:0,0:0:0:0:
256,192,58274,1,0,1:0:0:0:
340,325,58478,1,2,0:0:0:0:
340,325,58580,1,2,0:0:0:0:
340,325,58682,1,8,0:0:0:0:
291,90,58886,1,0,0:0:0:0:
150,213,59090,5,0,1:0:0:0:
308,207,59294,1,2,0:0:0:0:
308,207,59396,1,2,0:0:0:0:
308,207,59498,1,8,0:0:0:0:
80,132,59702,1,0,0:0:0:0:
115,315,59906,2,0,P|163:318|209:301,1,99.0000030212403,0|0,1:0|0:0,0:0:0:0:
80,132,60314,1,8,0:0:0:0:
83,343,60519,5,8,0:0:0:0:
83,343,60621,1,8,0:0:0:0:
83,343,60723,2,0,B|161:355|207:338|207:338|235:264,1,198.000006042481,4|8,1:2|0:0,0:0:0:0:
291,90,61335,5,2,0:0:0:0:
291,90,61437,1,2,0:0:0:0:
291,90,61539,2,0,B|226:56|151:76|151:76|168:96|169:126,1,198.000006042481,0|8,1:0|0:0,0:0:0:0:
75,301,62151,5,2,0:0:0:0:
75,301,62253,1,2,0:0:0:0:
75,301,62355,2,0,B|41:262|27:214|27:214|46:166|81:132,1,198.000006042481,0|8,1:0|0:0,0:0:0:0:
232,213,62968,5,2,0:0:0:0:
232,213,63070,1,2,0:0:0:0:
232,213,63172,2,0,L|134:219,1,99.0000030212403,0|0,1:0|0:0,0:0:0:0:
291,90,63580,2,0,L|389:96,1,99.0000030212403,8|0,0:0|0:0,0:0:0:0:
436,308,63988,6,0,P|409:236|429:168,1,148.50000453186,12|0,0:0|1:0,0:0:0:0:
472,99,64396,1,2,0:0:0:0:
209,37,64600,1,0,1:0:0:0:
209,37,64702,1,0,1:0:0:0:
209,37,64804,2,0,L|111:31,1,99.0000030212403,12|0,0:0|0:0,0:0:0:0:
52,93,65110,1,0,1:0:0:0:
52,93,65212,2,0,P|70:140|60:197,1,99.0000030212403,2|0,0:0|1:0,0:0:0:0:
260,285,65621,6,0,L|358:279,1,99.0000030212403,12|0,0:0|0:0,0:0:0:0:
436,308,65927,1,0,1:0:0:0:
436,308,66029,1,8,0:0:0:0:
472,99,66233,1,0,1:0:0:0:
472,99,66335,1,0,1:0:0:0:
472,99,66437,2,0,L|421:95,1,49.5000015106202,8|0,0:0|0:0,0:0:0:0:
296,151,66641,2,0,L|347:147,1,49.5000015106202,8|0,0:0|0:0,0:0:0:0:
220,99,66845,2,0,L|187:101,5,33.0000010070801,8|8|8|8|8|0,0:0|0:0|0:0|0:0|0:0|0:0,0:0:0:0:
169,80,67253,6,0,L|161:178,1,99.0000030212403,4|0,1:2|0:0,0:0:0:0:
436,308,67661,2,0,L|428:210,1,99.0000030212403,8|0,0:0|0:0,0:0:0:0:
205,289,68070,1,0,1:0:0:0:
472,99,68274,1,2,0:0:0:0:
472,99,68376,1,2,0:0:0:0:
472,99,68478,1,8,0:0:0:0:
161,179,68682,1,0,0:0:0:0:
299,363,68886,6,0,P|320:317|321:266,1,99.0000030212403,0|0,1:0|0:0,0:0:0:0:
123,23,69294,2,0,P|102:69|101:120,1,99.0000030212403,8|0,0:0|0:0,0:0:0:0:
205,289,69702,1,0,1:0:0:0:
217,97,69906,1,2,0:0:0:0:
217,97,70008,1,2,0:0:0:0:
217,97,70110,1,8,0:0:0:0:
299,363,70314,1,0,0:0:0:0:
100,116,70518,6,0,L|1:110,1,99.0000030212403,0|0,1:0|0:0,0:0:0:0:
273,15,70927,1,8,0:0:0:0:
161,178,71131,1,0,0:0:0:0:
334,78,71336,2,0,L|433:84,1,99.0000030212403,0|2,1:0|0:0,0:0:0:0:
433,84,71641,1,2,0:0:0:0:
433,84,71743,1,8,0:0:0:0:
217,97,71947,1,0,0:0:0:0:
272,259,72151,6,0,L|278:160,1,99.0000030212403,0|2,1:0|0:0,0:0:0:0:
278,160,72456,1,2,0:0:0:0:
278,160,72559,1,8,0:0:0:0:
100,116,72763,1,0,0:0:0:0:
150,292,72968,2,0,L|153:341,1,49.5000015106202,2|0,1:2|1:0,0:0:0:0:
272,259,73172,2,0,L|275:209,1,49.5000015106202,0|0,1:0|1:0,0:0:0:0:
394,292,73376,1,10,0:0:0:0:
479,98,73580,1,0,1:0:0:0:
479,98,73682,1,0,1:0:0:0:
479,98,73784,6,0,B|432:83|432:83|335:106,1,148.50000453186,4|0,1:2|0:0,0:0:0:0:
278,160,74192,1,8,0:0:0:0:
100,116,74396,1,0,1:0:0:0:
57,265,74600,1,0,1:0:0:0:
166,157,74804,1,0,1:0:0:0:
206,307,75008,1,8,0:0:0:0:
98,195,75212,1,0,1:0:0:0:
278,160,75417,6,0,P|350:169|390:233,1,148.50000453186,0|0,1:0|0:0,0:0:0:0:
389,305,75825,1,8,0:0:0:0:
165,236,76029,1,0,1:0:0:0:
304,244,76233,1,0,1:0:0:0:
98,195,76437,1,0,1:0:0:0:
206,307,76641,1,8,0:0:0:0:
278,160,76845,1,0,1:0:0:0:
100,116,77049,6,0,P|50:133|23:220,1,148.50000453186,4|0,1:2|0:0,0:0:0:0:
80,274,77457,1,8,0:0:0:0:
278,160,77661,1,0,1:0:0:0:
98,195,77866,1,0,1:0:0:0:
206,307,78070,1,0,1:0:0:0:
363,179,78274,1,10,0:0:0:0:
361,142,78376,1,2,0:0:0:0:
345,108,78478,1,2,0:0:0:0:
318,84,78580,1,2,0:0:0:0:
283,73,78682,6,0,P|211:80|136:69,1,148.50000453186,0|0,1:0|1:0,0:0:0:0:
57,21,79090,2,0,L|65:121,1,99.0000030212403,12|0,0:0|1:0,0:0:0:0:
98,195,79396,1,0,1:0:0:0:
98,195,79498,2,0,L|94:244,1,49.5000015106202,12|8,0:0|0:0,0:0:0:0:
127,319,79702,2,0,L|124:351,2,33.0000010070801,8|8|8,0:0|0:0|0:0,0:0:0:0:
145,312,79906,2,0,L|243:304,1,99.0000030212403,0|2,1:0|0:0,0:0:0:0:
280,234,80212,1,2,0:0:0:0:
280,234,80314,6,0,P|258:184|292:102,1,148.50000453186,4|0,1:2|0:0,0:0:0:0:
369,70,80723,1,8,0:0:0:0:
98,195,80927,1,0,1:0:0:0:
348,174,81131,1,8,0:0:0:0:
458,12,81335,1,0,1:0:0:0:
406,262,81539,1,8,0:0:0:0:
268,103,81743,1,0,1:0:0:0:
268,103,81845,1,8,0:0:0:0:
268,103,81947,5,4,1:2:0:0:
268,103,82763,1,0,0:0:0:0:
406,262,83070,1,2,0:0:0:0:
458,12,83376,1,2,0:0:0:0:
373,125,83580,6,0,B|316:137|316:137|266:101,1,116.999994644165,4|0,1:2|0:0,0:0:0:0:
189,75,83886,2,0,B|201:132|201:132|165:182,1,116.999994644165,4|0,1:2|0:0,0:0:0:0:
139,259,84192,2,0,B|196:247|196:247|246:283,1,116.999994644165,4|0,1:2|0:0,0:0:0:0:
323,309,84498,2,0,B|311:252|311:252|347:202,1,116.999994644165,4|0,1:2|1:0,0:0:0:0:
428,189,84804,2,0,P|465:102|373:125,1,233.999989288331,8|4,0:0|1:2,0:0:0:0:
256,192,85314,12,12,86845,0:0:0:0:
