osu file format v14

[General]
AudioFilename: This Game.mp3
AudioLeadIn: 1500
PreviewTime: 54194
Countdown: 0
SampleSet: Soft
StackLeniency: 0.3
Mode: 0
LetterboxInBreaks: 0
WidescreenStoryboard: 1

[Editor]
DistanceSpacing: 1
BeatDivisor: 4
GridSize: 4
TimelineZoom: 1

[Metadata]
Title:This game(TV-Size)
TitleUnicode:This game(TV-Size)
Artist:Konomi Suzuki
ArtistUnicode:鈴木このみ
Creator:[ Zzz ]
Version:Normal
Source:ノーゲーム・ノーライフ
Tags:No Game No Life Shiro Sora NGNL W_h_i_t_e W h i t e [_Kuro Usagi_] TV Size
BeatmapID:650436
BeatmapSetID:164264

[Difficulty]
HPDrainRate:4
CircleSize:3
OverallDifficulty:4
ApproachRate:5
SliderMultiplier:1.2
SliderTickRate:1

[Events]
//Background and Video events
Video,-400,"This game.avi"
0,0,"BG.jpg",0,0
//Break Periods
//Storyboard Layer 0 (Background)
//Storyboard Layer 1 (Fail)
//Storyboard Layer 2 (Pass)
//Storyboard Layer 3 (Foreground)
//Storyboard Sound Samples

[TimingPoints]
317,408.163265306122,4,2,1,30,1,0
6847,-100,4,2,1,50,0,0
13378,-100,4,2,1,70,0,0
26439,-100,4,2,1,80,0,0
39500,-100,4,2,1,70,0,0
54194,-100,4,2,1,85,0,1
61133,-100,4,2,2,85,0,1
61337,-100,4,2,1,85,0,1
61949,-100,4,2,2,85,0,1
62153,-100,4,2,1,85,0,1
62765,-100,4,2,2,85,0,1
62970,-100,4,2,1,85,0,1
63582,-100,4,2,2,85,0,1
63786,-100,4,2,1,85,0,1
83582,-100,4,2,1,70,0,0
86847,-100,4,2,1,30,0,0

[Colours]
Combo1 : 255,255,128
Combo2 : 128,255,255
Combo3 : 128,255,128

[HitObjects]
256,256,317,6,0,L|436:256,1,180,2|2,0:0|0:0,0:0:0:0:
440,136,1337,2,0,L|380:136,1,60,0|2,0:0|0:0,0:0:0:0:
336,96,1745,1,0,0:0:0:0:
284,68,1949,6,0,B|264:48|124:48|104:68,1,180,2|0,0:0|0:0,0:0:0:0:
40,164,2970,2,0,L|40:224,1,60,0|2,0:0|0:0,0:0:0:0:
72,276,3378,1,0,0:0:0:0:
120,312,3582,6,0,B|140:332|280:332|300:312,1,180,2|0,0:0|0:0,0:0:0:0:
396,248,4602,2,0,L|396:188,1,60,0|2,0:0|0:0,0:0:0:0:
376,132,5010,1,0,0:0:0:0:
340,84,5214,6,0,B|320:64|180:64|160:84,1,180,2|0,0:0|0:0,0:0:0:0:
80,168,6235,2,0,L|80:228,1,60,0|2,0:0|0:0,0:0:0:0:
80,288,6643,1,0,0:0:0:0:
120,332,6847,6,0,B|140:352|280:352|300:332,1,180,6|8,0:0|0:0,0:0:0:0:
396,268,7868,1,2,0:0:0:0:
432,220,8072,2,0,B|436:216|436:164|432:160,1,60,8|2,0:0|0:0,0:0:0:0:
404,108,8480,6,0,L|224:108,1,180,6|8,0:0|0:0,0:0:0:0:
108,80,9500,2,0,L|108:140,1,60,2|8,0:0|0:0,0:0:0:0:
108,200,9908,1,2,0:0:0:0:
108,260,10112,6,0,B|124:304|172:328|172:328|256:328,1,180,6|8,0:0|0:0,0:0:0:0:
372,360,11133,2,0,L|372:300,1,60,2|8,0:0|0:0,0:0:0:0:
372,240,11541,1,2,0:0:0:0:
352,184,11745,6,0,B|340:172|340:100|352:88,2,90,6|2|6,0:0|0:0|0:0,0:0:0:0:
460,136,12765,2,0,L|480:136,3,20,2|2|12|0,0:0|0:0|0:0|0:0,0:0:0:0:
352,184,13378,6,0,L|172:184,1,180,2|6,0:0|0:0,0:0:0:0:
52,48,14602,1,8,0:0:0:0:
52,168,15010,6,0,P|60:232|100:288,1,120,6|8,0:0|0:0,0:0:0:0:
192,340,15827,2,0,B|208:356|296:356|312:340,1,120,2|8,0:0|0:0,0:0:0:0:
360,312,16439,1,2,0:0:0:0:
400,264,16643,6,0,L|400:144,1,120,2|8,0:0|0:0,0:0:0:0:
400,84,17255,1,2,0:0:0:0:
280,84,17663,1,2,0:0:0:0:
232,48,17867,2,0,B|228:44|176:44|172:48,1,60,8|2,0:0|0:0,0:0:0:0:
124,80,18276,5,2,0:0:0:0:
124,256,18888,2,0,P|188:320|272:320,1,180,2|8,0:0|0:0,0:0:0:0:
372,252,19908,6,0,B|388:236|476:236|492:252,1,120,6|8,0:0|0:0,0:0:0:0:
492,8,21133,2,0,L|252:8,1,240,8|8,0:0|0:0,0:0:0:0:
156,80,22357,2,0,B|140:96|140:184|156:200,1,120,2|8,0:0|0:0,0:0:0:0:
232,288,23174,6,0,L|412:288,2,180,2|2|8,0:0|0:0|0:0,0:0:0:0:
264,172,24806,2,0,L|444:172,2,180,2|2|8,0:0|0:0|0:0,0:0:0:0:
156,224,26439,5,6,0:0:0:0:
104,116,26847,2,0,L|148:72,1,60,8|2,0:0|0:0,0:0:0:0:
252,20,27459,1,2,0:0:0:0:
308,40,27663,2,0,L|368:40,1,60,8|2,0:0|0:0,0:0:0:0:
420,72,28072,6,0,B|436:88|436:176|420:192,1,120,2|8,0:0|0:0,0:0:0:0:
380,232,28684,2,0,L|260:232,1,120,2|2,0:0|0:0,0:0:0:0:
208,260,29296,1,8,0:0:0:0:
96,216,29704,6,0,B|80:200|80:112|96:96,1,120,6|8,0:0|0:0,0:0:0:0:
124,48,30316,2,0,L|244:48,1,120,2|2,0:0|0:0,0:0:0:0:
300,68,30929,2,0,L|360:68,1,60,8|2,0:0|0:0,0:0:0:0:
416,92,31337,6,0,B|440:116|440:248|416:272,1,180,2|12,0:0|0:0,0:0:0:0:
260,348,32561,2,0,L|200:348,1,60,8|2,0:0|0:0,0:0:0:0:
140,348,32970,5,6,0:0:0:0:
44,276,33378,1,8,0:0:0:0:
80,228,33582,2,0,B|96:212|96:124|80:108,1,120,2|2,0:0|0:0,0:0:0:0:
60,56,34194,2,0,L|104:12,1,60,8|2,0:0|0:0,0:0:0:0:
164,12,34602,6,0,L|284:12,1,120,2|8,0:0|0:0,0:0:0:0:
332,48,35214,2,0,B|348:64|436:64|452:48,1,120,2|2,0:0|0:0,0:0:0:0:
496,88,35827,2,0,L|496:148,1,60,8|8,0:0|0:0,0:0:0:0:
496,208,36235,5,6,0:0:0:0:
424,304,36643,1,8,0:0:0:0:
368,280,36847,2,0,B|352:264|264:264|248:280,1,120,2|2,0:0|0:0,0:0:0:0:
196,304,37459,2,0,B|188:308|144:308|136:304,1,60,8|2,0:0|0:0,0:0:0:0:
80,284,37868,6,0,P|16:220|16:136,1,180,2|2,0:0|0:0,0:0:0:0:
40,80,38684,1,8,0:0:0:0:
160,80,39092,1,8,0:0:0:0:
272,40,39500,6,0,B|392:40|392:40|436:84,1,180,6|2,0:0|0:0,0:0:0:0:
472,128,40316,2,0,P|472:252|440:300,1,180,8|2,0:0|0:0,0:0:0:0:
388,316,41133,6,0,L|208:316,1,180,2|2,0:0|0:0,0:0:0:0:
148,316,41949,1,8,0:0:0:0:
20,192,42561,1,2,0:0:0:0:
20,132,42765,6,0,B|48:72|108:44|108:44|172:56|224:44,1,240,6|8,0:0|0:0,0:0:0:0:
344,248,44398,2,0,B|316:308|256:336|256:336|192:324|140:336,1,240,2|8,0:0|0:0,0:0:0:0:
296,148,46031,6,0,B|308:136|376:136|388:148,2,90,2|2|2,0:0|0:0|0:0,0:0:0:0:
240,168,46847,1,8,0:0:0:0:
452,284,47663,6,0,B|464:272|464:204|452:192,2,90,2|2|6,0:0|0:0|0:0,0:0:0:0:
416,332,48480,2,0,L|236:332,1,180,12|2,0:0|0:0,0:0:0:0:
176,348,49296,6,0,P|56:284|32:228,1,180,6|8,0:0|0:0,0:0:0:0:
56,192,50112,2,0,B|72:176|72:88|56:72,1,120,2|8,0:0|0:0,0:0:0:0:
176,100,50929,6,0,L|416:100,2,240,2|8|8,0:0|0:0|0:0,0:0:0:0:
256,348,53786,1,8,0:0:0:0:
352,276,54194,6,0,L|472:276,2,120,6|8|2,0:0|0:0|0:0,0:0:0:0:
256,348,55419,2,0,L|196:348,1,60,8|2,0:0|0:0,0:0:0:0:
148,312,55827,6,0,B|132:328|44:328|28:312,1,120,2|8,0:0|0:0,0:0:0:0:
32,196,56643,2,0,B|48:180|136:180|152:196,1,120,2|8,0:0|0:0,0:0:0:0:
204,212,57255,1,2,0:0:0:0:
252,248,57459,6,0,B|268:264|356:264|372:248,1,120,2|8,0:0|0:0,0:0:0:0:
456,168,58276,2,0,B|456:60|456:60|444:48,1,120,2|8,0:0|0:0,0:0:0:0:
396,20,58888,1,2,0:0:0:0:
336,20,59092,6,0,L|156:20,2,180,2|2|8,0:0|0:0|0:0,0:0:0:0:
292,132,60725,6,0,L|112:132,1,180,6|2,0:0|0:0,0:0:0:0:
60,160,61541,2,0,B|36:184|36:316|60:340,1,180,2|2,0:0|0:0,0:0:0:0:
104,372,62357,6,0,L|284:372,1,180,2|2,0:0|0:0,0:0:0:0:
340,348,63174,2,0,B|364:324|364:192|340:168,1,180,2|2,0:0|0:0,0:0:0:0:
304,128,63990,5,2,0:0:0:0:
180,128,64398,1,8,0:0:0:0:
72,68,64806,2,0,B|52:88|52:168|72:188,1,120,2|8,0:0|0:0,0:0:0:0:
104,232,65419,1,2,0:0:0:0:
160,252,65623,6,0,B|280:252|280:252|324:296,1,180,6|2,0:0|0:0,0:0:0:0:
372,328,66439,2,0,B|392:348|472:348|492:328,1,120,2|8,0:0|0:0,0:0:0:0:
432,224,67255,6,0,L|432:104,1,120,6|8,0:0|0:0,0:0:0:0:
324,52,68072,2,0,B|308:68|220:68|204:52,1,120,2|8,0:0|0:0,0:0:0:0:
152,32,68684,1,2,0:0:0:0:
96,52,68888,6,0,L|8:140,1,120,2|8,0:0|0:0,0:0:0:0:
120,188,69704,2,0,B|104:204|104:292|120:308,1,120,2|8,0:0|0:0,0:0:0:0:
160,348,70316,1,2,0:0:0:0:
216,368,70521,6,0,L|336:368,1,120,2|8,0:0|0:0,0:0:0:0:
432,296,71337,2,0,L|432:176,1,120,2|8,0:0|0:0,0:0:0:0:
432,116,71949,1,2,0:0:0:0:
396,68,72153,6,0,B|380:52|292:52|276:68,1,120,2|8,0:0|0:0,0:0:0:0:
188,144,72970,2,0,L|188:264,1,120,2|8,0:0|0:0,0:0:0:0:
268,352,73786,6,0,B|388:352|388:352|432:308,1,180,6|2,0:0|0:0,0:0:0:0:
512,148,75010,2,0,L|512:88,1,60,8|2,0:0|0:0,0:0:0:0:
480,36,75419,6,0,L|360:36,1,120,2|8,0:0|0:0,0:0:0:0:
312,72,76031,2,0,B|296:88|208:88|192:72,1,120,2|2,0:0|0:0,0:0:0:0:
144,44,76643,1,8,0:0:0:0:
48,116,77051,6,0,L|48:236,1,120,6|8,0:0|0:0,0:0:0:0:
88,280,77663,2,0,B|104:296|192:296|208:280,1,120,2|2,0:0|0:0,0:0:0:0:
256,252,78276,1,8,0:0:0:0:
352,180,78684,6,0,B|368:164|456:164|472:180,1,120,2|8,0:0|0:0,0:0:0:0:
492,60,79500,2,0,L|252:60,1,240,8|6,0:0|0:0,0:0:0:0:
132,60,80725,5,8,0:0:0:0:
40,136,81133,2,0,B|24:152|24:240|40:256,1,120,2|8,0:0|0:0,0:0:0:0:
124,336,81949,1,2,0:0:0:0:
340,232,82765,1,2,0:0:0:0:
256,192,83582,12,12,86847,0:0:0:0:
