osu file format v14

[General]
AudioFilename: This Game.mp3
AudioLeadIn: 1500
PreviewTime: 54194
Countdown: 0
SampleSet: Soft
StackLeniency: 0.3
Mode: 0
LetterboxInBreaks: 0
WidescreenStoryboard: 0

[Editor]
DistanceSpacing: 1.3
BeatDivisor: 2
GridSize: 4
TimelineZoom: 1

[Metadata]
Title:This game(TV-Size)
TitleUnicode:This game(TV-Size)
Artist:Konomi Suzuki
ArtistUnicode:鈴木このみ
Creator:[ Zzz ]
Version:Easy
Source:ノーゲーム・ノーライフ
Tags:No Game No Life Shiro Sora NGNL W_h_i_t_e W h i t e [_Kuro Usagi_] TV Size
BeatmapID:400506
BeatmapSetID:164264

[Difficulty]
HPDrainRate:2
CircleSize:2
OverallDifficulty:2
ApproachRate:2
SliderMultiplier:0.8
SliderTickRate:1

[Events]
//Background and Video events
Video,-400,"This game.avi"
0,0,"BG.jpg",0,0
//Break Periods
//Storyboard Layer 0 (Background)
//Storyboard Layer 1 (Fail)
//Storyboard Layer 2 (Pass)
//Storyboard Layer 3 (Foreground)
//Storyboard Sound Samples

[TimingPoints]
317,408.163265306122,4,2,1,30,1,0
6847,-100,4,2,1,50,0,0
13378,-100,4,2,1,70,0,0
26439,-100,4,2,1,80,0,0
39500,-100,4,2,1,70,0,0
54194,-100,4,2,1,85,0,1
68480,-100,4,2,2,85,0,1
68888,-100,4,2,1,85,0,1
70112,-100,4,2,2,85,0,1
70521,-100,4,2,1,85,0,1
83582,-100,4,2,1,70,0,0
86847,-100,4,2,1,30,0,0

[Colours]
Combo1 : 255,255,128
Combo2 : 128,255,255
Combo3 : 128,255,128

[HitObjects]
256,36,317,6,0,L|376:36,2,120,2|2|0,0:0|0:0|0:0,0:0:0:0:
292,132,1949,2,0,L|412:132,2,120,2|2|0,0:0|0:0|0:0,0:0:0:0:
324,232,3582,2,0,L|444:232,2,120,2|2|0,0:0|0:0|0:0,0:0:0:0:
360,328,5214,2,0,L|480:328,2,120,2|2|0,0:0|0:0|0:0,0:0:0:0:
256,328,6847,5,6,0:0:0:0:
72,72,8072,2,0,L|152:72,1,80,8|0,0:0|0:0,0:0:0:0:
408,252,9704,2,0,L|328:252,1,80,8|2,0:0|0:0,0:0:0:0:
28,164,11337,1,10,0:0:0:0:
116,220,11745,2,0,L|236:220,2,120,2|2|2,0:0|0:0|0:0,0:0:0:0:
28,276,13378,5,2,0:0:0:0:
256,64,14602,1,8,0:0:0:0:
360,64,15010,1,0,0:0:0:0:
400,160,15419,2,0,P|364:244|304:272,1,160,8|8,0:0|0:0,0:0:0:0:
200,248,16643,6,0,B|184:232|96:232|80:248,1,120,2|2,0:0|0:0,0:0:0:0:
80,88,17868,1,8,0:0:0:0:
172,36,18276,2,0,L|292:36,2,120,2|2|8,0:0|0:0|0:0,0:0:0:0:
80,88,19908,5,6,0:0:0:0:
80,192,20316,1,8,0:0:0:0:
168,248,20725,2,0,L|248:248,1,80,2|8,0:0|0:0,0:0:0:0:
344,288,21541,2,0,P|424:288|484:240,1,160,6|2,0:0|0:0,0:0:0:0:
484,136,22765,1,8,0:0:0:0:
416,56,23174,6,0,L|296:56,2,120,2|2|8,0:0|0:0|0:0,0:0:0:0:
380,152,24806,2,0,L|260:152,2,120,2|2|8,0:0|0:0|0:0,0:0:0:0:
484,152,26439,5,6,0:0:0:0:
484,256,26847,2,0,L|324:256,1,160,8|8,0:0|0:0,0:0:0:0:
220,256,28072,1,2,0:0:0:0:
116,256,28480,2,0,B|60:200|60:200|68:160|60:120,1,160,8|12,0:0|0:0,0:0:0:0:
16,24,29704,5,6,0:0:0:0:
120,36,30112,2,0,L|280:36,1,160,8|8,0:0|0:0,0:0:0:0:
368,92,31337,2,0,L|488:92,2,120,8|12|8,0:0|0:0|0:0,0:0:0:0:
280,148,32970,5,6,0:0:0:0:
176,148,33378,2,0,B|56:148|56:148|28:176,1,160,8|8,0:0|0:0,0:0:0:0:
28,280,34602,1,2,0:0:0:0:
108,348,35010,2,0,L|268:348,1,160,8|12,0:0|0:0,0:0:0:0:
372,352,36235,5,6,0:0:0:0:
456,292,36643,2,0,B|456:212|456:212|456:172|424:140,1,160,8|8,0:0|0:0,0:0:0:0:
350,67,37868,2,0,L|190:67,1,160,2|8,0:0|0:0,0:0:0:0:
88,68,39092,1,8,0:0:0:0:
136,160,39500,6,0,L|136:320,1,160,6|8,0:0|0:0,0:0:0:0:
344,320,41133,2,0,L|344:160,1,160,2|8,0:0|0:0,0:0:0:0:
180,32,42765,6,0,L|340:32,1,160,6|8,0:0|0:0,0:0:0:0:
340,240,44398,2,0,L|180:240,2,160,2|8|2,0:0|0:0|0:0,0:0:0:0:
340,240,47663,5,2,0:0:0:0:
340,240,49296,2,0,L|460:240,1,120,2|8,0:0|0:0,0:0:0:0:
340,140,50521,1,8,0:0:0:0:
256,80,50929,2,0,L|96:80,2,160,2|2|8,0:0|0:0|0:0,0:0:0:0:
460,336,53786,1,8,0:0:0:0:
356,336,54194,6,0,L|196:336,1,160,6|2,0:0|0:0,0:0:0:0:
92,336,55419,1,8,0:0:0:0:
0,288,55827,2,0,L|0:128,1,160,2|2,0:0|0:0,0:0:0:0:
0,24,57051,1,8,0:0:0:0:
92,72,57459,6,0,B|128:80|172:72|172:72|216:64|252:72,1,160,2|2,0:0|0:0,0:0:0:0:
352,96,58684,1,8,0:0:0:0:
424,172,59092,2,0,B|440:272|368:328,1,160,2|2,0:0|0:0,0:0:0:0:
280,348,60316,1,8,0:0:0:0:
176,348,60725,6,0,P|101:329|48:244,1,160,6|2,0:0|0:0,0:0:0:0:
72,164,61949,1,8,0:0:0:0:
160,112,62357,2,0,L|320:112,1,160,2|2,0:0|0:0,0:0:0:0:
424,112,63582,1,8,0:0:0:0:
376,204,63990,6,0,L|376:328,2,120,6|2|8,0:0|0:0|0:0,0:0:0:0:
424,112,65623,1,6,0:0:0:0:
256,236,66439,1,2,0:0:0:0:
152,236,66847,1,8,0:0:0:0:
48,236,67255,5,6,0:0:0:0:
152,56,68072,2,0,L|312:56,1,160,2|2,0:0|0:0,0:0:0:0:
352,260,69704,2,0,L|192:260,1,160,2|2,0:0|0:0,0:0:0:0:
152,56,71337,1,2,0:0:0:0:
332,160,72153,5,2,0:0:0:0:
436,160,72561,1,8,0:0:0:0:
436,56,72970,1,2,0:0:0:0:
332,56,73378,1,8,0:0:0:0:
332,160,73786,6,0,L|332:280,2,120,2|2|8,0:0|0:0|0:0,0:0:0:0:
228,180,75419,2,0,L|228:300,2,120,2|2|8,0:0|0:0|0:0,0:0:0:0:
128,208,77051,2,0,L|128:328,2,120,2|2|8,0:0|0:0|0:0,0:0:0:0:
24,208,78684,5,2,0:0:0:0:
24,104,79092,1,8,0:0:0:0:
128,104,79500,1,8,0:0:0:0:
336,104,80316,6,0,B|368:136|368:312|336:344,2,240,6|2|2,0:0|0:0|0:0,0:0:0:0:
256,192,83582,12,8,86847,0:0:0:0:
