osu file format v12

[General]
AudioFilename: Heavenly Lover (TV Size.).mp3
AudioLeadIn: 2000
PreviewTime: 59106
Countdown: 0
SampleSet: Normal
StackLeniency: 0.7
Mode: 0
LetterboxInBreaks: 0
WidescreenStoryboard: 0

[Editor]
Bookmarks: 17326
DistanceSpacing: 1
BeatDivisor: 4
GridSize: 4

[Metadata]
Title:Heavenly Lover (TV Size)
TitleUnicode:Heavenly Lover (TV Size)
Artist:Kono Naka ni Hitori, Imouto ga Iru! Cast
ArtistUnicode:この中に1人、妹がいる! Cast
Creator:P A N
Version:Easy
Source:Kono Naka ni Hitori, Imouto ga Iru!
Tags:ending betsuto xinely hinsvar この中に1人、妹がいる! Studio Gokumi p_a_n Ishihara Kaori Sakura Ayane Taketatsu Ayana Oogame Asuka Hidaka Rina
BeatmapID:252646
BeatmapSetID:93554

[Difficulty]
HPDrainRate:2
CircleSize:3
OverallDifficulty:2
ApproachRate:2
SliderMultiplier:0.9
SliderTickRate:1

[Events]
//Background and Video events
0,0,"bg.jpg",0,0
Video,0,"video.avi"
//Break Periods
//Storyboard Layer 0 (Background)
//Storyboard Layer 1 (Fail)
//Storyboard Layer 2 (Pass)
//Storyboard Layer 3 (Foreground)
//Storyboard Sound Samples
//Background Colour Transformations
3,100,163,162,255

[TimingPoints]
665,375,4,1,0,70,1,0
4040,-100,4,2,2,55,0,0
4415,-100,4,1,0,70,0,0
4790,-100,4,2,2,55,0,0
5165,-100,4,1,0,70,0,0
5540,-100,4,1,0,90,0,0
7040,-100,4,2,2,55,0,0
7415,-100,4,1,0,70,0,0
7790,-100,4,1,2,70,0,0
13040,-100,4,2,2,50,0,0
13415,-100,4,1,0,70,0,0
14540,-100,4,2,2,50,0,0
14915,-100,4,1,0,70,0,0
16040,-100,4,2,2,55,0,0
16415,-100,4,1,0,70,0,0
16790,-100,4,2,2,55,0,0
17165,-100,4,1,0,70,0,0
19040,-100,4,2,2,55,0,0
19415,-100,4,1,0,70,0,0
20540,-100,4,2,2,55,0,0
20915,-100,4,1,0,70,0,0
25040,-100,4,2,2,55,0,0
25415,-100,4,1,0,70,0,0
26540,-100,4,2,2,55,0,0
26915,-100,4,1,0,70,0,0
28040,-100,4,2,2,55,0,0
28415,-100,4,1,0,70,0,0
29540,-100,4,2,2,55,0,0
29915,-100,4,1,0,70,0,0
31040,-100,4,2,2,55,0,0
31415,-100,4,1,0,70,0,0
31790,-100,4,2,2,55,0,0
32165,-100,4,1,0,70,0,0
33665,-100,4,1,1,70,0,0
34040,-100,4,2,1,55,0,0
34415,-100,4,1,1,70,0,0
35540,-100,4,2,1,55,0,0
35915,-100,4,1,1,70,0,0
43040,-100,4,2,1,55,0,0
43415,-100,4,1,1,70,0,0
44540,-100,4,2,1,70,0,0
44727,-100,4,1,1,70,0,0
46790,-100,4,2,1,70,0,0
47165,-100,4,1,1,70,0,0
48290,-100,4,2,1,70,0,0
48665,-100,4,1,1,70,0,0
50540,-100,4,2,1,70,0,0
50915,-100,4,1,1,70,0,0
52040,-100,4,2,1,70,0,0
52415,-100,4,1,1,70,0,0
55040,-100,4,2,1,70,0,0
55415,-100,4,1,1,70,0,0
59165,-100,4,1,1,70,0,1
60290,-100,4,2,2,55,0,1
60665,-100,4,1,0,70,0,1
61790,-100,4,2,2,55,0,1
62165,-100,4,1,0,70,0,1
64040,-100,4,2,2,55,0,1
64415,-100,4,1,0,70,0,1
66290,-100,4,2,2,55,0,1
66665,-100,4,1,0,70,0,1
67790,-100,4,2,2,55,0,1
68165,-100,4,1,0,70,0,1
71071,-100,4,1,1,40,0,0
71165,-100,4,1,1,70,0,1
71540,-100,4,1,1,70,0,1
73040,-100,4,2,2,55,0,1
73415,-100,4,1,0,70,0,1
74540,-100,4,2,2,55,0,1
74915,-100,4,1,0,70,0,1
86165,-100,4,1,1,70,0,0
89540,-100,4,2,0,5,0,0

[Colours]
Combo1 : 255,62,255
Combo2 : 255,255,149
Combo3 : 136,136,255
Combo4 : 255,172,89

[HitObjects]
96,136,665,1,4,0:0:0:0:
172,92,1040,2,0,P|256:64|340:92,2,180,8|8|8,0:0|0:0|0:0,0:0:0:0:
96,136,2915,2,0,P|88:184|104:232,1,90,2|8,0:0|0:0,0:0:0:0:
172,276,3665,6,0,P|256:308|341:273,2,180,4|0|0,0:0|0:0|0:0,0:0:0:0:
92,232,5540,2,0,P|80:280|96:328,2,89.9999999999999,8|2|8,0:0|0:0|0:0,0:0:0:0:
32,164,6665,6,0,P|112:144|180:212,1,180,4|0,0:0|0:0,0:0:0:0:
180,296,7790,2,0,L|236:296,1,45,8|4,0:0|0:0,0:0:0:0:
412,236,9290,1,0,0:0:0:0:
328,196,9665,6,0,P|344:148|336:100,1,89.9999999999999,4|8,0:0|0:0,0:0:0:0:
256,72,10415,1,0,0:0:0:0:
172,109,10790,2,0,P|168:148|184:196,2,89.9999999999999,8|0|8,0:0|0:0|0:0,0:0:0:0:
116,36,11915,2,0,P|72:24|20:40,1,89.9999999999999,0|8,0:0|0:0,0:0:0:0:
72,116,12665,6,0,P|72:200|128:288,1,180
204,316,13790,1,8,0:0:0:0:
288,280,14165,2,0,P|335:199|335:115,1,180
288,36,15290,1,8,0:0:0:0:
232,104,15665,6,0,P|148:132|64:104,2,180
308,56,17540,2,0,P|348:36|408:48,2,89.9999999999999,8|0|8,0:0|0:0|0:0,0:0:0:0:
368,124,18665,6,0,P|404:204|368:284,1,180,0|0,0:0|0:0,0:0:0:0:
292,328,19790,1,8,0:0:0:0:
212,288,20165,2,0,P|132:328|52:276,1,180,0|0,0:0|0:0,0:0:0:0:
136,240,21290,1,8,0:0:0:0:
152,152,21665,6,0,P|156:104|184:64,1,89.9999999999999,0|8,0:0|0:0,0:0:0:0:
256,20,22415,1,0,0:0:0:0:
333,69,22790,2,0,P|356:104|360:152,1,89.9999999999999,8|0,0:0|0:0,0:0:0:0:
412,228,23540,2,0,P|368:244|324:232,1,89.9999999999999,8|0,0:0|0:0,0:0:0:0:
264,168,24290,1,8,0:0:0:0:
228,252,24665,6,0,P|156:300|64:288,1,180,0|0,0:0|0:0,0:0:0:0:
8,220,25790,1,8,0:0:0:0:
24,132,26165,2,0,P|96:84|188:96,1,180,0|0,0:0|0:0,0:0:0:0:
256,148,27290,1,8,0:0:0:0:
326,94,27665,6,0,P|416:84|488:132,1,180,0|0,0:0|0:0,0:0:0:0:
484,220,28790,1,8,0:0:0:0:
448,300,29165,2,0,P|358:310|286:262,1,180,0|0,0:0|0:0,0:0:0:0:
188,120,30665,6,0,P|104:88|16:128,2,180,0|0|0,0:0|0:0|0:0,0:0:0:0:
276,120,32540,2,0,P|272:164|240:196,2,89.9999999999999,8|0|8,0:0|0:0|0:0,0:0:0:0:
280,28,33665,6,0,P|360:72|364:156,1,180,4|0,0:0|0:0,0:0:0:0:
348,240,34790,1,2,0:0:0:0:
296,312,35165,2,0,P|216:344|128:308,1,180
48,348,36290,2,0,P|36:300|52:260,1,89.9999999999999,2|0,0:0|0:0,0:0:0:0:
52,172,37040,6,0,P|96:180|132:216,1,89.9999999999999,2|0,0:0|0:0,0:0:0:0:
192,276,37790,1,2,0:0:0:0:
260,340,38165,2,0,P|308:352|360:324,1,89.9999999999999,0|2,0:0|0:0,0:0:0:0:
300,260,38915,2,0,P|336:246|384:258,1,89.9999999999999,0|2,0:0|0:0,0:0:0:0:
476,260,39665,5,0,0:0:0:0:
488,168,40040,2,0,P|468:120|432:92,1,89.9999999999999,2|0,0:0|0:0,0:0:0:0:
388,20,40790,2,0,P|356:56|348:100,1,89.9999999999999,2|0,0:0|0:0,0:0:0:0:
308,176,41540,2,0,P|356:188|404:168,2,90,2|0|2,0:0|0:0|0:0,0:0:0:0:
240,116,42665,6,0,P|160:88|68:120,1,180
56,204,43790,1,2,0:0:0:0:
87,288,44165,2,0,P|151:312|215:288,1,135
336,344,45290,6,0,P|380:324|412:276,1,89.9999999999999,2|4,0:0|0:0,0:0:0:0:
460,220,46040,1,2,0:0:0:0:
476,132,46415,2,0,P|428:60|336:60,1,180
256,92,47540,1,2,0:0:0:0:
170,57,47915,6,0,P|84:60|36:132,1,180
32,220,49040,2,0,P|36:264|68:304,2,90,2|0|2,0:0|0:0|0:0,0:0:0:0:
120,232,50165,2,0,P|206:204|288:232,1,180
364,280,51290,1,2,0:0:0:0:
432,220,51665,6,0,P|472:144|416:60,1,180,4|0,0:0|0:0,0:0:0:0:
380,144,52790,2,0,P|340:104|332:64,1,89.9999999999999,2|0,0:0|0:0,0:0:0:0:
256,24,53540,1,2,0:0:0:0:
179,72,53915,2,0,P|172:104|132:144,1,89.9999999999999,0|2,0:0|0:0,0:0:0:0:
81,67,54665,6,0,P|40:144|80:220,1,180
152,272,55790,2,0,L|208:272,1,45,0|4,0:0|0:0,0:0:0:0:
280,240,56352,2,0,L|328:240,1,45
256,192,56727,12,0,58415,0:0:0:0:
208,184,59165,6,0,P|164:192|116:180,1,89.9999999999999,4|8,0:0|0:0,0:0:0:0:
168,100,59915,2,0,P|256:76|344:104,1,180
360,192,61040,1,8,0:0:0:0:
340,280,61415,2,0,P|257:304|169:280,1,180
96,224,62540,6,0,P|84:176|96:132,1,89.9999999999999,8|0,0:0|0:0,0:0:0:0:
140,60,63290,1,8,0:0:0:0:
228,84,63665,2,0,P|316:112|400:72,1,180
464,136,64790,2,0,L|460:228,1,89.9999999999999,8|4,0:0|0:0,0:0:0:0:
456,316,65540,5,8,0:0:0:0:
372,348,65915,2,0,P|296:304|200:336,1,180
128,356,67040,1,8,0:0:0:0:
52,308,67415,2,0,L|40:120,1,180,0|4,0:0|0:0,0:0:0:0:
28,40,68540,2,0,P|76:44|116:80,1,89.9999999999999,8|0,0:0|0:0,0:0:0:0:
180,120,69290,6,0,L|228:120,1,45,8|4,0:0|0:0,0:0:0:0:
308,80,69852,2,0,P|344:88|388:136,1,89.9999999999999
304,172,70602,1,0,0:0:0:0:
260,300,71165,6,0,P|304:308|356:296,2,89.9999999999999,4|8|0,0:0|0:0|0:0,0:0:0:0:
172,324,72290,1,8,0:0:0:0:
84,300,72665,2,0,P|44:220|88:144,1,180
172,124,73790,1,8,0:0:0:0:
260,148,74165,6,0,P|300:228|256:304,1,180
172,324,75290,2,0,L|124:324,1,45,0|4,0:0|0:0,0:0:0:0:
36,328,75852,1,0,0:0:0:0:
80,252,76227,2,0,B|72:176|72:176|104:116|104:116|96:28,1,225,4|4,0:0|0:0,0:0:0:0:
184,16,77540,5,8,0:0:0:0:
272,36,77915,2,0,P|316:24|368:36,1,89.9999999999999,0|8,0:0|0:0,0:0:0:0:
408,108,78665,2,0,L|424:204,1,89.9999999999999,0|8,0:0|0:0,0:0:0:0:
332,204,79415,2,0,L|316:108,1,89.9999999999999,0|8,0:0|0:0,0:0:0:0:
236,76,80165,6,0,P|128:200|236:328,1,360,4|0,0:0|0:0,0:0:0:0:
412,300,82415,5,0,0:0:0:0:
428,212,82790,1,8,0:0:0:0:
400,128,83165,2,0,P|256:40|104:140,1,360,4|0,0:0|0:0,0:0:0:0:
92,308,85415,6,0,P|136:316|180:304,1,89.9999999999999
260,348,86165,2,0,P|272:304|260:260,1,89.9999999999999,4|0,0:0|0:0,0:0:0:0:
344,224,86915,2,0,P|300:176|224:180,1,135,0|4,0:0|0:0,0:0:0:0:
144,176,87852,2,0,L|92:176,1,45,0|4,0:0|0:0,0:0:0:0:
256,192,88227,12,0,89540,0:0:0:0:
