osu file format v12

[General]
AudioFilename: 10 Soshite Kimi to Koi wo Suru.mp3
AudioLeadIn: 0
PreviewTime: 140726
Countdown: 1
SampleSet: Normal
StackLeniency: 0.7
Mode: 0
LetterboxInBreaks: 1
WidescreenStoryboard: 1

[Editor]
DistanceSpacing: 0.8
BeatDivisor: 4
GridSize: 8

[Metadata]
Title:Soshite Kimi to Koi wo Suru
TitleUnicode:そして君と恋をする
Artist:Konjiki no Yami & Momo & Lala & Nana
ArtistUnicode:金色の闇&モモ&ララ&ナナ
Creator:[ B e a r ]
Version:Normal
Source:To LOVEる -とらぶる- ダークネス
Tags:Konjiki no Yami Momo Velia Lala Satalin Nana Astar Deviluke Yuuki Rito Character Album Darkness Trouble Toraburu toloveru Fukuen Misato Toyosaki Aki Tomatsu Haruka Itou Kanae
BeatmapID:360044
BeatmapSetID:144474

[Difficulty]
HPDrainRate:3
CircleSize:3
OverallDifficulty:4
ApproachRate:5
SliderMultiplier:1.4
SliderTickRate:2

[Events]
//Background and Video events
0,0,"BG.jpg",0,0
//Break Periods
2,95834,103162
2,172925,180253
2,216562,220980
2,248561,258799
//Storyboard Layer 0 (Background)
//Storyboard Layer 1 (Fail)
//Storyboard Layer 2 (Pass)
//Storyboard Layer 3 (Foreground)
//Storyboard Sound Samples
//Background Colour Transformations
3,100,163,162,255

[TimingPoints]
1090,363.636363636364,4,2,0,100,1,0
1090,-133.333333333333,4,2,0,75,0,0
10544,-133.333333333333,4,2,0,75,0,0
12726,-133.333333333333,4,2,0,75,0,0
15090,-100,4,1,0,75,0,0
32362,-100,4,1,0,75,0,0
63635,-100,4,1,0,75,0,1
95635,-100,4,2,0,75,0,0
107271,-133.333333333333,4,2,0,75,0,0
118908,-100,4,1,0,75,0,0
140726,-100,4,1,0,75,0,1
172726,-100,4,1,0,75,0,0
216362,-133.333333333333,4,2,0,75,0,0
222180,-100,4,1,0,75,0,0
227817,-100,4,1,0,75,0,1
248362,-100,4,1,0,75,0,0
271635,-100,4,2,0,75,0,0

[Colours]
Combo1 : 255,128,128
Combo2 : 255,0,255
Combo3 : 255,255,0
Combo4 : 255,128,192
Combo5 : 0,255,255

[HitObjects]
280,144,1090,2,0,P|256:192|200:200,3,105.000004005432
128,208,2544,2,0,P|152:264|200:280,1,105.000004005432
272,296,3271,2,0,L|376:280,1,105.000004005432
408,192,3999,2,0,L|304:208,1,105.000004005432
256,136,4726,2,0,L|360:120,1,105.000004005432
376,40,5453,2,0,L|264:56,1,105.000004005432
184,56,6180,6,0,P|136:104|120:136,1,105.000004005432
56,200,6908,2,0,P|104:240|144:248,3,105.000004005432
192,176,8362,2,0,P|248:152|312:152,3,105.000004005432
312,232,9817,2,0,P|360:208|384:152,1,105.000004005432
368,80,10544,2,0,P|304:72|256:80,3,105.000004005432
176,80,11999,2,0,P|120:128|88:168,1,105.000004005432
256,192,12726,12,0,15271,0:0:0:0:
304,88,15635,2,0,P|352:152|376:208,3,140,0|8|0|8,0:0|0:0|0:0|0:0,0:0:0:0:
376,320,17090,2,0,P|296:328|224:320,1,140,0|8,0:0|0:0,0:0:0:0:
144,264,17817,2,0,P|112:192|104:128,1,140,0|8,0:0|0:0,0:0:0:0:
112,80,18362,1,0,0:0:0:0:
168,64,18544,2,0,P|256:56|320:64,1,140,0|8,0:0|0:0,0:0:0:0:
384,144,19271,6,0,P|312:152|240:144,1,140,0|8,0:0|0:0,0:0:0:0:
144,96,19999,2,0,P|136:184|144:240,1,140,0|8,0:0|0:0,0:0:0:0:
240,296,20726,1,0,0:0:0:0:
344,248,21090,2,0,P|360:208|360:168,2,70,8|0|0,0:0|0:0|0:0,0:0:0:0:
240,296,21817,2,0,B|168:280|168:280|128:216,2,140,8|0|8,0:0|0:0|0:0,0:0:0:0:
352,280,22908,2,0,B|384:216|384:216|392:144,1,140,0|8,0:0|0:0,0:0:0:0:
312,72,23635,2,0,P|240:64|168:72,1,140,0|8,0:0|0:0,0:0:0:0:
80,136,24362,6,0,P|160:256|216:272,1,210
384,264,25453,2,0,P|344:240|320:232,1,70
104,296,26362,2,0,P|160:240|216:208,1,140
256,192,27271,12,0,29817,2:0:0:0:
256,192,30180,12,0,32726,0:0:0:0:
80,152,33090,6,0,P|152:112|208:104,1,140,0|8,0:0|0:0,0:0:0:0:
264,104,33635,1,8,0:0:0:0:
408,192,34180,2,0,P|344:224|280:248,1,140,8|0,0:0|0:0,0:0:0:0:
168,264,34908,2,0,P|144:232|128:200,1,70,8|8,0:0|0:0,0:0:0:0:
384,96,35999,6,0,P|336:152|280:192,1,140,0|8,0:0|0:0,0:0:0:0:
232,208,36544,1,8,0:0:0:0:
64,208,37090,2,0,P|128:152|192:112,1,140,8|0,0:0|0:0,0:0:0:0:
256,56,37817,2,0,P|296:72|336:96,1,70,8|8,0:0|0:0,0:0:0:0:
424,120,38362,2,0,P|424:160|416:200,1,70,0|8,0:0|0:0,0:0:0:0:
344,264,38908,5,0,0:0:0:0:
232,288,39271,2,0,P|184:272|152:248,1,70,8|8,0:0|0:0,0:0:0:0:
88,112,39999,2,0,P|168:88|232:88,1,140,8|0,0:0|0:0,0:0:0:0:
280,96,40544,1,0,0:0:0:0:
336,112,40726,2,0,L|360:192,1,70,8|8,0:0|0:0,0:0:0:0:
312,328,41453,6,0,P|232:320|176:296,1,140,8|0,0:0|0:0,0:0:0:0:
88,224,42180,2,0,P|96:176|120:144,1,70,8|8,0:0|0:0,0:0:0:0:
200,96,42726,2,0,P|256:144|320:168,1,140
256,192,43271,12,0,44362,0:0:0:0:
280,96,44726,6,0,P|208:104|136:136,2,140
336,112,45635,2,0,P|384:144|392:160,2,70
224,88,46362,2,0,B|160:120|160:120|128:184,1,140
104,296,47635,2,0,B|176:288|176:288|240:256,1,140
344,224,48362,2,0,P|360:176|360:152,1,70
344,104,48726,2,0,P|304:88|272:88,1,70
112,88,49453,6,0,P|96:128|96:160,1,70,8|0,0:0|0:0,0:0:0:0:
56,256,49999,2,0,L|144:272|144:272,1,70,0|8,0:0|0:0,0:0:0:0:
240,272,50544,2,0,P|312:248|368:200,1,140,0|8,0:0|0:0,0:0:0:0:
392,160,51090,1,0,0:0:0:0:
264,72,51635,2,0,P|195:92|131:129,1,140,8|0,0:0|0:0,0:0:0:0:
72,208,52362,2,8,P|96:240|128:264,1,70
296,288,53090,6,0,P|344:232|368:152,1,140,8|0,0:0|0:0,0:0:0:0:
272,112,53817,2,0,P|232:96|200:96,1,70,8|0,0:0|0:0,0:0:0:0:
104,152,54362,2,0,P|96:240|104:296,1,140
272,264,55271,2,0,B|344:248|344:248|392:184,2,140,8|8|8,0:0|0:0|0:0,0:0:0:0:
184,192,56362,2,0,L|240:136,1,70
280,112,56726,2,0,L|352:136,1,70
336,304,57453,6,0,B|264:288|264:288|208:248,1,140,8|0,0:0|0:0,0:0:0:0:
168,216,57999,1,0,0:0:0:0:
208,64,58544,2,0,L|288:80,3,70,8|0|8|0,0:0|0:0|0:0|0:0,0:0:0:0:
320,112,59271,2,0,P|360:184|376:248,1,140,8|0,0:0|0:0,0:0:0:0:
384,296,59817,2,0,P|304:296|240:272,2,140,0|8|0,0:0|0:0|0:0,0:0:0:0:
256,192,60726,12,0,63271,0:0:0:0:
232,248,63635,6,0,P|160:224|112:184,1,140,0|8,0:0|0:0,0:0:0:0:
104,72,64362,2,0,P|184:64|256:72,1,140
296,88,64908,2,0,P|360:136|408:184,1,140
352,280,65635,2,0,P|256:296|200:296,2,140
400,256,66544,2,0,P|384:184|344:120,1,140,0|8,0:0|0:0,0:0:0:0:
256,72,67271,6,0,L|184:80,1,70
96,152,67817,2,0,P|128:232|176:288,3,140
272,272,69271,2,0,L|352:240,1,70,0|0,0:0|0:0,0:0:0:0:
408,160,69817,1,8,0:0:0:0:
320,96,70180,2,0,L|176:88,1,140,0|8,0:0|0:0,0:0:0:0:
120,184,70908,2,0,L|264:192,2,140,0|8|0,0:0|0:0|0:0,0:0:0:0:
88,280,71999,5,8,0:0:0:0:
192,288,72362,2,0,L|336:296,3,140
376,312,73635,2,0,P|392:240|384:168,3,140
296,104,75090,2,0,L|208:88,1,70
112,96,75635,2,0,P|136:176|176:224,1,140,8|0,0:0|0:0,0:0:0:0:
216,256,76180,5,0,0:0:0:0:
312,312,76544,2,0,B|352:248|352:248|368:168,3,140
304,88,77999,2,0,B|264:80|264:80|216:80,1,70
120,88,78544,1,8,0:0:0:0:
72,192,78908,2,0,L|104:256,1,70
216,248,79453,2,0,L|144:112,3,140
208,24,80908,1,0,0:0:0:0:
232,72,81090,2,0,L|296:200,3,140,0|8|0|8,0:0|0:0|0:0|0:0,0:0:0:0:
376,272,82544,6,0,B|311:308|311:308|243:308,3,140,0|8|0|8,0:0|0:0|0:0|0:0,0:0:0:0:
144,280,83999,2,0,B|112:208|112:208|112:144,1,140,0|8,0:0|0:0,0:0:0:0:
200,80,84726,2,0,P|272:88|344:80,1,140
384,48,85271,2,0,P|360:112|376:184,3,140
416,288,86726,2,0,P|384:320|352:344,1,70,8|0,0:0|0:0,0:0:0:0:
248,296,87271,6,0,P|216:272|144:200,2,140,8|8|8,0:0|0:0|0:0,0:0:0:0:
360,288,88362,2,0,P|312:232|256:192,1,140,8|8,0:0|0:0,0:0:0:0:
152,168,89090,2,0,P|200:120|272:88,3,140,8|8|8|8,0:0|0:0|0:0|0:0,0:0:0:0:
376,88,90544,2,0,P|400:160|408:224,3,140,8|8|8|8,0:0|0:0|0:0|0:0,0:0:0:0:
400,280,91817,6,0,P|328:288|256:288,1,140,8|8,0:0|0:0,0:0:0:0:
208,280,92362,2,0,P|176:256|152:216,1,70,8|8,0:0|0:0,0:0:0:0:
104,216,92726,2,0,P|152:144|200:112,3,140,8|8|8|8,0:0|0:0|0:0|0:0,0:0:0:0:
304,80,94180,2,0,P|360:128|400:192,3,140,8|8|8|8,0:0|0:0|0:0|0:0,0:0:0:0:
408,232,95453,2,0,P|376:264|352:280,1,70,8|4,0:0|0:0,0:0:0:0:
256,192,104362,12,8,106908,0:0:0:0:
64,192,107271,6,8,P|112:160|160:144,3,105.000004005432
184,224,108726,2,8,P|240:200|280:176,1,105.000004005432
240,104,109453,2,8,P|304:88|352:88,1,105.000004005432
400,144,110180,2,8,B|416:200|416:200|400:256|400:256,3,105.000004005432
336,296,111635,2,8,L|232:312,1,105.000004005432
192,336,112180,2,8,L|152:216,1,105.000004005432
128,208,112726,2,8,L|168:160,1,52.5000020027161
184,128,113090,2,8,L|288:112,3,105.000004005432
368,128,114544,6,8,P|408:176|432:224,3,105.000004005432
360,280,115999,2,8,P|304:288|240:280,1,105.000004005432
216,296,116544,2,8,P|192:240|184:184,1,105.000004005432
176,112,117271,1,8,0:0:0:0:
256,192,117453,12,0,118544,0:0:0:0:
184,96,118908,6,0,P|128:144|96:208,2,140,0|8|0,0:0|0:0|0:0,0:0:0:0:
240,96,119817,2,0,L|192:32,2,70
328,168,120544,2,0,B|256:200|256:200|216:256,1,140
120,304,121271,2,0,L|88:232,1,70,0|8,0:0|0:0,0:0:0:0:
24,152,121817,6,0,P|96:128|168:112,2,140,0|8|0,0:0|0:0|0:0,0:0:0:0:
24,208,122726,2,0,L|88:248,1,70,0|8,0:0|0:0,0:0:0:0:
88,304,123090,2,0,P|160:256|280:208,1,210,0|8,0:0|0:0,0:0:0:0:
328,232,123817,2,0,P|288:168|272:104,1,140
288,48,124362,2,0,L|160:112,1,140,8|0,0:0|0:0,0:0:0:0:
72,184,125090,2,0,P|112:216|144:224,1,70,8|0,0:0|0:0,0:0:0:0:
280,304,125817,6,0,P|320:240|344:176,1,140,8|0,0:0|0:0,0:0:0:0:
352,128,126362,2,0,L|423:151,2,70,0|8|0,0:0|0:0|0:0,0:0:0:0:
256,64,127090,2,0,P|208:64|176:72,1,70,0|8,0:0|0:0,0:0:0:0:
112,152,127635,2,0,P|128:224|160:288,1,140
128,328,128180,2,0,P|224:312|280:296,1,140
368,256,128908,1,0,0:0:0:0:
264,120,129453,6,0,B|192:96|192:96|120:96,2,140,0|8|8,0:0|0:0|0:0,0:0:0:0:
344,200,130544,2,0,L|296:256,1,70,8|0,0:0|0:0,0:0:0:0:
296,312,130908,2,0,L|208:296,1,70,8|0,0:0|0:0,0:0:0:0:
104,192,131635,2,0,L|152:136,1,70,8|0,0:0|0:0,0:0:0:0:
144,80,131999,2,0,L|232:96,1,70,8|0,0:0|0:0,0:0:0:0:
344,200,132726,2,0,L|296:256,1,70,8|0,0:0|0:0,0:0:0:0:
296,312,133090,6,0,L|208:296,1,70,8|0,0:0|0:0,0:0:0:0:
184,336,133453,2,0,P|152:264|144:200,1,140,0|8,0:0|0:0,0:0:0:0:
88,184,133999,2,0,P|160:144|216:128,2,140,0|8|8,0:0|0:0|0:0,0:0:0:0:
256,192,134908,12,0,137453,2:0:0:0:
256,192,137817,12,0,140362,0:0:0:0:
288,128,140726,6,0,P|360:152|408:192,1,140,0|8,0:0|0:0,0:0:0:0:
408,304,141453,2,0,P|336:280|272:280,1,140,0|8,0:0|0:0,0:0:0:0:
256,336,141999,2,0,P|200:272|176:224,1,140,0|8,0:0|0:0,0:0:0:0:
72,192,142726,2,0,P|104:128|152:80,2,140,8|0|8,0:0|0:0|0:0,0:0:0:0:
16,200,143635,2,0,P|64:256|120:296,1,140,0|8,0:0|0:0,0:0:0:0:
256,312,144362,6,0,L|328:304,1,70
416,232,144908,2,0,P|384:152|336:96,3,140
240,112,146362,2,0,L|160:144,1,70,0|0,0:0|0:0,0:0:0:0:
104,224,146908,1,8,0:0:0:0:
192,288,147271,2,0,P|264:312|336:320,1,140,0|8,0:0|0:0,0:0:0:0:
368,216,147999,2,0,P|440:264|488:312,2,140,0|8|0,0:0|0:0|0:0,0:0:0:0:
264,176,149090,5,8,0:0:0:0:
168,128,149453,2,0,P|107:183|75:231,3,140,0|8|0|8,0:0|0:0|0:0|0:0,0:0:0:0:
24,240,150726,2,0,P|88:304|136:328,3,140,0|8|0|8,0:0|0:0|0:0|0:0,0:0:0:0:
224,264,152181,2,0,L|312:280,1,70
400,288,152726,2,0,P|376:208|336:160,1,140,8|0,0:0|0:0,0:0:0:0:
296,128,153271,5,0,0:0:0:0:
216,48,153635,2,0,P|152:104|112:160,3,140,0|8|0|8,0:0|0:0|0:0|0:0,0:0:0:0:
56,240,155090,2,0,P|112:256|128:264,1,70
224,304,155635,1,8,0:0:0:0:
336,280,155999,2,0,P|368:256|400:224,1,70,8|0,0:0|0:0,0:0:0:0:
448,136,156544,2,0,L|296:104,3,140,8|0|8|0,0:0|0:0|0:0|0:0,0:0:0:0:
200,88,157999,1,0,0:0:0:0:
144,72,158180,2,0,L|104:216,3,140,0|8|0|8,0:0|0:0|0:0|0:0,0:0:0:0:
80,320,159635,6,0,B|152:296|152:296|216:296,3,140,0|8|0|8,0:0|0:0|0:0|0:0,0:0:0:0:
328,296,161090,2,0,P|384:232|408:176,1,140,0|8,0:0|0:0,0:0:0:0:
352,88,161817,2,0,P|280:64|208:64,1,140,0|8,0:0|0:0,0:0:0:0:
160,72,162362,2,0,P|168:144|184:216,3,140,8|0|8|0,0:0|0:0|0:0|0:0,0:0:0:0:
208,320,163817,2,0,P|152:328|128:328,1,70
80,232,164362,6,8,P|112:168|168:104,1,140
256,72,165090,1,8,0:0:0:0:
360,104,165453,2,8,P|400:176|424:240,1,140
384,336,166180,2,8,P|296:304|248:296,3,140
136,296,167635,2,0,P|112:224|104:160,3,140,8|8|8|8,0:0|0:0|0:0|0:0,0:0:0:0:
112,104,168908,2,0,P|184:96|256:96,1,140,8|8,0:0|0:0,0:0:0:0:
304,104,169453,2,0,P|336:128|360:168,1,70,8|8,0:0|0:0,0:0:0:0:
408,144,169817,2,0,P|360:216|312:248,3,140,8|8|8|8,0:0|0:0|0:0|0:0,0:0:0:0:
248,336,171271,2,0,P|192:288|152:224,3,140,8|8|8|8,0:0|0:0|0:0|0:0,0:0:0:0:
104,208,172544,2,0,P|136:176|160:160,1,70,8|4,0:0|0:0,0:0:0:0:
144,88,181453,6,0,L|224:104,3,70,8|0|8|0,0:0|0:0|0:0|0:0,0:0:0:0:
368,168,182544,2,0,L|312:216,1,70,8|0,0:0|0:0,0:0:0:0:
320,272,182908,2,0,L|240:256,1,70,8|0,0:0|0:0,0:0:0:0:
96,192,183635,2,0,L|152:144,1,70,8|0,0:0|0:0,0:0:0:0:
144,88,183999,2,0,L|224:104,1,70,8|0,0:0|0:0,0:0:0:0:
256,72,184362,2,0,L|296:136,3,70,8|0|8|0,0:0|0:0|0:0|0:0,0:0:0:0:
448,248,185453,2,0,L|368:264,3,70,8|0|8|0,0:0|0:0|0:0|0:0,0:0:0:0:
208,272,186544,6,0,L|144:232,3,70,8|0|8|0,0:0|0:0|0:0|0:0,0:0:0:0:
96,240,187271,2,0,L|184:128,3,140,0|8|0|8,0:0|0:0|0:0|0:0,0:0:0:0:
272,64,188726,2,0,P|336:112|376:160,3,140,0|8|0|8,0:0|0:0|0:0|0:0,0:0:0:0:
352,264,190180,2,0,P|288:216|248:160,3,140,0|8|0|8,0:0|0:0|0:0|0:0,0:0:0:0:
216,72,191635,2,0,P|136:152|80:240,1,210,0|8,0:0|0:0,0:0:0:0:
24,224,192362,2,0,P|112:280|216:304,1,210,0|8,0:0|0:0,0:0:0:0:
232,360,193090,6,0,P|280:304|312:240,3,140,0|8|0|8,0:0|0:0|0:0|0:0,0:0:0:0:
424,240,194544,2,0,P|384:168|336:128,1,140,0|8,0:0|0:0,0:0:0:0:
248,64,195271,2,0,P|160:96|112:128,1,140,0|8,0:0|0:0,0:0:0:0:
88,232,195999,2,0,P|184:272|288:288,1,210,0|8,0:0|0:0,0:0:0:0:
328,328,196726,2,0,P|368:224|384:112,1,210,0|8,0:0|0:0,0:0:0:0:
424,96,197453,2,0,P|280:64|192:64,1,210
192,16,198180,2,0,P|144:88|112:144,1,140,0|8,0:0|0:0,0:0:0:0:
88,184,198726,1,0,0:0:0:0:
224,280,199271,6,0,B|248:248|248:248|280:264|280:264|304:240|304:240|336:256|336:256|360:232|360:232|392:248|392:248,1,210
432,208,199999,2,0,L|448:288,2,70,8|0|0,0:0|0:0|0:0,0:0:0:0:
376,112,200726,2,0,L|296:104,1,70
192,88,201271,2,0,P|128:128|80:192,1,140
32,192,201817,2,0,P|80:248|144:296,3,140,0|8|0|8,0:0|0:0|0:0|0:0,0:0:0:0:
232,240,203271,6,0,L|200:168,2,70,0|0|8,0:0|0:0|0:0,0:0:0:0:
232,296,203817,2,0,P|304:264|352:216,2,140,0|0|8,0:0|0:0|0:0,0:0:0:0:
208,344,204726,2,0,P|144:280|112:224,3,140,0|8|0|8,0:0|0:0|0:0|0:0,0:0:0:0:
24,176,206180,2,0,P|88:128|144:104,3,140,0|8|0|8,0:0|0:0|0:0|0:0,0:0:0:0:
216,24,207635,2,0,P|288:64|336:104,3,140,8|8|8|8,0:0|0:0|0:0|0:0,0:0:0:0:
440,144,209090,2,0,P|416:224|368:288,3,140,8|8|8|8,0:0|0:0|0:0|0:0,0:0:0:0:
344,312,210362,1,0,0:0:0:0:
296,336,210544,2,0,P|240:272|208:208,3,140,8|8|8|8,0:0|0:0|0:0|0:0,0:0:0:0:
104,224,211999,5,8,0:0:0:0:
144,120,212362,2,0,P|208:72|272:48,1,140,8|8,0:0|0:0,0:0:0:0:
352,120,213090,2,0,P|384:152|408:184,1,70,8|8,0:0|0:0,0:0:0:0:
424,208,213453,2,0,P|368:264|312:288,1,140,8|8,0:0|0:0,0:0:0:0:
288,336,213999,2,0,P|240:272|208:208,1,140,8|0,0:0|0:0,0:0:0:0:
160,216,214544,2,0,L|216:152,1,70,0|8,0:0|0:0,0:0:0:0:
256,192,216362,5,2,0:0:0:0:
112,144,222180,6,8,L|176:112,1,70
224,88,222544,1,8,0:0:0:0:
344,240,223090,2,0,L|280:208,1,70
168,224,223635,2,8,L|208:160,1,70
232,120,223999,1,8,0:0:0:0:
384,192,224544,6,0,L|352:216,2,35
288,256,225090,2,8,L|208:248,1,70
160,240,225453,1,8,0:0:0:0:
160,80,225999,1,8,0:0:0:0:
264,48,226362,2,8,L|416:80,1,140
440,184,227090,2,8,L|288:152,1,140
264,48,227817,6,0,B|192:64|192:64|152:120|152:120|152:200|152:200,1,210,0|8,0:0|0:0,0:0:0:0:
96,288,228726,2,0,P|168:296|240:288,3,140,0|8|0|8,0:0|0:0|0:0|0:0,0:0:0:0:
344,264,230180,2,0,P|368:184|368:120,3,140,0|8|0|8,0:0|0:0|0:0|0:0,0:0:0:0:
264,88,231635,2,0,L|184:104,1,70
88,72,232180,2,0,L|112:216,1,140,8|0,0:0|0:0,0:0:0:0:
56,312,232908,2,0,L|200:296,1,140,8|0,0:0|0:0,0:0:0:0:
304,320,233635,2,0,L|328:248,1,70,8|0,0:0|0:0,0:0:0:0:
360,144,234180,5,8,0:0:0:0:
272,72,234544,2,0,B|200:80|200:80|144:120,3,140,0|8|0|8,0:0|0:0|0:0|0:0,0:0:0:0:
64,192,235999,2,0,P|96:256|144:304,1,140,0|8,0:0|0:0,0:0:0:0:
232,240,236726,2,0,P|304:272|368:272,1,140,0|8,0:0|0:0,0:0:0:0:
472,232,237453,2,0,L|408:192,1,70
424,80,237999,2,0,L|280:64,1,140
176,64,238726,2,0,L|32:88,1,140
64,192,239453,2,0,L|104:264,1,70,8|0,0:0|0:0,0:0:0:0:
200,296,239999,5,8,0:0:0:0:
304,328,240362,2,0,L|344:176,3,140,8|8|8|8,0:0|0:0|0:0|0:0,0:0:0:0:
408,104,241817,2,0,L|256:64,3,140,8|8|8|8,0:0|0:0|0:0|0:0,0:0:0:0:
176,8,243271,2,0,L|136:160,3,140,8|8|8|8,0:0|0:0|0:0|0:0,0:0:0:0:
40,192,244726,2,0,P|104:224|176:248,1,140,8|8,0:0|0:0,0:0:0:0:
208,256,245271,1,0,0:0:0:0:
256,256,245453,2,0,P|328:232|384:192,3,140,0|8|8|8,0:0|0:0|0:0|0:0,0:0:0:0:
408,88,246908,2,0,P|328:72|256:72,3,140,8|8|8|8,0:0|0:0|0:0|0:0,0:0:0:0:
216,56,248180,2,0,L|168:112,1,70,8|4,0:0|0:0,0:0:0:0:
96,128,259999,6,0,P|160:96|232:80,3,140,8|8|8|8,0:0|0:0|0:0|0:0,0:0:0:0:
368,80,261453,2,0,P|400:144|416:216,3,140,8|8|8|8,0:0|0:0|0:0|0:0,0:0:0:0:
272,224,262908,2,0,P|208:256|136:272,3,140,8|8|8|8,0:0|0:0|0:0|0:0,0:0:0:0:
32,280,264362,2,8,B|16:208|16:208|48:144,1,140
136,88,265090,2,8,P|208:56|272:40,1,140
368,80,265817,6,0,P|384:152|384:224,1,140,8|8,0:0|0:0,0:0:0:0:
464,288,266544,2,0,P|400:336|336:360,1,140,8|8,0:0|0:0,0:0:0:0:
240,312,267271,2,0,P|312:272|368:256,3,140,8|8|8|8,0:0|0:0|0:0|0:0,0:0:0:0:
448,184,268726,6,0,L|336:96,1,140,0|8,0:0|0:0,0:0:0:0:
328,40,269271,2,0,L|200:128,1,140,0|8,0:0|0:0,0:0:0:0:
104,144,269999,2,0,L|200:256,3,140,0|8|0|8,0:0|0:0|0:0|0:0,0:0:0:0:
232,288,271271,1,8,0:0:0:0:
352,296,271635,6,0,L|416:232,3,70
288,128,272726,2,0,L|328:208,3,70
184,288,273817,2,0,L|152:224,1,70
96,216,274180,2,0,L|144:160,1,70
256,192,274908,12,2,277817,0:0:0:0:
256,192,277908,12,2,283271,0:0:0:0:
