osu file format v12

[General]
AudioFilename: 10 Soshite Kimi to Koi wo Suru.mp3
AudioLeadIn: 0
PreviewTime: 140726
Countdown: 1
SampleSet: Soft
StackLeniency: 0.7
Mode: 0
LetterboxInBreaks: 1
WidescreenStoryboard: 1

[Editor]
DistanceSpacing: 1.2
BeatDivisor: 4
GridSize: 8
TimelineZoom: 1

[Metadata]
Title:Soshite Kimi to Koi wo Suru
TitleUnicode:そして君と恋をする
Artist:Konjiki no Yami & Momo & Lala & Nana
ArtistUnicode:金色の闇&モモ&ララ&ナナ
Creator:[ B e a r ]
Version:Insane
Source:To LOVEる -とらぶる- ダークネス
Tags:Konjiki no Yami Momo Velia Lala Satalin Nana Astar Deviluke Yuuki Rito Character Album Darkness Trouble Toraburu toloveru Fukuen Misato Toyosaki Aki Tomatsu Haruka Itou Kanae
BeatmapID:360640
BeatmapSetID:144474

[Difficulty]
HPDrainRate:7
CircleSize:4
OverallDifficulty:7
ApproachRate:9
SliderMultiplier:2
SliderTickRate:2

[Events]
//Background and Video events
0,0,"BG.jpg",0,0
//Break Periods
2,98744,103762
2,175835,180853
//Storyboard Layer 0 (Background)
//Storyboard Layer 1 (Fail)
//Storyboard Layer 2 (Pass)
//Storyboard Layer 3 (Foreground)
//Storyboard Sound Samples
//Background Colour Transformations
3,100,163,162,255

[TimingPoints]
1090,363.636363636364,4,2,0,100,1,0
1090,-200,4,2,0,75,0,0
12726,-200,4,2,0,75,0,0
15090,-100,4,2,0,75,0,0
32362,-100,4,2,0,75,0,0
63635,-100,4,2,0,75,0,1
95635,-100,4,2,0,75,0,0
107271,-133.333333333333,4,2,0,75,0,0
117817,-100,4,2,0,75,0,0
118362,-100,4,2,0,50,0,0
118908,-100,4,2,0,75,0,0
140726,-100,4,2,0,75,0,1
172726,-100,4,2,0,75,0,0
216362,-200,4,2,0,75,0,0
222180,-100,4,2,0,75,0,0
227817,-100,4,2,0,75,0,1
248362,-100,4,2,0,75,0,0

[Colours]
Combo1 : 255,128,128
Combo2 : 255,0,255
Combo3 : 255,255,0
Combo4 : 255,128,192
Combo5 : 0,255,255

[HitObjects]
56,200,1090,6,0,P|168:168|256:160,1,200
280,232,1999,2,0,P|320:224|344:216,1,50
360,152,2362,2,0,P|312:128|264:120,1,100
120,160,3090,2,0,P|184:192|216:200,1,100
360,192,3817,2,0,P|328:176|304:168,1,50
176,120,4362,1,0,0:0:0:0:
312,72,4726,6,0,P|336:88|352:112,2,50
240,56,5271,2,0,P|176:64|144:80,1,100
88,128,5817,1,0,0:0:0:0:
48,192,5998,1,0,0:0:0:0:
152,80,6362,2,0,P|168:104|176:128,1,50
248,136,6726,1,0,0:0:0:0:
320,152,6908,2,0,P|328:208|344:248,1,100
408,280,7453,2,0,P|424:248|424:216,1,50
416,160,7817,5,0,0:0:0:0:
360,112,7999,2,0,L|312:96,1,50
272,160,8362,2,0,L|224:144,1,50
168,200,8726,1,0,0:0:0:0:
272,304,9090,2,0,L|320:288,2,50
200,280,9635,2,0,P|152:248|104:168,1,150
240,80,10544,6,0,L|192:96,2,50
312,104,11090,2,0,P|360:128|392:168,1,100
296,192,11635,1,0,0:0:0:0:
288,288,11817,2,0,P|240:264|208:224,1,100
120,264,12362,2,0,P|112:224|120:200,1,50
256,192,12726,12,0,14908,1:3:0:0:
56,192,15090,6,0,P|120:160|152:152,1,100,0|8,3:0|0:0,0:0:0:0:
256,192,15453,1,0,0:0:0:0:
256,232,15544,1,0,0:0:0:0:
256,272,15635,2,0,P|312:288|360:288,1,100,8|0,0:0|0:0,0:0:0:0:
432,200,15999,1,8,0:0:0:0:
320,104,16180,1,0,0:0:0:0:
464,192,16362,1,8,0:0:0:0:
280,112,16544,1,0,0:0:0:0:
160,64,16726,5,8,0:0:0:0:
80,168,16908,1,0,0:0:0:0:
80,168,16999,1,0,0:0:0:0:
80,168,17090,2,0,P|88:224|112:264,1,100,8|0,0:0|0:0,0:0:0:0:
200,168,17453,1,8,0:0:0:0:
232,296,17635,1,0,0:0:0:0:
232,296,17726,1,0,0:0:0:0:
232,296,17817,2,0,P|288:272|320:240,1,100,8|0,0:0|0:0,0:0:0:0:
200,168,18180,5,8,0:0:0:0:
128,56,18362,1,0,0:0:0:0:
128,56,18453,1,0,0:0:0:0:
128,56,18544,2,0,P|192:48|248:56,1,100,8|0,0:0|0:0,0:0:0:0:
344,104,18908,1,8,0:0:0:0:
384,248,19090,1,0,0:0:0:0:
376,72,19271,1,8,0:0:0:0:
352,280,19453,1,0,0:0:0:0:
200,296,19635,5,8,0:0:0:0:
64,232,19817,2,0,L|80:184,1,50
40,120,19999,2,0,P|96:104|152:104,1,100,8|0,0:0|0:0,0:0:0:0:
248,40,20362,1,8,0:0:0:0:
376,72,20544,2,0,L|392:120,1,50
464,152,20726,2,0,P|432:192|384:224,1,100,8|0,0:0|0:0,0:0:0:0:
264,192,21090,1,8,0:0:0:0:
152,120,21271,2,0,L|136:168,1,50,0|0,0:0|0:0,0:0:0:0:
48,192,21453,2,0,P|80:240|120:272,1,100,8|0,0:0|0:0,0:0:0:0:
256,304,21817,6,0,P|272:248|272:200,1,100,8|0,0:0|0:0,0:0:0:0:
216,72,22180,2,0,L|256:104,1,50,2|0,0:0|0:0,0:0:0:0:
328,72,22362,2,0,L|336:128,1,50,2|0,0:0|0:0,0:0:0:0:
408,144,22544,2,0,L|384:192,1,50,2|0,0:0|0:0,0:0:0:0:
424,256,22726,2,0,P|376:280|320:288,1,100,2|8,0:0|0:0,0:0:0:0:
176,288,23090,2,0,P|125:271|79:237,1,100,2|8,0:0|0:0,0:0:0:0:
120,96,23453,5,0,0:0:0:0:
272,104,23635,1,8,0:0:0:0:
88,72,23817,1,0,0:0:0:0:
304,128,23999,1,8,0:0:0:0:
440,72,24180,2,0,L|424:120,1,50
480,176,24362,2,0,P|440:216|384:248,1,100,8|0,0:0|0:0,0:0:0:0:
256,192,24726,2,0,P|312:152|360:136,1,100,8|0,0:0|0:0,0:0:0:0:
336,288,25090,2,0,P|280:328|232:344,1,100,8|0,0:0|0:0,0:0:0:0:
120,264,25453,6,0,L|168:240,1,50,8|0,0:0|0:0,0:0:0:0:
144,168,25635,2,0,P|200:160|256:168,1,100,0|8,0:0|0:0,0:0:0:0:
376,240,25999,1,0,0:0:0:0:
360,88,26180,1,8,0:0:0:0:
344,264,26362,2,0,L|400:256,2,50,0|0|8,0:0|0:0|0:0,0:0:0:0:
304,272,26635,1,0,0:0:0:0:
264,280,26726,1,0,0:0:0:0:
224,288,26817,1,0,0:0:0:0:
184,296,26908,1,0,0:0:0:0:
144,304,26999,1,0,0:0:0:0:
104,312,27090,1,0,0:0:0:0:
96,144,27271,5,2,0:0:0:0:
256,72,27453,1,2,0:0:0:0:
64,128,27635,1,2,0:0:0:0:
288,88,27817,1,2,0:0:0:0:
416,168,27999,6,0,P|352:176|312:192,1,100
440,280,28362,1,2,0:0:0:0:
224,248,28544,1,2,0:0:0:0:
464,320,28726,1,2,0:0:0:0:
200,208,28908,1,2,0:0:0:0:
72,176,29090,6,0,P|104:128|152:96,1,100,0|0,0:0|0:0,0:0:0:0:
280,64,29453,1,2,0:0:0:0:
328,256,29635,1,2,0:0:0:0:
256,32,29817,1,2,0:0:0:0:
352,288,29999,1,2,0:0:0:0:
392,112,30180,6,0,L|376:168,1,50,2|0,0:0|0:0,0:0:0:0:
320,240,30362,2,0,L|296:184,1,50,2|0,0:0|0:0,0:0:0:0:
224,128,30544,2,0,L|216:192,1,50,2|0,0:0|0:0,0:0:0:0:
136,240,30726,2,0,L|128:184,2,50
232,280,30999,2,0,L|224:224,2,50
328,312,31271,2,0,L|320:256,2,50
256,192,31544,12,0,32271,0:0:0:0:
256,192,32362,12,0,32908,0:0:0:0:
80,232,33090,6,0,P|120:192|160:168,1,100,8|0,0:0|0:0,0:0:0:0:
176,48,33453,1,8,0:0:0:0:
176,48,33635,1,8,0:0:0:0:
272,128,33817,2,0,P|304:168|352:192,1,100,0|0,0:0|0:0,0:0:0:0:
464,216,34180,1,8,0:0:0:0:
376,296,34362,1,0,0:0:0:0:
376,296,34453,1,0,0:0:0:0:
376,296,34544,2,0,P|320:304|272:296,1,100,0|0,0:0|0:0,0:0:0:0:
168,256,34908,5,8,0:0:0:0:
168,256,35090,1,8,0:0:0:0:
64,192,35271,1,0,0:0:0:0:
112,80,35453,2,0,P|168:64|216:64,1,100,0|8,0:0|0:0,0:0:0:0:
296,144,35817,2,0,P|240:160|192:160,2,100
376,64,36362,1,8,0:0:0:0:
376,64,36544,1,8,0:0:0:0:
408,184,36726,2,0,P|416:224|408:288,1,100
288,304,37090,5,8,0:0:0:0:
192,240,37271,1,0,0:0:0:0:
192,240,37362,1,0,0:0:0:0:
192,240,37453,1,0,0:0:0:0:
96,312,37635,1,0,0:0:0:0:
32,208,37817,1,8,0:0:0:0:
32,88,37999,2,0,P|104:64|184:88,1,150
232,32,38362,2,0,P|303:49|373:25,1,150
440,64,38726,1,8,0:0:0:0:
416,184,38908,2,0,P|392:264|384:280,1,100
256,336,39271,1,8,0:0:0:0:
256,336,39453,1,8,0:0:0:0:
152,272,39635,1,0,0:0:0:0:
96,160,39817,6,0,P|136:128|184:104,1,100,0|8,0:0|0:0,0:0:0:0:
256,200,40180,1,0,0:0:0:0:
256,200,40271,1,0,0:0:0:0:
256,200,40362,2,0,P|304:168|336:136,1,100
424,216,40726,1,8,0:0:0:0:
336,136,40908,1,8,0:0:0:0:
224,96,41090,6,0,P|176:112|120:144,1,100
80,280,41453,2,0,P|160:264|232:280,1,150
280,336,41817,2,0,P|360:360|424:336,1,150
488,288,42180,2,0,P|488:232|464:176,1,100,8|8,0:0|0:0,0:0:0:0:
344,112,42544,1,0,0:0:0:0:
232,80,42726,2,0,P|216:96|184:104,1,50
128,104,42908,2,0,P|160:152|160:224,1,100,8|0,0:0|0:0,0:0:0:0:
464,264,43635,6,0,L|448:216,1,50,2|0,0:0|0:0,0:0:0:0:
360,80,43817,2,0,L|344:136,1,50,2|0,0:0|0:0,0:0:0:0:
264,272,43999,2,0,L|248:224,1,50,2|0,0:0|0:0,0:0:0:0:
176,72,44180,2,0,L|160:128,1,50,2|0,0:0|0:0,0:0:0:0:
104,280,44362,2,0,L|88:232,1,50,2|0,0:0|0:0,0:0:0:0:
72,192,44544,1,0,0:0:0:0:
56,152,44635,1,0,0:0:0:0:
40,112,44726,1,0,0:0:0:0:
168,72,44908,5,0,0:0:0:0:
240,184,45090,1,8,0:0:0:0:
240,184,45271,1,8,0:0:0:0:
320,288,45453,2,0,P|360:256|392:216,1,100
392,88,45817,1,8,0:0:0:0:
264,56,45999,1,0,0:0:0:0:
264,56,46090,1,0,0:0:0:0:
264,56,46180,1,0,0:0:0:0:
144,104,46362,5,0,0:0:0:0:
104,232,46544,1,8,0:0:0:0:
208,312,46726,1,8,0:0:0:0:
104,232,46908,2,0,P|96:176|104:128,1,100
208,72,47271,2,0,P|256:80|312:72,1,100,8|0,0:0|0:0,0:0:0:0:
400,168,47635,1,0,0:0:0:0:
296,280,47817,1,0,0:0:0:0:
432,160,47999,1,8,0:0:0:0:
256,288,48180,1,8,0:0:0:0:
136,232,48362,6,0,P|152:184|152:128,1,100
248,48,48726,1,8,0:0:0:0:
344,136,48908,1,0,0:0:0:0:
344,136,48999,1,0,0:0:0:0:
344,136,49090,1,0,0:0:0:0:
376,264,49271,1,0,0:0:0:0:
448,128,49453,1,8,0:0:0:0:
328,280,49635,2,0,P|264:256|184:280,1,150
104,280,49999,2,0,P|112:200|80:136,1,150
32,80,50362,1,8,0:0:0:0:
168,80,50544,6,0,P|232:72|280:80,1,100
368,176,50908,1,8,0:0:0:0:
256,272,51090,1,8,0:0:0:0:
416,168,51271,1,0,0:0:0:0:
208,280,51453,2,0,P|144:272|104:256,1,100,0|8,0:0|0:0,0:0:0:0:
72,136,51817,1,0,0:0:0:0:
72,136,51908,1,0,0:0:0:0:
72,136,51999,2,0,P|128:112|176:104,1,100
288,64,52362,5,8,0:0:0:0:
360,200,52544,1,8,0:0:0:0:
304,32,52726,1,0,0:0:0:0:
344,232,52908,1,0,0:0:0:0:
232,288,53090,2,0,P|168:296|128:288,1,100,8|0,0:0|0:0,0:0:0:0:
48,192,53453,2,0,P|112:184|160:192,1,100
232,288,53817,5,8,0:0:0:0:
320,168,53999,1,8,0:0:0:0:
192,304,54180,1,0,0:0:0:0:
352,152,54362,1,0,0:0:0:0:
152,320,54544,1,8,0:0:0:0:
392,136,54726,1,0,0:0:0:0:
280,192,54908,2,0,P|232:216|184:232,1,100
64,200,55271,2,0,P|120:168|160:152,1,100,8|0,0:0|0:0,0:0:0:0:
232,48,55635,5,0,0:0:0:0:
368,112,55817,2,0,L|320:128,1,50
400,208,55999,2,0,L|352:224,1,50
424,304,56180,2,0,L|376:320,1,50
264,352,56362,2,0,P|240:304|200:272,1,100
72,264,56726,2,0,P|96:216|136:184,1,100
56,80,57090,2,0,P|104:64|152:64,1,100
296,64,57453,6,0,L|256:104,1,50,2|0,0:0|0:0,0:0:0:0:
352,152,57635,2,0,L|288:168,1,50,2|0,0:0|0:0,0:0:0:0:
336,264,57817,2,0,L|280:248,1,50,2|0,0:0|0:0,0:0:0:0:
248,344,57999,2,0,L|168:272,1,100,2|8,0:0|0:0,0:0:0:0:
72,192,58362,1,0,0:0:0:0:
72,192,58453,1,0,0:0:0:0:
72,192,58544,1,8,0:0:0:0:
152,88,58726,5,0,0:0:0:0:
192,72,58817,1,0,0:0:0:0:
232,56,58908,1,8,0:0:0:0:
272,72,58999,1,0,0:0:0:0:
312,88,59090,1,8,0:0:0:0:
352,72,59180,1,0,0:0:0:0:
392,56,59271,1,8,0:0:0:0:
416,184,59453,6,0,L|360:192,1,50,2|0,0:0|0:0,0:0:0:0:
360,288,59635,2,0,L|320:256,1,50,2|0,0:0|0:0,0:0:0:0:
232,296,59817,2,0,L|224:224,1,50,2|0,0:0|0:0,0:0:0:0:
128,240,59999,2,0,L|160:184,1,50,2|0,0:0|0:0,0:0:0:0:
64,144,60180,2,0,L|152:96,1,100,2|8,0:0|0:0,0:0:0:0:
256,40,60544,1,0,0:0:0:0:
256,192,60635,12,0,61817,0:0:0:0:
84,327,62180,5,0,0:0:0:0:
103,292,62271,1,0,0:0:0:0:
121,256,62362,1,0,0:0:0:0:
139,220,62453,1,0,0:0:0:0:
176,246,62544,1,0,0:0:0:0:
194,210,62635,1,0,0:0:0:0:
212,175,62726,1,0,0:0:0:0:
230,139,62817,1,0,0:0:0:0:
272,148,62908,2,0,L|297:103,3,50
332,121,63271,2,0,L|357:76,3,50
399,85,63635,6,0,P|407:133|399:197,1,100,0|0,0:0|0:0,0:0:0:0:
304,312,63999,2,0,P|296:248|304:200,1,100,8|0,0:0|0:0,0:0:0:0:
208,104,64362,1,0,0:0:0:0:
104,232,64544,1,0,0:0:0:0:
248,96,64726,1,8,0:0:0:0:
400,112,64908,2,0,P|416:168|416:216,1,100
296,304,65271,6,0,P|288:248|296:184,1,100,0|8,0:0|0:0,0:0:0:0:
440,112,65635,2,0,P|456:168|456:216,1,100
256,304,65999,6,0,P|248:248|256:184,1,100,0|8,0:0|0:0,0:0:0:0:
440,112,66362,2,0,L|400:152,1,50
448,216,66544,2,0,P|384:240|344:248,1,100
216,176,66908,2,0,P|264:160|312:152,1,100,8|0,0:0|0:0,0:0:0:0:
272,296,67271,2,0,P|200:312|168:312,1,100
80,192,67635,5,8,0:0:0:0:
224,80,67817,1,0,0:0:0:0:
40,184,67999,1,0,0:0:0:0:
264,88,68180,1,0,0:0:0:0:
248,264,68362,1,8,0:0:0:0:
392,152,68544,1,0,0:0:0:0:
208,256,68726,1,0,0:0:0:0:
432,160,68907,1,0,0:0:0:0:
168,248,69090,1,8,0:0:0:0:
96,112,69271,6,0,L|144:136,1,50
208,72,69453,2,0,L|256:160,1,100
128,240,69817,1,8,0:0:0:0:
264,296,69999,2,0,L|288:248,1,50
376,264,70180,2,0,L|344:160,1,100
304,24,70544,1,8,0:0:0:0:
248,216,70726,1,0,0:0:0:0:
400,88,70907,1,0,0:0:0:0:
208,200,71089,1,0,0:0:0:0:
440,104,71271,6,0,P|376:80|328:72,1,100,8|0,0:0|0:0,0:0:0:0:
216,152,71635,2,0,P|272:176|320:184,1,100
456,208,71999,1,8,0:0:0:0:
312,280,72180,1,0,0:0:0:0:
192,296,72362,2,0,L|144:192,1,100
192,48,72726,1,8,0:0:0:0:
344,88,72908,1,0,0:0:0:0:
448,152,73090,2,8,L|400:264,1,100,0|0,0:0|0:0,0:0:0:0:
264,312,73453,1,8,0:0:0:0:
88,216,73635,5,8,0:0:0:0:
424,168,73999,1,8,0:0:0:0:
32,264,74362,1,8,0:0:0:0:
480,120,74726,1,8,0:0:0:0:
32,264,75090,1,8,0:0:0:0:
32,152,75271,2,0,L|136:144,1,100
256,56,75635,2,0,P|320:64|360:72,1,100,8|0,0:0|0:0,0:0:0:0:
376,240,75999,2,0,L|264:256,1,100
120,272,76362,5,8,0:0:0:0:
104,112,76544,2,0,P|176:104|216:112,1,100
296,240,76908,2,0,P|240:248|192:248,1,100,0|8,0:0|0:0,0:0:0:0:
104,72,77271,2,0,P|176:64|216:72,1,100
296,280,77635,2,0,P|240:288|192:288,1,100,0|8,0:0|0:0,0:0:0:0:
64,192,77999,2,0,L|112:176,1,50
96,96,78180,2,0,L|216:120,1,100
352,144,78544,1,8,0:0:0:0:
352,144,78726,5,0,0:0:0:0:
440,288,78908,2,0,P|376:296|328:280,1,100
352,144,79271,1,8,0:0:0:0:
344,288,79453,2,0,P|288:264|248:224,1,100
352,144,79817,1,8,0:0:0:0:
256,240,79999,2,0,P|224:192|208:144,1,100,0|0,0:0|0:0,0:0:0:0:
352,144,80362,1,8,0:0:0:0:
208,152,80544,2,0,P|150:143|100:149,1,100,0|8,0:0|0:0,0:0:0:0:
112,312,80908,2,0,L|160:272,1,50,8|8,0:0|0:0,0:0:0:0:
216,328,81090,6,0,L|256:232,1,100,8|0,0:0|0:0,0:0:0:0:
136,128,81453,1,8,0:0:0:0:
256,240,81635,2,0,L|280:192,1,50,0|0,0:0|0:0,0:0:0:0:
360,216,81817,2,0,L|336:112,1,100
136,128,82180,1,8,0:0:0:0:
320,48,82362,1,0,0:0:0:0:
184,200,82544,1,0,0:0:0:0:
240,8,82726,1,0,0:0:0:0:
272,208,82908,1,8,0:0:0:0:
160,40,83090,1,0,0:0:0:0:
328,144,83271,1,0,0:0:0:0:
128,120,83453,1,0,0:0:0:0:
320,56,83635,1,8,0:0:0:0:
440,160,83817,6,0,L|400:192,1,50
440,264,83999,2,0,L|328:272,1,100
184,280,84362,1,8,0:0:0:0:
96,144,84544,2,0,L|144:160,1,50
184,88,84726,2,0,L|248:176,1,100
336,296,85090,1,8,0:0:0:0:
456,192,85271,1,8,0:0:0:0:
56,192,85635,1,8,0:0:0:0:
120,112,85817,2,0,L|216:168,1,100,0|8,0:0|0:0,0:0:0:0:
440,320,86362,6,0,L|384:272,1,50,2|0,0:0|0:0,0:0:0:0:
440,192,86544,2,0,L|376:176,1,50,2|0,0:0|0:0,0:0:0:0:
368,80,86726,2,0,L|288:88,1,50,2|0,0:0|0:0,0:0:0:0:
216,96,86908,1,12,0:0:0:0:
88,192,87090,2,0,P|112:240|160:280,1,100,0|8,0:0|0:0,0:0:0:0:
352,288,87453,2,0,P|328:240|280:200,1,100,0|8,0:0|0:0,0:0:0:0:
104,144,87817,2,0,P|128:192|176:232,1,100,0|8,0:0|0:0,0:0:0:0:
400,304,88180,2,0,P|376:256|328:216,1,100,0|8,0:0|0:0,0:0:0:0:
176,104,88544,5,0,0:0:0:0:
312,248,88726,1,8,0:0:0:0:
216,64,88908,1,0,0:0:0:0:
264,280,89090,1,8,0:0:0:0:
352,104,89271,1,0,0:0:0:0:
184,216,89453,1,8,0:0:0:0:
384,144,89635,1,0,0:0:0:0:
152,176,89817,1,8,0:0:0:0:
344,224,89999,5,0,0:0:0:0:
200,88,90180,2,0,L|96:104,1,100,8|0,0:0|0:0,0:0:0:0:
344,224,90544,1,8,0:0:0:0:
176,64,90726,2,0,L|88:120,1,100,0|8,0:0|0:0,0:0:0:0:
120,280,91090,2,0,L|200:216,1,100,0|8,0:0|0:0,0:0:0:0:
336,272,91453,2,0,P|376:240|400:192,1,100,0|8,0:0|0:0,0:0:0:0:
272,88,91817,2,0,P|216:80|168:88,1,100,0|8,0:0|0:0,0:0:0:0:
80,240,92180,1,0,1:0:0:0:
80,240,92271,1,0,1:0:0:0:
80,240,92362,1,0,1:0:0:0:
80,240,92453,1,0,1:0:0:0:
80,240,92544,2,0,P|136:256|184:264,1,100,0|8,1:0|0:0,0:0:0:0:
304,168,92908,6,0,P|232:144|176:144,1,100,0|8,0:0|0:0,0:0:0:0:
288,280,93271,2,0,P|344:296|392:304,1,100,0|8,0:0|0:0,0:0:0:0:
512,200,93635,2,0,P|440:176|384:176,1,100,0|8,0:0|0:0,0:0:0:0:
312,56,93999,2,0,P|272:88|240:128,1,100,0|8,0:0|0:0,0:0:0:0:
80,120,94362,2,0,P|96:168|136:224,1,100,0|8,0:0|0:0,0:0:0:0:
256,296,94726,2,0,P|240:240|216:184,1,100,0|8,0:0|0:0,0:0:0:0:
144,64,95090,6,0,L|160:112,1,50,0|0,1:0|1:0,0:0:0:0:
256,96,95271,2,0,L|248:152,1,50,0|0,1:0|1:0,0:0:0:0:
344,184,95453,2,0,L|304:224,1,50,0|0,1:0|1:0,0:0:0:0:
232,288,95635,1,4,1:0:0:0:
256,192,95726,12,0,98544,0:0:0:0:
256,192,104362,12,8,106908,0:0:0:0:
72,192,107271,5,8,0:0:0:0:
136,256,107453,2,0,P|176:232|216:216,1,75.0000028610231,0|8,0:0|0:0,0:0:0:0:
256,296,107817,2,0,P|304:272|336:248,1,75.0000028610231,0|8,0:0|0:0,0:0:0:0:
400,304,108180,2,0,P|416:248|416:224,1,75.0000028610231,0|8,0:0|0:0,0:0:0:0:
416,144,108544,1,0,0:0:0:0:
416,144,108635,1,0,0:0:0:0:
416,144,108726,1,8,0:0:0:0:
336,104,108908,6,0,P|296:88|256:80,1,75.0000028610231,0|8,0:0|0:0,0:0:0:0:
272,168,109271,2,0,P|320:192|352:200,1,75.0000028610231,0|8,0:0|0:0,0:0:0:0:
416,144,109635,2,0,P|432:104|432:64,1,75.0000028610231,0|8,0:0|0:0,0:0:0:0:
344,88,109999,1,0,0:0:0:0:
344,88,110180,1,8,0:0:0:0:
256,88,110362,6,0,P|216:104|176:112,1,75.0000028610231,0|8,0:0|0:0,0:0:0:0:
120,48,110726,2,0,P|96:96|88:128,1,75.0000028610231,0|8,0:0|0:0,0:0:0:0:
80,208,111090,2,0,P|99:246|134:283,1,75.0000028610231,0|8,0:0|0:0,0:0:0:0:
208,304,111453,1,0,0:0:0:0:
208,304,111544,1,0,0:0:0:0:
208,304,111635,1,8,0:0:0:0:
296,304,111817,1,0,0:0:0:0:
296,304,111999,2,8,P|336:280|360:248,1,75.0000028610231,0|8,0:0|0:0,0:0:0:0:
400,176,112362,5,0,0:0:0:0:
400,176,112544,2,0,P|392:120|384:104,1,75.0000028610231,0|8,0:0|0:0,0:0:0:0:
304,64,112908,1,0,0:0:0:0:
304,64,113090,1,8,0:0:0:0:
216,64,113271,6,0,P|176:88|144:120,1,75.0000028610231,0|8,0:0|0:0,0:0:0:0:
64,96,113635,2,0,P|64:152|80:200,1,75.0000028610231,0|8,0:0|0:0,0:0:0:0:
24,248,113999,2,0,P|56:272|104:288,1,75.0000028610231,0|8,0:0|0:0,0:0:0:0:
160,224,114362,1,0,0:0:0:0:
160,224,114453,1,0,0:0:0:0:
160,224,114544,1,8,0:0:0:0:
208,304,114726,2,0,P|256:296|280:288,1,75.0000028610231,0|8,0:0|0:0,0:0:0:0:
360,336,115090,2,0,P|376:296|384:240,1,75.0000028610231,0|8,0:0|0:0,0:0:0:0:
472,248,115453,2,0,P|448:200|424:176,1,75.0000028610231,0|8,0:0|0:0,0:0:0:0:
376,112,115817,5,0,0:0:0:0:
296,72,115999,1,8,0:0:0:0:
208,80,116180,1,0,0:0:0:0:
144,144,116362,1,8,0:0:0:0:
152,232,116544,2,0,P|184:256|224:272,1,75.0000028610231,0|8,0:0|0:0,0:0:0:0:
232,184,116908,1,0,0:0:0:0:
232,184,117090,2,0,P|192:152|152:136,1,75.0000028610231,8|0,0:0|0:0,0:0:0:0:
400,304,117817,6,0,P|400:248|392:200,1,100,0|0,1:0|0:0,0:0:0:0:
312,104,118180,1,8,1:0:0:0:
184,112,118362,1,8,1:0:0:0:
184,112,118453,1,8,1:0:0:0:
184,112,118544,1,8,1:0:0:0:
184,112,118635,1,8,1:0:0:0:
184,112,118726,1,8,1:0:0:0:
184,112,118817,1,8,1:0:0:0:
184,112,118908,6,0,P|136:136|104:176,1,100,0|0,0:0|0:0,0:0:0:0:
192,272,119271,1,8,0:0:0:0:
320,288,119453,1,8,0:0:0:0:
440,240,119635,1,0,0:0:0:0:
456,112,119817,2,0,P|408:88|352:72,1,100,0|8,0:0|0:0,0:0:0:0:
232,80,120180,1,0,0:0:0:0:
232,80,120271,1,0,0:0:0:0:
232,80,120362,2,0,P|176:96|128:120,1,100
72,224,120726,5,8,0:0:0:0:
168,312,120908,1,8,0:0:0:0:
72,224,121090,2,0,P|96:176|128:136,1,100
232,80,121453,1,8,0:0:0:0:
360,104,121635,1,0,0:0:0:0:
456,192,121817,2,0,P|416:224|368:248,1,100
264,176,122180,1,8,0:0:0:0:
264,176,122362,1,8,0:0:0:0:
200,288,122544,2,0,P|144:256|112:232,1,100
80,112,122908,1,8,0:0:0:0:
216,72,123090,5,0,0:0:0:0:
216,72,123180,1,0,0:0:0:0:
216,72,123271,2,0,P|272:88|320:88,1,100
392,192,123635,1,8,0:0:0:0:
328,296,123817,2,0,P|256:272|184:296,1,150
96,288,124180,2,0,P|120:216|96:144,1,150
56,80,124544,1,8,0:0:0:0:
216,72,124726,6,0,P|280:88|320:112,1,100
408,192,125090,1,8,0:0:0:0:
336,296,125271,1,8,0:0:0:0:
208,280,125453,1,0,0:0:0:0:
144,168,125635,2,0,P|192:128|240:112,1,100,0|8,0:0|0:0,0:0:0:0:
360,136,125999,1,0,0:0:0:0:
360,136,126090,1,0,0:0:0:0:
360,136,126180,2,0,P|320:184|272:208,1,100
208,96,126544,1,8,0:0:0:0:
208,96,126726,1,8,0:0:0:0:
64,120,126908,6,0,P|120:160|144:240,1,150
80,288,127271,2,0,P|160:312|216:280,1,150
256,208,127635,2,0,L|360:192,1,100
288,72,127999,1,8,0:0:0:0:
168,160,128180,1,8,0:0:0:0:
336,56,128362,1,0,0:0:0:0:
120,176,128544,1,8,0:0:0:0:
384,40,128726,1,0,0:0:0:0:
72,192,128908,1,4,0:0:0:0:
152,296,129090,6,0,P|216:304|256:296,1,100
352,216,129453,2,0,P|296:208|240:216,1,100,8|0,0:0|0:0,0:0:0:0:
120,216,129817,2,0,P|112:160|120:112,1,100,8|0,0:0|0:0,0:0:0:0:
240,80,130180,2,0,L|224:128,1,50,2|0,0:0|0:0,0:0:0:0:
312,152,130362,2,0,L|264:192,1,50,2|0,0:0|0:0,0:0:0:0:
336,256,130544,2,0,L|280:264,1,50,2|0,0:0|0:0,0:0:0:0:
280,352,130726,2,0,L|192:288,1,100,0|8,0:0|0:0,0:0:0:0:
72,320,131090,2,0,L|88:208,1,100,0|8,0:0|0:0,0:0:0:0:
144,104,131453,6,0,L|184:144,1,50,0|0,0:0|0:0,0:0:0:0:
264,96,131635,2,0,L|288:208,1,100,8|0,0:0|0:0,0:0:0:0:
312,320,131999,1,8,0:0:0:0:
432,264,132180,2,0,P|440:192|432:152,1,100,0|8,0:0|0:0,0:0:0:0:
360,64,132544,2,0,L|336:112,1,50,2|0,0:0|0:0,0:0:0:0:
248,80,132726,2,0,L|264:192,1,100,8|0,0:0|0:0,0:0:0:0:
216,304,133090,2,0,L|192:256,1,50,8|0,0:0|0:0,0:0:0:0:
104,264,133271,2,0,L|128:208,1,50,2|0,0:0|0:0,0:0:0:0:
48,168,133453,2,0,L|144:128,1,100,8|0,0:0|0:0,0:0:0:0:
264,80,133817,5,8,0:0:0:0:
376,136,133999,2,0,L|320:168,1,50,2|0,0:0|0:0,0:0:0:0:
352,248,134180,2,0,L|288:232,1,50,2|0,0:0|0:0,0:0:0:0:
248,312,134362,2,0,L|168:240,1,100,0|8,0:0|0:0,0:0:0:0:
88,168,134726,1,4,0:0:0:0:
256,192,134908,12,0,137453,0:0:0:0:
104,272,137817,6,0,L|144:240,1,50
128,144,137999,2,0,L|184:136,1,50
232,48,138180,2,0,L|280:88,1,50
368,72,138362,2,0,L|384:152,1,50
400,216,138544,1,0,0:0:0:0:
368,240,138635,1,0,0:0:0:0:
328,256,138726,1,0,0:0:0:0:
288,256,138817,1,0,0:0:0:0:
248,240,138908,1,0,0:0:0:0:
224,224,138999,1,0,0:0:0:0:
184,232,139090,1,0,0:0:0:0:
144,248,139180,1,0,0:0:0:0:
104,248,139271,6,0,L|72:208,3,50
64,168,139635,2,0,L|80:104,3,50
104,88,139999,1,0,0:0:0:0:
144,72,140090,1,0,0:0:0:0:
184,80,140180,1,0,0:0:0:0:
224,96,140271,1,0,0:0:0:0:
256,120,140362,1,0,0:0:0:0:
280,152,140453,1,0,0:0:0:0:
288,192,140544,1,0,0:0:0:0:
288,232,140635,1,0,0:0:0:0:
272,272,140726,6,0,P|216:288|176:312,1,100,4|0,0:0|0:0,0:0:0:0:
360,320,141090,2,0,P|416:304|456:280,1,100,8|0,0:0|0:0,0:0:0:0:
256,232,141453,2,0,P|200:248|160:272,1,100,0|0,0:0|0:0,0:0:0:0:
400,344,141817,2,0,P|456:328|496:304,1,100,8|0,0:0|0:0,0:0:0:0:
408,168,142180,5,0,0:0:0:0:
224,88,142362,1,0,0:0:0:0:
448,160,142544,1,8,0:0:0:0:
184,96,142726,1,0,0:0:0:0:
376,56,142908,1,0,0:0:0:0:
232,200,143090,1,0,0:0:0:0:
416,48,143271,1,8,0:0:0:0:
192,208,143453,1,0,0:0:0:0:
56,216,143635,2,0,L|80:104,1,100
224,56,143999,1,8,0:0:0:0:
384,80,144180,6,0,P|416:128|432:176,1,100
272,128,144544,2,0,P|256:184|256:240,1,100,0|8,0:0|0:0,0:0:0:0:
430,167,144908,2,0,P|432:224|416:272,1,100
254,225,145271,2,0,P|264:288|288:328,1,100,0|8,0:0|0:0,0:0:0:0:
424,248,145635,1,0,0:0:0:0:
248,152,145817,1,0,0:0:0:0:
464,240,145999,1,0,0:0:0:0:
208,160,146180,1,8,0:0:0:0:
384,256,146362,2,0,L|336:216,1,50
280,288,146544,2,0,L|256:184,1,100
224,32,146908,5,8,0:0:0:0:
88,112,147090,2,0,L|136:144,1,50
80,208,147271,2,0,L|200:224,1,100
336,240,147635,1,8,0:0:0:0:
368,80,147817,2,0,P|304:64|256:64,1,100
136,144,148180,2,0,P|200:160|240:160,1,100,0|8,0:0|0:0,0:0:0:0:
384,216,148544,1,0,0:0:0:0:
248,304,148726,1,0,0:0:0:0:
104,240,148908,1,0,0:0:0:0:
64,88,149090,1,8,0:0:0:0:
216,48,149271,5,0,0:0:0:0:
312,64,149453,2,0,L|320:176,1,100
328,328,149817,1,8,0:0:0:0:
472,256,149999,1,0,0:0:0:0:
480,160,150180,2,0,L|368:144,1,100
224,128,150544,5,8,0:0:0:0:
104,232,150726,1,8,0:0:0:0:
408,80,151090,1,8,0:0:0:0:
104,304,151453,1,8,0:0:0:0:
408,80,151817,1,8,0:0:0:0:
48,336,152180,1,8,0:0:0:0:
24,248,152362,2,0,L|128:216,1,100
272,176,152726,1,8,0:0:0:0:
464,48,152908,1,0,0:0:0:0:
488,136,153090,2,0,L|384:168,1,100
240,208,153453,1,8,0:0:0:0:
120,88,153635,6,0,P|96:144|96:192,1,100
256,176,153999,2,0,P|280:232|280:280,1,100,0|8,0:0|0:0,0:0:0:0:
136,208,154362,2,0,P|128:152|136:96,1,100,0|0,0:0|0:0,0:0:0:0:
288,80,154726,2,0,P|344:72|392:80,1,100,0|8,0:0|0:0,0:0:0:0:
424,232,155090,1,0,0:0:0:0:
424,232,155180,1,0,0:0:0:0:
424,232,155271,2,0,P|376:264|328:280,1,100
176,296,155635,2,0,P|128:272|88:240,1,100,8|0,0:0|0:0,0:0:0:0:
136,88,155999,5,0,0:0:0:0:
216,224,156180,2,0,B|264:240|264:240|320:232|320:232,1,100,0|8,0:0|0:0,0:0:0:0:
168,144,156544,1,0,0:0:0:0:
264,280,156726,2,0,B|312:296|312:296|368:288|368:288,1,100,0|8,0:0|0:0,0:0:0:0:
200,200,157090,1,0,0:0:0:0:
296,336,157272,2,0,B|344:352|344:352|400:344|400:344,1,100,0|8,0:0|0:0,0:0:0:0:
296,208,157635,2,0,B|248:192|248:192|192:200|192:200,1,100,0|8,0:0|0:0,0:0:0:0:
80,96,157999,1,8,0:0:0:0:
80,96,158090,1,8,0:0:0:0:
80,96,158180,1,8,0:0:0:0:
240,64,158362,6,0,L|224:120,1,50
304,136,158544,2,0,L|224:208,1,100,8|0,0:0|0:0,0:0:0:0:
104,304,158908,1,0,0:0:0:0:
256,264,159090,2,0,L|224:224,1,50
288,176,159271,2,0,L|200:128,1,100,8|0,0:0|0:0,0:0:0:0:
64,48,159635,5,0,0:0:0:0:
160,184,159817,1,0,0:0:0:0:
344,104,159999,1,8,0:0:0:0:
136,216,160180,1,0,0:0:0:0:
368,72,160362,1,0,0:0:0:0:
112,248,160544,1,0,0:0:0:0:
392,40,160726,1,8,0:0:0:0:
432,208,160908,5,0,0:0:0:0:
376,296,161090,2,0,L|288:232,1,100
160,136,161453,1,8,0:0:0:0:
320,256,161635,1,0,0:0:0:0:
216,88,161817,1,0,0:0:0:0:
256,288,161999,1,0,0:0:0:0:
288,88,162180,1,8,0:0:0:0:
184,264,162362,1,0,0:0:0:0:
344,144,162544,1,0,0:0:0:0:
152,200,162726,1,0,0:0:0:0:
352,216,162908,1,8,0:0:0:0:
168,128,163090,1,0,0:0:0:0:
304,280,163271,1,0,0:0:0:0:
232,88,163453,1,0,0:0:0:0:
224,288,163635,6,0,L|176:272,1,50,2|0,0:0|0:0,0:0:0:0:
80,240,163817,2,0,L|128:208,1,50,2|0,0:0|0:0,0:0:0:0:
160,120,163999,1,8,0:0:0:0:
320,64,164180,2,0,L|416:104,1,100,0|8,0:0|0:0,0:0:0:0:
192,64,164544,2,0,L|96:104,1,100,0|8,0:0|0:0,0:0:0:0:
320,224,164908,2,0,L|416:264,1,100,0|8,0:0|0:0,0:0:0:0:
192,224,165272,2,0,L|96:264,1,100,0|8,0:0|0:0,0:0:0:0:
256,344,165635,6,0,L|256:240,1,100,0|8,0:0|0:0,0:0:0:0:
88,240,165999,2,0,P|112:184|136:152,1,100,0|8,0:0|0:0,0:0:0:0:
304,112,166362,2,0,P|280:168|256:200,1,100,0|8,0:0|0:0,0:0:0:0:
152,64,166726,2,0,P|216:80|272:112,1,100,0|8,0:0|0:0,0:0:0:0:
328,248,167090,2,0,P|264:224|224:200,1,100,0|8,0:0|0:0,0:0:0:0:
96,112,167453,5,0,0:0:0:0:
296,72,167635,1,8,0:0:0:0:
56,96,167817,1,0,0:0:0:0:
336,88,167999,1,8,0:0:0:0:
416,272,168180,1,0,0:0:0:0:
224,200,168362,1,8,0:0:0:0:
448,296,168544,1,0,0:0:0:0:
192,176,168726,1,8,0:0:0:0:
480,320,168908,1,0,0:0:0:0:
160,152,169090,1,8,0:0:0:0:
256,32,169271,5,0,0:0:0:0:
320,152,169453,1,0,1:0:0:0:
320,152,169544,1,0,1:0:0:0:
320,152,169635,1,0,1:0:0:0:
320,152,169726,1,0,1:0:0:0:
320,152,169817,2,0,P|288:200|256:232,1,100,0|0,1:0|0:0,0:0:0:0:
96,232,170180,5,8,0:0:0:0:
192,104,170362,2,0,P|232:144|272:168,1,100,0|8,0:0|0:0,0:0:0:0:
408,88,170726,2,0,P|416:144|416:192,1,100,0|8,0:0|0:0,0:0:0:0:
304,304,171090,2,0,P|296:232|304:184,1,100,0|8,0:0|0:0,0:0:0:0:
408,88,171453,2,0,P|336:80|280:88,1,100,0|8,0:0|0:0,0:0:0:0:
184,184,171817,2,0,P|240:192|304:184,1,100,0|8,0:0|0:0,0:0:0:0:
408,88,172180,2,0,L|392:136,1,50,0|0,1:0|1:0,0:0:0:0:
296,168,172362,2,0,L|336:216,1,50,0|0,1:0|1:0,0:0:0:0:
288,296,172544,2,0,L|360:312,1,50,0|0,1:0|1:0,0:0:0:0:
432,336,172726,1,4,1:0:0:0:
256,192,172908,12,0,175635,0:0:0:0:
152,296,181453,5,8,0:0:0:0:
328,192,181635,1,2,0:0:0:0:
112,280,181817,1,2,0:0:0:0:
368,208,181999,1,2,0:0:0:0:
272,96,182180,1,0,0:0:0:0:
272,96,182362,5,0,0:0:0:0:
120,96,182544,1,8,0:0:0:0:
264,240,182726,1,2,0:0:0:0:
80,88,182908,1,2,0:0:0:0:
304,248,183090,1,2,0:0:0:0:
160,288,183271,1,0,0:0:0:0:
160,288,183453,5,0,0:0:0:0:
64,176,183635,1,8,0:0:0:0:
248,104,183817,1,2,0:0:0:0:
40,200,183999,1,2,0:0:0:0:
272,80,184180,1,2,0:0:0:0:
232,240,184362,1,8,0:0:0:0:
416,168,184544,1,2,0:0:0:0:
208,264,184726,1,2,0:0:0:0:
440,144,184907,1,2,0:0:0:0:
288,136,185090,1,0,0:0:0:0:
288,136,185271,5,0,0:0:0:0:
136,128,185453,1,8,0:0:0:0:
280,272,185635,1,2,0:0:0:0:
96,120,185817,1,2,0:0:0:0:
320,280,185999,1,2,0:0:0:0:
168,296,186180,1,0,0:0:0:0:
168,296,186362,5,0,0:0:0:0:
88,168,186544,1,8,0:0:0:0:
280,112,186726,1,2,0:0:0:0:
64,208,186908,1,2,0:0:0:0:
304,72,187090,1,0,0:0:0:0:
304,72,187180,1,2,0:0:0:0:
304,72,187271,2,0,P|336:128|352:176,1,100,2|0,0:0|0:0,0:0:0:0:
272,304,187635,2,0,P|248:248|240:208,1,100,8|0,0:0|0:0,0:0:0:0:
328,48,187999,2,0,P|360:104|376:152,1,100,2|0,0:0|0:0,0:0:0:0:
248,328,188362,2,0,P|224:272|216:232,1,100,8|0,0:0|0:0,0:0:0:0:
280,88,188726,6,0,P|224:96|176:112,1,100
112,256,189090,2,0,P|168:248|224:224,1,100,8|0,0:0|0:0,0:0:0:0:
256,64,189453,2,0,P|200:72|152:88,1,100
136,280,189817,1,8,0:0:0:0:
296,288,189999,1,0,0:0:0:0:
392,256,190180,2,0,L|360:160,1,100
312,8,190544,1,8,0:0:0:0:
168,80,190726,1,0,0:0:0:0:
152,176,190908,6,0,L|264:200,1,100
408,224,191271,1,8,0:0:0:0:
296,104,191453,2,0,P|240:96|192:96,1,100
64,184,191817,2,0,P|120:192|176:192,1,100,0|8,0:0|0:0,0:0:0:0:
320,240,192180,2,0,P|328:176|320:128,1,100
208,32,192544,2,0,P|200:96|208:144,1,100,0|8,0:0|0:0,0:0:0:0:
224,288,192908,5,0,0:0:0:0:
224,288,192999,1,0,0:0:0:0:
224,288,193090,1,0,0:0:0:0:
384,296,193271,2,0,P|392:240|384:192,1,100,0|8,0:0|0:0,0:0:0:0:
256,104,193635,2,0,P|248:160|256:208,1,100
368,96,193999,2,0,P|304:80|256:80,1,100,0|8,0:0|0:0,0:0:0:0:
112,104,194362,5,0,0:0:0:0:
272,224,194544,1,0,0:0:0:0:
72,96,194726,1,0,0:0:0:0:
312,232,194908,1,8,0:0:0:0:
112,272,195090,1,0,0:0:0:0:
240,120,195271,1,0,0:0:0:0:
80,280,195453,1,0,0:0:0:0:
272,112,195635,6,0,P|288:160|288:216,1,100,8|0,0:0|0:0,0:0:0:0:
152,296,195999,1,0,0:0:0:0:
208,104,196180,1,0,0:0:0:0:
232,304,196362,1,8,0:0:0:0:
136,128,196544,1,0,0:0:0:0:
296,256,196726,1,0,0:0:0:0:
104,200,196908,1,0,0:0:0:0:
304,176,197090,1,8,0:0:0:0:
128,272,197271,1,0,0:0:0:0:
256,112,197453,1,0,0:0:0:0:
200,304,197635,6,0,P|216:256|216:208,1,100,0|8,0:0|0:0,0:0:0:0:
200,48,197999,1,0,0:0:0:0:
312,216,198180,1,8,0:0:0:0:
152,64,198362,1,0,0:0:0:0:
360,192,198544,1,8,0:0:0:0:
104,80,198726,1,8,0:0:0:0:
104,80,199271,6,0,B|120:104|120:104|144:80|144:80|168:112|168:112|200:72|200:72|224:112|224:112|248:96|248:96|264:112|264:112|288:96|288:96|312:112|312:112,1,300,4|0,0:0|0:0,0:0:0:0:
408,184,199999,1,8,0:0:0:0:
320,280,200180,1,0,0:0:0:0:
192,256,200362,1,0,0:0:0:0:
96,168,200544,2,0,P|136:136|184:112,1,100,0|0,0:0|0:0,0:0:0:0:
304,72,200908,2,0,P|352:104|384:136,1,100,8|0,0:0|0:0,0:0:0:0:
376,264,201271,2,0,P|328:240|296:208,1,100,0|8,0:0|0:0,0:0:0:0:
224,96,201635,2,0,L|208:144,1,50
128,144,201817,6,0,L|168:240,1,100
216,360,202180,1,8,0:0:0:0:
320,280,202362,2,0,L|280:248,1,50
352,192,202544,2,0,L|256:160,1,100
128,128,202908,1,8,0:0:0:0:
256,96,203090,1,0,0:0:0:0:
360,168,203271,1,0,0:0:0:0:
368,296,203453,2,0,P|304:288|256:296,1,100,0|8,0:0|0:0,0:0:0:0:
144,256,203817,5,0,0:0:0:0:
296,120,203999,1,0,0:0:0:0:
112,264,204180,1,0,0:0:0:0:
328,112,204362,1,8,0:0:0:0:
328,112,204453,1,0,0:0:0:0:
328,112,204544,1,0,0:0:0:0:
448,160,204726,2,0,P|432:216|408:256,1,100
288,288,205090,5,8,0:0:0:0:
168,232,205271,1,0,0:0:0:0:
136,104,205453,1,0,0:0:0:0:
256,48,205635,1,0,0:0:0:0:
376,88,205817,1,8,0:0:0:0:
408,216,205999,6,0,P|352:240|304:248,1,100
208,168,206362,2,0,P|272:152|312:152,1,100,0|8,0:0|0:0,0:0:0:0:
224,256,206726,2,0,P|208:208|208:152,1,100
296,64,207090,2,0,P|304:128|304:176,1,100,0|8,0:0|0:0,0:0:0:0:
200,88,207453,1,0,0:0:0:0:
352,128,207635,1,8,0:0:0:0:
200,256,207817,1,2,0:0:0:0:
384,120,207999,1,8,0:0:0:0:
168,264,208180,1,2,0:0:0:0:
112,72,208362,1,0,0:0:0:0:
112,72,208544,5,0,0:0:0:0:
128,272,208726,1,8,0:0:0:0:
224,96,208908,1,2,0:0:0:0:
96,280,209090,1,8,0:0:0:0:
256,88,209271,1,2,0:0:0:0:
376,192,209453,2,0,L|328:176,1,50,2|0,0:0|0:0,0:0:0:0:
288,256,209635,6,0,L|256:208,1,50,2|0,0:0|0:0,0:0:0:0:
176,248,209817,2,0,L|192:176,1,50,2|0,0:0|0:0,0:0:0:0:
104,160,209999,2,0,L|160:128,1,50,2|0,0:0|0:0,0:0:0:0:
112,56,210180,1,2,0:0:0:0:
152,48,210271,1,2,0:0:0:0:
192,56,210362,1,2,0:0:0:0:
232,48,210453,1,2,0:0:0:0:
272,56,210544,6,0,P|320:72|360:104,1,100,8|2,0:0|0:0,0:0:0:0:
384,248,210908,2,0,P|336:224|304:192,1,100,8|2,0:0|0:0,0:0:0:0:
176,112,211271,1,0,0:0:0:0:
176,112,211453,1,0,0:0:0:0:
112,248,211635,2,0,P|168:256|224:248,1,100,8|2,0:0|0:0,0:0:0:0:
312,144,211999,2,0,P|256:136|208:144,1,100,8|2,0:0|0:0,0:0:0:0:
64,168,212362,1,0,0:0:0:0:
64,168,212544,5,0,0:0:0:0:
176,264,212726,1,8,0:0:0:0:
320,128,212908,1,2,0:0:0:0:
144,272,213090,1,8,0:0:0:0:
352,120,213271,1,2,0:0:0:0:
152,128,213453,1,8,0:0:0:0:
296,264,213635,1,2,0:0:0:0:
120,120,213817,1,8,0:0:0:0:
328,272,213999,1,2,0:0:0:0:
256,88,214180,2,0,P|240:120|232:184,1,100,8|2,0:0|0:0,0:0:0:0:
272,328,214544,2,0,P|296:264|296:216,1,100,8|2,0:0|0:0,0:0:0:0:
256,192,214908,12,0,215999,0:0:0:0:
104,192,216362,6,0,P|184:136|288:112,1,200
360,120,217271,2,0,P|392:144|408:168,1,50
424,224,217635,2,0,P|384:256|336:280,1,100
192,272,218362,2,0,P|248:240|288:232,1,100
416,160,219090,2,0,P|376:152|352:152,1,50
216,136,219635,1,0,0:0:0:0:
160,280,219999,6,0,P|200:288|224:288,2,50
96,240,220544,2,0,B|80:208|80:160|80:128,1,100
96,72,221090,2,0,P|144:64|168:64,1,50
296,80,221635,2,0,P|296:112|288:136,1,50
240,184,221999,1,0,0:0:0:0:
416,272,222180,1,8,0:0:0:0:
200,168,222362,1,8,0:0:0:0:
416,56,222544,1,8,0:0:0:0:
104,272,223090,6,0,P|152:288|208:288,1,100,8|2,0:0|0:0,0:0:0:0:
200,288,223635,1,8,0:0:0:0:
368,120,223817,1,8,0:0:0:0:
128,72,223999,1,8,0:0:0:0:
336,192,224544,2,0,L|392:184,2,50,8|2|2,0:0|0:0|0:0,0:0:0:0:
104,264,225090,1,8,0:0:0:0:
272,120,225271,1,8,0:0:0:0:
456,240,225453,1,8,0:0:0:0:
80,128,225999,6,0,P|128:120|184:112,1,100
416,72,226362,1,8,0:0:0:0:
72,320,226726,1,8,0:0:0:0:
448,64,227090,1,8,0:0:0:0:
40,336,227453,1,8,0:0:0:0:
440,64,227817,1,0,0:0:0:0:
328,56,227999,6,0,L|304:160,1,100
272,296,228362,1,8,0:0:0:0:
128,256,228544,1,0,0:0:0:0:
104,160,228726,2,0,L|200:120,1,100
336,64,229090,1,8,0:0:0:0:
416,192,229271,2,0,P|360:216|320:224,1,100
192,152,229635,2,0,P|256:136|304:128,1,100,0|8,0:0|0:0,0:0:0:0:
208,256,229999,6,0,P|192:200|192:152,1,100
280,40,230362,2,0,P|288:96|288:144,1,100,0|8,0:0|0:0,0:0:0:0:
160,56,230726,1,0,0:0:0:0:
160,56,230817,1,0,0:0:0:0:
160,56,230908,1,0,0:0:0:0:
56,168,231090,1,0,0:0:0:0:
160,280,231271,1,8,0:0:0:0:
312,256,231453,1,0,0:0:0:0:
416,152,231635,6,0,P|368:128|320:120,1,100
168,112,231999,1,8,0:0:0:0:
336,216,232180,1,0,0:0:0:0:
136,104,232362,1,0,0:0:0:0:
368,224,232544,1,0,0:0:0:0:
168,216,232726,1,8,0:0:0:0:
336,112,232908,1,0,0:0:0:0:
136,224,233090,1,0,0:0:0:0:
368,104,233271,1,0,0:0:0:0:
104,232,233453,2,0,P|88:184|88:136,1,100,8|0,0:0|0:0,0:0:0:0:
96,96,233726,5,0,0:0:0:0:
112,64,233817,1,0,0:0:0:0:
264,48,233999,2,0,P|280:96|288:144,1,100,0|8,0:0|0:0,0:0:0:0:
272,296,234362,2,0,L|256:248,1,50
184,264,234544,2,0,L|200:152,1,100
328,88,234908,1,8,0:0:0:0:
456,168,235090,6,0,P|424:216|384:248,1,100
264,320,235453,2,0,P|216:272|200:240,1,100,0|8,0:0|0:0,0:0:0:0:
248,104,235817,2,0,P|280:160|296:200,1,100
144,184,236180,2,0,P|184:144|224:120,1,100,0|8,0:0|0:0,0:0:0:0:
360,64,236544,1,0,0:0:0:0:
360,64,236635,1,0,0:0:0:0:
360,64,236726,1,0,0:0:0:0:
432,200,236908,2,0,P|384:232|344:248,1,100,0|8,0:0|0:0,0:0:0:0:
208,272,237271,2,0,L|176:232,1,50
104,256,237453,2,0,L|96:144,1,100
216,64,237817,5,8,0:0:0:0:
368,192,237999,1,0,0:0:0:0:
176,128,238180,1,0,0:0:0:0:
376,112,238362,1,0,0:0:0:0:
200,200,238544,1,8,0:0:0:0:
328,48,238726,1,0,0:0:0:0:
272,240,238908,1,0,0:0:0:0:
248,40,239090,1,0,0:0:0:0:
344,216,239271,2,0,L|384:248,1,50,10|0,0:0|0:0,0:0:0:0:
408,168,239453,6,0,L|360:136,1,50,10|0,0:0|0:0,0:0:0:0:
296,96,239635,2,0,P|240:96|184:104,1,100,10|0,0:0|0:0,0:0:0:0:
72,192,239999,1,8,0:0:0:0:
208,264,240180,2,0,P|264:272|320:272,1,100,0|8,0:0|0:0,0:0:0:0:
160,192,240544,1,0,0:0:0:0:
296,264,240726,2,0,P|352:272|408:272,1,100,8|0,0:0|0:0,0:0:0:0:
248,192,241090,1,8,0:0:0:0:
384,264,241271,2,0,P|440:272|496:272,1,100,0|8,0:0|0:0,0:0:0:0:
432,128,241635,2,0,P|376:120|320:128,1,100,0|8,0:0|0:0,0:0:0:0:
208,40,241999,2,0,P|176:80|160:128,1,100,0|8,0:0|0:0,0:0:0:0:
16,168,242362,6,0,P|48:216|88:248,1,100,0|8,0:0|0:0,0:0:0:0:
232,264,242726,1,0,0:0:0:0:
336,96,242908,1,8,0:0:0:0:
200,272,243090,1,0,0:0:0:0:
368,88,243271,1,8,0:0:0:0:
168,280,243453,1,0,0:0:0:0:
400,80,243635,1,8,0:0:0:0:
192,128,243817,6,0,L|88:152,1,100,0|8,0:0|0:0,0:0:0:0:
320,128,244180,2,0,L|424:152,1,100,0|8,0:0|0:0,0:0:0:0:
344,280,244544,2,0,L|240:256,1,100,0|8,0:0|0:0,0:0:0:0:
96,232,244908,1,0,1:0:0:0:
80,192,244999,1,0,1:0:0:0:
96,152,245090,1,0,1:0:0:0:
80,120,245180,1,0,1:0:0:0:
96,88,245271,6,0,L|144:72,2,50,0|0|8,1:0|0:0|0:0,0:0:0:0:
248,64,245635,2,0,P|320:72|352:80,1,100,0|8,0:0|0:0,0:0:0:0:
384,224,245999,2,0,P|320:208|280:192,1,100,0|8,0:0|0:0,0:0:0:0:
200,72,246362,2,0,P|184:128|184:176,1,100,0|8,0:0|0:0,0:0:0:0:
312,256,246726,2,0,P|312:192|304:144,1,100,0|8,0:0|0:0,0:0:0:0:
184,248,247090,1,0,0:0:0:0:
336,120,247271,1,8,0:0:0:0:
152,256,247453,1,0,0:0:0:0:
368,112,247635,1,8,0:0:0:0:
120,264,247817,6,0,L|160:232,1,50,0|0,1:0|1:0,0:0:0:0:
88,176,247999,2,0,L|152:160,1,50,0|0,1:0|1:0,0:0:0:0:
112,80,248180,2,0,L|176:96,1,50,0|0,1:0|1:0,0:0:0:0:
248,120,248362,1,4,1:0:0:0:
360,192,248544,6,0,P|328:232|280:272,1,100,0|8,0:0|0:0,0:0:0:0:
152,256,248908,2,0,P|128:192|128:144,1,100,0|8,0:0|0:0,0:0:0:0:
208,56,249271,1,0,0:0:0:0:
336,80,249453,1,8,0:0:0:0:
400,192,249635,1,0,0:0:0:0:
336,304,249817,1,8,0:0:0:0:
400,192,249999,1,0,0:0:0:0:
336,80,250180,1,8,0:0:0:0:
208,56,250362,1,0,0:0:0:0:
96,128,250544,6,0,P|72:176|64:232,1,100,8|0,0:0|0:0,0:0:0:0:
184,280,250908,2,0,L|200:232,1,50,2|0,0:0|0:0,0:0:0:0:
280,248,251090,2,0,L|264:192,1,50,2|0,0:0|0:0,0:0:0:0:
344,168,251271,2,0,L|256:96,1,100,8|0,0:0|0:0,0:0:0:0:
136,80,251635,1,8,0:0:0:0:
72,192,251817,2,0,P|120:208|176:216,1,100,0|8,0:0|0:0,0:0:0:0:
232,328,252180,2,0,P|272:272|288:240,1,100,0|8,0:0|0:0,0:0:0:0:
416,248,252544,2,0,P|384:200|344:168,1,100,0|8,0:0|0:0,0:0:0:0:
248,96,252908,5,0,0:0:0:0:
112,240,253090,1,8,0:0:0:0:
280,88,253271,1,0,0:0:0:0:
80,248,253453,1,8,0:0:0:0:
312,80,253635,1,0,0:0:0:0:
376,192,253817,1,10,0:0:0:0:
376,192,253908,1,0,0:0:0:0:
376,192,253999,1,2,0:0:0:0:
376,192,254090,1,0,0:0:0:0:
376,192,254180,6,0,P|336:232|288:272,1,100,8|0,0:0|0:0,0:0:0:0:
176,296,254544,1,8,0:0:0:0:
80,216,254726,2,0,P|96:168|128:120,1,100,0|8,0:0|0:0,0:0:0:0:
248,88,255090,2,0,P|224:144|200:192,1,100,0|8,0:0|0:0,0:0:0:0:
176,56,255453,2,0,P|248:48|296:48,1,100,0|8,0:0|0:0,0:0:0:0:
408,72,255817,2,0,P|416:128|416:176,1,100,0|8,0:0|0:0,0:0:0:0:
304,240,256180,2,0,P|296:160|304:120,1,100,0|8,0:0|0:0,0:0:0:0:
408,208,256544,2,0,P|344:224|304:224,1,100,0|8,0:0|0:0,0:0:0:0:
176,224,256908,5,0,0:0:0:0:
176,224,256999,1,0,0:0:0:0:
176,224,257090,1,8,0:0:0:0:
112,112,257271,2,0,L|168:128,1,50
208,56,257453,2,0,L|272:144,1,100,8|0,0:0|0:0,0:0:0:0:
344,240,257817,1,0,0:0:0:0:
344,240,257999,6,0,P|352:184|352:136,1,100,0|8,0:0|0:0,0:0:0:0:
248,64,258362,1,0,0:0:0:0:
128,112,258544,2,0,P|112:168|112:216,1,100
216,288,258908,1,8,0:0:0:0:
344,272,259090,6,0,L|368:248,18,25
376,240,259999,1,8,0:0:0:0:
352,96,260180,1,0,0:0:0:0:
376,248,260362,2,0,P|320:256|272:248,1,100,8|0,0:0|0:0,0:0:0:0:
184,128,260727,2,0,P|240:120|296:128,1,100,8|0,0:0|0:0,0:0:0:0:
248,264,261090,2,0,P|192:272|144:264,1,100,8|0,0:0|0:0,0:0:0:0:
120,120,261454,6,0,P|144:168|160:224,1,100,8|0,0:0|0:0,0:0:0:0:
280,120,261818,2,0,P|280:200|256:256,1,100,8|0,0:0|0:0,0:0:0:0:
416,160,262181,2,0,P|400:240|376:280,1,100,8|0,0:0|0:0,0:0:0:0:
256,184,262545,2,0,P|192:184|144:176,1,100,8|0,0:0|0:0,0:0:0:0:
48,72,262909,2,0,P|112:64|160:64,1,100,8|0,0:0|0:0,0:0:0:0:
208,200,263272,2,0,P|232:136|240:104,1,100,8|0,0:0|0:0,0:0:0:0:
88,120,263636,2,0,P|64:168|56:224,1,100,8|0,0:0|0:0,0:0:0:0:
168,312,263999,5,8,0:0:0:0:
304,272,264181,1,0,0:0:0:0:
416,184,264363,1,8,0:0:0:0:
432,48,264545,1,0,0:0:0:0:
296,56,264727,2,0,P|240:64|192:80,1,100,8|0,0:0|0:0,0:0:0:0:
48,88,265090,2,0,P|64:152|88:192,1,100,8|0,0:0|0:0,0:0:0:0:
192,288,265454,2,0,P|192:232|176:176,1,100,8|0,0:0|0:0,0:0:0:0:
40,144,265818,2,0,P|96:112|136:96,1,100,8|0,0:0|0:0,0:0:0:0:
200,232,266181,2,0,P|256:208|304:176,1,100,8|0,0:0|0:0,0:0:0:0:
288,40,266545,2,0,P|336:72|368:112,1,100,8|0,0:0|0:0,0:0:0:0:
363,104,266908,1,8,0:0:0:0:
280,232,267090,5,0,0:0:0:0:
160,144,267271,1,8,0:0:0:0:
216,280,267453,1,0,0:0:0:0:
232,128,267635,1,8,0:0:0:0:
144,256,267817,1,0,0:0:0:0:
280,184,267999,1,8,0:0:0:0:
128,184,268180,1,0,0:0:0:0:
264,256,268362,1,8,0:0:0:0:
184,128,268544,1,0,0:0:0:0:
280,288,268726,21,8,0:0:0:0:
392,120,268908,1,2,0:0:0:0:
248,304,269090,1,8,0:0:0:0:
424,104,269271,1,2,0:0:0:0:
72,296,269635,1,2,0:0:0:0:
224,96,269817,1,8,0:0:0:0:
392,248,269999,1,2,0:0:0:0:
112,112,270362,1,0,0:0:0:0:
304,296,270544,1,8,0:0:0:0:
416,72,270726,1,2,0:0:0:0:
112,112,271090,1,8,0:0:0:0:
400,280,271271,1,2,0:0:0:0:
320,104,271635,5,2,0:0:0:0:
192,256,271817,1,2,0:0:0:0:
352,88,271999,1,2,0:0:0:0:
160,272,272180,1,2,0:0:0:0:
112,192,272726,2,0,P|168:208|208:232,1,100,2|2,0:0|0:0,0:0:0:0:
400,280,273090,2,0,P|360:248|312:224,1,100,2|2,0:0|0:0,0:0:0:0:
256,120,273817,2,0,P|272:72|264:24,1,100,2|2,0:0|0:0,0:0:0:0:
184,208,274180,2,0,P|160:264|160:312,1,100,2|2,0:0|0:0,0:0:0:0:
336,112,274908,6,0,L|320:168,1,50
264,280,275090,2,0,L|232:224,1,50
168,120,275271,2,0,L|152:184,1,50
112,304,275453,2,0,L|88:248,1,50
64,120,275635,2,0,L|112:144,3,50
256,88,276362,2,0,L|224:144,3,50
256,296,276726,2,0,L|288:240,3,50
424,104,277090,2,0,L|392:160,3,50
256,192,277817,5,2,0:0:0:0:
256,192,277908,12,2,283271,0:0:0:0:
