osu file format v12

[General]
AudioFilename: 10 Soshite Kimi to Koi wo Suru.mp3
AudioLeadIn: 0
PreviewTime: 140726
Countdown: 1
SampleSet: Soft
StackLeniency: 0.7
Mode: 0
LetterboxInBreaks: 1
WidescreenStoryboard: 1

[Editor]
DistanceSpacing: 0.5
BeatDivisor: 4
GridSize: 8
TimelineZoom: 1.8

[Metadata]
Title:Soshite Kimi to Koi wo Suru
TitleUnicode:そして君と恋をする
Artist:Konjiki no Yami & Momo & Lala & Nana
ArtistUnicode:金色の闇&モモ&ララ&ナナ
Creator:[ B e a r ]
Version:Hard
Source:To LOVEる -とらぶる- ダークネス
Tags:Konjiki no Yami Momo Velia Lala Satalin Nana Astar Deviluke Yuuki Rito Character Album Darkness Trouble Toraburu toloveru Fukuen Misato Toyosaki Aki Tomatsu Haruka Itou Kanae
BeatmapID:358841
BeatmapSetID:144474

[Difficulty]
HPDrainRate:5
CircleSize:4
OverallDifficulty:5
ApproachRate:7
SliderMultiplier:1.5
SliderTickRate:2

[Events]
//Background and Video events
0,0,"BG.jpg",0,0
//Break Periods
2,98744,103462
2,175835,180553
2,216562,221280
//Storyboard Layer 0 (Background)
//Storyboard Layer 1 (Fail)
//Storyboard Layer 2 (Pass)
//Storyboard Layer 3 (Foreground)
//Storyboard Sound Samples
//Background Colour Transformations
3,100,163,162,255

[TimingPoints]
1090,363.636363636364,4,2,0,50,1,0
1090,-125,4,2,0,50,0,0
12726,-100,4,2,0,50,0,0
15635,-100,4,2,0,60,0,0
26726,-100,4,3,0,60,0,0
32362,-100,4,2,0,75,0,0
63635,-100,4,2,0,75,0,1
95635,-100,4,2,0,75,0,0
118908,-100,4,2,0,75,0,0
140726,-100,4,2,0,75,0,1
172726,-100,4,2,0,75,0,0
222180,-100,4,2,0,75,0,0
227817,-100,4,2,0,75,0,1
248362,-100,4,2,0,75,0,0

[Colours]
Combo1 : 255,128,128
Combo2 : 255,0,255
Combo3 : 255,255,128
Combo4 : 255,128,192
Combo5 : 128,255,255

[HitObjects]
80,192,1090,2,0,P|176:120|296:112,1,240
360,144,1999,2,0,P|320:184|256:176,1,120
184,56,2726,2,0,P|128:80|104:144,1,120
208,232,3453,2,0,P|264:208|288:144,1,120
304,80,3999,2,0,P|352:120|360:176,1,120
208,144,4726,6,0,P|160:128|144:128,2,60
160,208,5271,2,0,P|176:248|232:304,1,120
304,312,5817,1,0,0:0:0:0:
376,288,5999,2,0,P|408:232|416:176,1,120
352,128,6544,1,0,0:0:0:0:
288,88,6726,2,0,P|248:80|216:80,1,60
136,208,7271,6,0,P|96:240|88:256,2,60
208,184,7817,2,0,P|224:216|248:240,2,60
168,120,8362,2,0,P|224:96|288:88,1,120
336,232,9090,2,0,P|304:256|280:264,2,60
392,176,9635,2,0,P|328:144|216:136,1,180
64,136,10544,2,0,P|88:112|112:96,2,60
40,208,11090,2,0,P|88:256|136:272,1,120
296,272,11817,2,0,P|344:224|360:176,1,120
256,64,12544,1,0,0:0:0:0:
256,192,12726,12,0,14908,0:0:0:0:
112,96,15090,5,0,1:0:0:0:
64,168,15271,1,8,1:0:0:0:
96,248,15453,1,0,0:0:0:0:
176,280,15635,2,0,P|216:288|256:288,1,75,8|0,0:0|0:0,0:0:0:0:
336,304,15999,2,0,B|360:272|368:240|368:232,1,75,8|0,0:0|0:0,0:0:0:0:
456,232,16362,2,0,P|440:184|408:152,1,75,8|0,0:0|0:0,0:0:0:0:
336,160,16726,2,0,P|296:192|288:232,1,75,8|0,0:0|0:0,0:0:0:0:
216,264,17090,6,0,P|208:224|192:192,1,75,8|0,0:0|0:0,0:0:0:0:
112,240,17453,2,0,P|104:184|112:152,1,75,8|0,0:0|0:0,0:0:0:0:
152,88,17817,1,8,0:0:0:0:
240,56,17999,1,0,0:0:0:0:
328,88,18180,2,8,P|368:112|392:136,1,75,8|0,0:0|0:0,0:0:0:0:
408,224,18544,1,8,0:0:0:0:
344,288,18726,1,0,0:0:0:0:
256,288,18908,6,0,P|240:248|232:216,1,75,8|0,0:0|0:0,0:0:0:0:
144,208,19271,2,0,P|168:168|192:144,1,75,8|0,0:0|0:0,0:0:0:0:
136,72,19635,2,0,P|176:64|216:64,1,75,8|0,0:0|0:0,0:0:0:0:
304,64,19999,1,8,0:0:0:0:
360,120,20180,1,0,0:0:0:0:
376,200,20362,1,8,0:0:0:0:
344,280,20544,1,0,0:0:0:0:
264,320,20726,2,0,P|232:288|208:272,1,75,8|0,0:0|0:0,0:0:0:0:
120,296,21090,2,0,P|120:248|128:216,1,75,8|0,0:0|0:0,0:0:0:0:
64,96,21453,6,0,P|112:104|144:104,1,75,8|0,0:0|0:0,0:0:0:0:
192,32,21817,2,0,P|224:72|232:104,1,75,8|0,0:0|0:0,0:0:0:0:
320,72,22180,1,8,0:0:0:0:
416,88,22362,1,0,0:0:0:0:
448,184,22544,2,0,P|400:176|368:176,1,75,8|0,0:0|0:0,0:0:0:0:
256,240,22908,2,0,P|296:248|336:248,1,75,8|0,0:0|0:0,0:0:0:0:
424,280,23271,2,0,P|400:304|368:328,1,75,8|0,0:0|0:0,0:0:0:0:
288,360,23635,2,0,P|248:352|208:336,1,75,8|0,0:0|0:0,0:0:0:0:
128,312,23999,5,8,0:0:0:0:
96,224,24180,1,0,0:0:0:0:
88,136,24362,2,0,P|168:96|232:88,1,150,8|8,0:0|0:0,0:0:0:0:
320,88,24908,1,0,0:0:0:0:
400,128,25090,2,0,P|376:200|336:264,1,150,8|8,0:0|0:0,0:0:0:0:
248,288,25635,1,0,0:0:0:0:
160,280,25817,2,8,P|96:232|56:168,1,150
88,88,26362,1,0,0:0:0:0:
264,48,26726,1,0,0:0:0:0:
256,192,27271,12,0,29817,0:0:0:0:
256,192,30180,12,2,32726,0:0:0:0:
160,152,33090,6,0,P|200:136|232:128,1,75,8|0,0:0|0:0,0:0:0:0:
296,168,33453,1,8,0:0:0:0:
296,168,33635,1,8,0:0:0:0:
384,184,33817,2,0,P|360:224|336:248,1,75
296,168,34180,2,0,P|328:128|352:112,1,75,8|0,0:0|0:0,0:0:0:0:
440,112,34544,2,0,P|424:72|392:48,1,75
312,48,34908,1,8,0:0:0:0:
312,48,35090,1,8,0:0:0:0:
224,72,35271,6,0,P|192:96|168:128,1,75
80,104,35635,2,0,P|88:152|104:184,1,75,8|0,0:0|0:0,0:0:0:0:
192,184,35999,2,0,P|176:232|152:256,1,75
88,304,36362,1,8,0:0:0:0:
88,304,36544,1,8,0:0:0:0:
64,216,36726,2,0,P|112:208|144:208,1,75
192,280,37090,2,0,P|216:232|224:200,1,75,8|0,0:0|0:0,0:0:0:0:
168,136,37453,2,0,P|216:120|248:120,1,75
328,128,37817,5,8,0:0:0:0:
384,200,37999,2,0,P|320:256|288:272,1,112.5,8|0,0:0|0:0,0:0:0:0:
288,312,38363,2,0,P|240:264|184:240,1,112.5,0|0,0:0|0:0,0:0:0:0:
160,224,38726,1,8,0:0:0:0:
104,296,38908,2,0,P|64:264|48:232,1,75
72,160,39271,1,8,0:0:0:0:
72,160,39453,1,8,0:0:0:0:
128,88,39635,6,0,P|176:80|208:80,1,75
296,88,39999,2,0,P|304:136|312:160,1,75,8|0,0:0|0:0,0:0:0:0:
400,160,40362,2,0,P|384:200|360:232,1,75
296,280,40726,1,8,0:0:0:0:
296,280,40908,1,8,0:0:0:0:
216,312,41090,2,0,P|168:304|136:304,1,75
56,272,41453,2,0,P|64:224|64:192,1,75,8|0,0:0|0:0,0:0:0:0:
32,112,41817,2,0,P|152:96|192:88,1,150,0|8,0:0|0:0,0:0:0:0:
264,64,42362,1,8,0:0:0:0:
400,184,42726,1,8,0:0:0:0:
280,320,43090,1,8,0:0:0:0:
136,88,43635,6,0,P|112:136|104:168,1,75
56,232,43999,2,0,P|96:248|128:256,1,75
216,248,44362,1,0,0:0:0:0:
384,192,44726,2,0,P|328:136|264:104,1,150,0|8,0:0|0:0,0:0:0:0:
176,80,45271,1,8,0:0:0:0:
96,128,45453,2,0,P|88:192|88:216,1,75,0|0,0:0|0:0,0:0:0:0:
128,288,45817,2,0,P|192:296|216:296,1,75,8|0,0:0|0:0,0:0:0:0:
288,320,46180,2,0,P|320:288|352:248,1,75
368,184,46544,1,8,0:0:0:0:
368,184,46726,1,8,0:0:0:0:
304,120,46908,6,0,P|256:104|224:96,1,75
144,104,47271,1,8,0:0:0:0:
88,176,47453,1,0,0:0:0:0:
80,264,47635,2,0,P|128:296|152:304,1,75
232,304,47999,1,8,0:0:0:0:
232,304,48180,1,8,0:0:0:0:
320,280,48362,2,0,P|360:272|400:248,1,75
480,256,48726,2,0,P|472:216|456:184,1,75,8|0,0:0|0:0,0:0:0:0:
400,120,49090,5,0,0:0:0:0:
320,96,49271,1,0,0:0:0:0:
240,96,49453,1,8,0:0:0:0:
168,127,49635,2,0,P|147:204|149:240,1,112.5,8|0,0:0|0:0,0:0:0:0:
144,280,49998,2,0,P|232:272|272:264,1,112.5,0|0,0:0|0:0,0:0:0:0:
296,256,50362,1,8,0:0:0:0:
264,176,50544,2,0,P|319:164|337:166,1,75
400,232,50908,1,8,0:0:0:0:
400,232,51090,1,8,0:0:0:0:
432,152,51271,6,0,P|408:112|376:88,1,75
304,56,51635,1,8,0:0:0:0:
216,56,51817,1,0,0:0:0:0:
128,72,51999,2,0,P|112:120|104:152,1,75
168,200,52362,1,8,0:0:0:0:
168,200,52544,1,8,0:0:0:0:
248,160,52726,2,0,P|296:152|328:152,1,75
408,176,53090,2,0,P|352:256|312:296,1,150,8|0,0:0|0:0,0:0:0:0:
232,320,53635,5,0,0:0:0:0:
152,280,53817,2,0,P|80:200|64:136,1,150,8|0,0:0|0:0,0:0:0:0:
128,96,54362,1,0,0:0:0:0:
208,56,54544,2,0,P|248:72|288:80,1,75,8|0,0:0|0:0,0:0:0:0:
416,192,55090,2,0,P|376:224|344:240,1,75,0|8,0:0|0:0,0:0:0:0:
176,280,55635,1,0,0:0:0:0:
104,112,55999,1,8,0:0:0:0:
280,72,56362,6,0,P|320:64|360:64,1,75,8|0,0:0|0:0,0:0:0:0:
408,136,56726,1,8,0:0:0:0:
456,56,56908,1,0,0:0:0:0:
304,280,57453,2,0,P|216:296|144:280,1,150,8|0,0:0|0:0,0:0:0:0:
80,232,57999,1,8,0:0:0:0:
288,56,58544,6,0,P|304:112|304:136,1,75,8|0,0:0|0:0,0:0:0:0:
216,136,58908,1,8,0:0:0:0:
264,216,59090,1,0,0:0:0:0:
320,288,59271,2,0,P|248:312|168:312,1,150,8|0,0:0|0:0,0:0:0:0:
88,280,59817,2,0,P|80:192|96:112,1,150,0|8,0:0|0:0,0:0:0:0:
256,192,60544,1,0,0:0:0:0:
256,192,60726,12,8,63271,0:0:0:0:
160,112,63635,6,0,P|136:152|128:192,1,75
144,272,63999,2,0,P|192:256|224:256,1,75,8|0,0:0|0:0,0:0:0:0:
304,296,64362,2,0,P|336:264|352:232,1,75
376,144,64726,1,8,0:0:0:0:
304,72,64908,1,0,0:0:0:0:
208,56,65090,2,0,P|168:72|136:96,1,75
112,184,65453,2,0,P|152:176|184:160,1,75,8|0,0:0|0:0,0:0:0:0:
148,40,65817,2,0,P|131:80|126:120,1,75
171,199,66180,2,0,P|193:165|205:131,1,75,8|0,0:0|0:0,0:0:0:0:
264,56,66544,6,0,P|312:40|352:32,1,75
416,88,66908,1,8,0:0:0:0:
416,168,67090,1,0,0:0:0:0:
384,240,67271,1,0,0:0:0:0:
312,288,67453,1,0,0:0:0:0:
224,312,67635,2,0,P|192:288|168:256,1,75,8|0,0:0|0:0,0:0:0:0:
192,168,67999,2,0,P|232:200|248:224,1,75
168,302,68362,2,0,P|162:262|168:223,1,75,8|0,0:0|0:0,0:0:0:0:
247,177,68726,2,0,P|253:228|247:256,1,75
328,312,69090,5,8,0:0:0:0:
392,240,69271,1,0,0:0:0:0:
408,144,69453,2,0,P|376:104|344:88,1,75
288,168,69817,2,0,P|264:136|248:96,1,75,8|0,0:0|0:0,0:0:0:0:
176,40,70180,2,0,P|136:64|112:96,1,75
48,160,70544,2,0,P|88:192|112:200,1,75,8|0,0:0|0:0,0:0:0:0:
200,240,70908,1,0,0:0:0:0:
272,176,71090,1,0,0:0:0:0:
168,248,71271,1,8,0:0:0:0:
304,168,71453,1,0,0:0:0:0:
232,104,71635,6,0,P|272:80|304:72,1,75
392,112,71999,2,0,P|408:152|416:192,1,75,8|0,0:0|0:0,0:0:0:0:
360,264,72362,1,0,0:0:0:0:
272,304,72544,1,0,0:0:0:0:
176,288,72726,2,0,P|128:256|112:232,1,75,8|0,0:0|0:0,0:0:0:0:
104,144,73090,1,0,0:0:0:0:
176,96,73271,1,0,0:0:0:0:
256,64,73453,1,8,0:0:0:0:
344,64,73635,5,8,0:0:0:0:
296,240,73999,1,8,0:0:0:0:
408,56,74362,1,8,0:0:0:0:
264,248,74726,1,8,0:0:0:0:
80,192,75090,5,0,0:0:0:0:
136,112,75271,2,0,P|176:88|208:80,1,75
304,72,75635,2,0,P|288:120|272:152,1,75,8|0,0:0|0:0,0:0:0:0:
192,184,75999,2,0,P|208:224|232:256,1,75
280,328,76362,2,0,B|312:304|336:272|336:272,1,75,8|0,0:0|0:0,0:0:0:0:
384,192,76726,2,0,P|352:160|336:128,1,75
368,40,77090,2,0,P|400:72|416:104,1,75,8|0,0:0|0:0,0:0:0:0:
432,192,77453,1,0,0:0:0:0:
360,232,77635,1,0,0:0:0:0:
280,248,77817,1,8,0:0:0:0:
200,240,77999,1,0,0:0:0:0:
120,216,78180,6,0,P|104:168|104:136,1,75
160,72,78544,2,0,P|200:64|240:64,1,75,8|0,0:0|0:0,0:0:0:0:
328,80,78908,1,0,0:0:0:0:
376,168,79090,1,0,0:0:0:0:
352,264,79271,2,0,P|304:288|280:296,1,75,8|0,0:0|0:0,0:0:0:0:
192,264,79635,2,0,P|224:232|256:216,1,75
336,168,79999,2,0,P|296:144|264:136,1,75,8|0,0:0|0:0,0:0:0:0:
168,136,80362,2,0,P|184:96|208:72,1,75
304,56,80726,1,8,0:0:0:0:
376,120,80908,1,0,0:0:0:0:
392,216,81090,6,0,P|320:256|176:272,1,225
88,240,81817,2,0,P|120:208|152:192,1,75
144,96,82180,2,0,P|192:120|224:144,1,75,8|0,0:0|0:0,0:0:0:0:
304,112,82544,1,0,0:0:0:0:
216,176,82726,1,0,0:0:0:0:
336,96,82908,1,8,0:0:0:0:
184,192,83090,1,0,0:0:0:0:
104,136,83271,2,0,P|88:176|80:208,1,75
64,304,83635,2,0,P|104:312|144:312,1,75,8|0,0:0|0:0,0:0:0:0:
224,272,83999,2,0,P|192:248|152:232,2,75,0|0|8,0:0|0:0|0:0,0:0:0:0:
320,288,84544,2,0,P|352:264|392:248,2,75
224,272,85090,5,8,0:0:0:0:
256,184,85271,1,8,0:0:0:0:
96,72,85635,1,8,0:0:0:0:
288,112,85999,1,8,0:0:0:0:
96,152,86362,1,8,0:0:0:0:
256,40,86726,1,8,0:0:0:0:
424,280,87271,6,8,P|376:288|336:288,1,75,8|0,0:0|0:0,0:0:0:0:
280,216,87635,2,0,P|240:208|192:208,1,75,8|0,0:0|0:0,0:0:0:0:
168,296,87999,2,0,P|128:296|88:288,1,75,8|0,0:0|0:0,0:0:0:0:
80,192,88362,2,0,P|80:136|88:104,1,75,8|0,0:0|0:0,0:0:0:0:
168,64,88726,2,0,P|208:56|248:56,1,75,8|0,0:0|0:0,0:0:0:0:
224,152,89090,2,0,P|280:152|320:144,1,75,8|0,0:0|0:0,0:0:0:0:
328,56,89453,2,0,P|368:56|416:64,1,75,8|0,0:0|0:0,0:0:0:0:
448,144,89817,2,0,P|448:184|440:224,1,75,8|0,0:0|0:0,0:0:0:0:
360,168,90180,2,0,P|360:128|368:88,1,75,8|0,0:0|0:0,0:0:0:0:
280,48,90544,6,0,P|232:56|192:56,1,75,8|0,0:0|0:0,0:0:0:0:
112,32,90908,2,0,P|104:80|104:120,1,75,8|0,0:0|0:0,0:0:0:0:
88,200,91271,1,8,0:0:0:0:
88,200,91453,1,0,0:0:0:0:
168,256,91635,1,8,0:0:0:0:
168,256,91817,2,0,P|208:272|248:272,1,75,0|8,0:0|0:0,0:0:0:0:
368,264,92180,5,0,1:0:0:0:
368,264,92271,1,0,1:0:0:0:
368,264,92362,1,0,1:0:0:0:
368,264,92453,1,0,1:0:0:0:
368,264,92544,2,0,P|352:216|352:184,1,75,0|8,1:0|0:0,0:0:0:0:
344,96,92908,1,0,0:0:0:0:
264,40,93090,2,0,P|224:48|184:48,1,75,8|0,0:0|0:0,0:0:0:0:
112,104,93453,2,0,P|120:144|120:192,1,75,8|0,0:0|0:0,0:0:0:0:
72,264,93817,6,0,P|112:296|144:312,1,75,8|0,0:0|0:0,0:0:0:0:
232,304,94180,2,0,P|248:264|256:224,1,75,8|0,0:0|0:0,0:0:0:0:
216,144,94544,2,0,P|272:144|304:152,1,75,8|0,0:0|0:0,0:0:0:0:
376,104,94908,2,0,P|384:144|384:192,1,75,8|0,0:0|0:0,0:0:0:0:
344,264,95271,1,0,1:0:0:0:
328,272,95362,1,0,1:0:0:0:
312,280,95453,1,0,1:0:0:0:
296,288,95544,1,0,1:0:0:0:
280,296,95635,1,4,1:0:0:0:
256,192,95726,12,2,98544,0:0:0:0:
256,192,104362,12,8,106908,0:0:0:0:
96,192,107271,6,0,P|128:160|152:144,1,75,8|0,0:0|0:0,0:0:0:0:
208,216,107635,2,0,P|232:176|240:144,1,75,8|0,0:0|0:0,0:0:0:0:
184,72,107999,2,0,P|232:56|272:56,1,75,8|0,0:0|0:0,0:0:0:0:
344,32,108362,2,0,P|360:72|392:104,1,75,8|0,0:0|0:0,0:0:0:0:
464,64,108726,2,0,P|464:120|456:144,1,75,8|0,0:0|0:0,0:0:0:0:
368,160,109090,2,0,P|392:200|432:224,1,75,8|0,0:0|0:0,0:0:0:0:
496,248,109453,2,0,P|464:280|432:296,1,75,8|0,0:0|0:0,0:0:0:0:
352,312,109817,2,0,P|296:320|256:320,1,75,8|0,0:0|0:0,0:0:0:0:
128,248,110180,6,0,P|152:216|168:184,1,75,8|0,0:0|0:0,0:0:0:0:
88,144,110544,2,0,P|128:112|160:104,1,75,8|0,0:0|0:0,0:0:0:0:
192,24,110908,2,0,P|240:40|256:56,1,75,8|0,0:0|0:0,0:0:0:0:
344,40,111271,2,0,P|352:88|344:128,1,75,8|0,0:0|0:0,0:0:0:0:
416,176,111635,1,8,0:0:0:0:
344,232,111817,1,0,0:0:0:0:
272,176,111999,1,0,0:0:0:0:
200,120,112180,5,8,0:0:0:0:
32,192,112544,1,8,0:0:0:0:
160,320,112908,1,8,0:0:0:0:
264,336,113090,2,0,P|304:320|344:312,1,75,8|0,0:0|0:0,0:0:0:0:
424,328,113453,2,0,P|432:288|432:240,1,75,8|0,0:0|0:0,0:0:0:0:
344,240,113817,2,0,P|336:192|336:144,1,75,8|0,0:0|0:0,0:0:0:0:
248,168,114180,2,0,P|240:120|240:88,1,75,8|0,0:0|0:0,0:0:0:0:
160,48,114544,6,0,P|136:80|112:136,1,75,8|0,0:0|0:0,0:0:0:0:
72,192,114908,2,0,P|104:224|136:248,1,75,8|0,0:0|0:0,0:0:0:0:
200,296,115271,2,0,P|240:272|272:248,1,75,8|0,0:0|0:0,0:0:0:0:
344,304,115635,2,0,P|352:256|352:216,1,75,8|0,0:0|0:0,0:0:0:0:
432,192,115999,2,0,P|368:136|296:104,1,150,8|8,0:0|0:0,0:0:0:0:
216,96,116544,1,8,0:0:0:0:
64,192,116908,1,8,0:0:0:0:
232,248,117271,1,8,0:0:0:0:
256,192,117453,12,8,118544,0:0:0:0:
112,192,118908,6,0,P|160:176|256:136,1,150,0|8,0:0|0:0,0:0:0:0:
328,88,119453,1,8,0:0:0:0:
408,128,119635,2,0,P|400:176|400:216,1,75
424,288,119999,2,0,P|384:280|336:280,1,75,8|0,0:0|0:0,0:0:0:0:
304,360,120362,2,0,P|272:320|248:304,1,75
160,296,120726,1,8,0:0:0:0:
160,296,120908,1,8,0:0:0:0:
88,240,121090,6,0,P|104:192|112:160,1,75
72,88,121453,2,0,P|112:80|152:64,1,75,8|0,0:0|0:0,0:0:0:0:
232,72,121817,2,0,P|272:88|304:112,1,75
232,168,122180,1,8,0:0:0:0:
232,168,122362,1,8,0:0:0:0:
232,256,122544,2,0,P|280:248|320:248,1,75
352,328,122908,2,0,P|392:304|416:280,1,75,8|0,0:0|0:0,0:0:0:0:
464,208,123271,2,0,P|432:176|392:152,1,75
336,112,123635,1,8,0:0:0:0:
256,72,123817,6,0,P|200:104|144:120,1,112.5,8|0,0:0|0:0,0:0:0:0:
112,112,124180,2,0,P|160:176|176:224,1,112.5,0|0,0:0|0:0,0:0:0:0:
184,248,124544,1,8,0:0:0:0:
256,304,124726,2,0,P|288:272|320:256,1,75
376,192,125090,1,8,0:0:0:0:
376,192,125271,1,8,0:0:0:0:
328,120,125453,2,0,P|288:96|264:72,1,75
176,72,125817,2,0,P|120:128|88:192,1,150,8|0,0:0|0:0,0:0:0:0:
112,280,126362,1,0,0:0:0:0:
200,312,126544,2,0,P|248:304|280:296,1,75,8|8,0:0|0:0,0:0:0:0:
360,320,126908,6,0,P|360:272|352:224,1,75
272,216,127271,2,0,P|256:176|248:64,1,150,8|0,0:0|0:0,0:0:0:0:
336,48,127817,1,0,0:0:0:0:
424,72,127999,2,0,P|408:120|384:152,1,75,8|0,0:0|0:0,0:0:0:0:
344,216,128362,2,0,P|368:248|384:288,1,75,8|8,0:0|0:0,0:0:0:0:
288,288,128726,1,0,0:0:0:0:
200,280,128908,1,8,0:0:0:0:
40,192,129271,6,0,P|72:160|96:144,1,75,0|8,0:0|0:0,0:0:0:0:
264,72,129817,1,8,0:0:0:0:
400,192,130180,1,8,0:0:0:0:
272,320,130544,2,0,P|232:304|200:288,1,75,8|0,0:0|0:0,0:0:0:0:
136,232,130908,1,8,0:0:0:0:
96,152,131090,1,0,0:0:0:0:
352,80,131635,5,8,0:0:0:0:
320,168,131817,1,0,0:0:0:0:
272,248,131999,2,0,P|232:256|184:272,1,75,8|0,0:0|0:0,0:0:0:0:
80,64,132726,2,0,P|120:56|160:56,1,75,8|0,0:0|0:0,0:0:0:0:
248,64,133090,1,8,0:0:0:0:
328,96,133271,1,0,0:0:0:0:
400,152,133453,2,0,B|360:216|360:216|288:240,1,150,8|8,0:0|0:0,0:0:0:0:
224,296,133999,2,0,B|160:248|160:248|128:168,1,150,0|8,0:0|0:0,0:0:0:0:
256,48,134726,1,8,0:0:0:0:
256,192,134908,12,0,137453,0:0:0:0:
256,192,137817,12,0,140362,0:0:0:0:
128,80,140726,6,0,P|160:112|192:136,1,75
272,104,141090,2,0,P|272:160|264:192,1,75,8|0,0:0|0:0,0:0:0:0:
184,208,141453,2,0,P|160:248|128:272,1,75
72,208,141817,2,0,P|40:248|32:288,1,75,8|0,0:0|0:0,0:0:0:0:
96,336,142180,2,0,P|136:344|176:336,1,75
224,264,142544,2,0,P|184:256|128:264,1,75,8|0,0:0|0:0,0:0:0:0:
56,264,142908,2,0,P|72:224|104:192,1,75
168,152,143271,2,0,P|208:176|256:192,1,75,8|0,0:0|0:0,0:0:0:0:
224,264,143635,2,0,P|255:300|286:326,1,75
368,312,143999,2,0,P|392:272|400:240,1,75,8|0,0:0|0:0,0:0:0:0:
408,152,144362,5,0,0:0:0:0:
344,88,144544,1,0,0:0:0:0:
256,56,144726,2,0,P|200:48|160:48,1,75,8|0,0:0|0:0,0:0:0:0:
112,112,145090,1,0,0:0:0:0:
168,192,145271,1,0,0:0:0:0:
80,104,145453,1,8,0:0:0:0:
200,200,145635,1,0,0:0:0:0:
192,288,145817,2,0,P|248:296|280:304,1,75
352,296,146180,2,0,P|368:256|384:224,1,75,8|0,0:0|0:0,0:0:0:0:
448,168,146544,6,0,P|336:112|232:96,1,225
160,56,147271,2,0,P|128:88|112:128,1,75
48,168,147635,2,0,P|80:216|104:232,1,75,8|0,0:0|0:0,0:0:0:0:
160,280,147999,2,0,P|224:296|256:296,1,75
304,240,148362,2,0,P|256:216|232:216,1,75,8|0,0:0|0:0,0:0:0:0:
144,192,148726,1,0,0:0:0:0:
184,120,148908,1,0,0:0:0:0:
264,96,149090,1,8,0:0:0:0:
336,128,149271,1,0,0:0:0:0:
384,192,149453,6,0,P|392:240|384:272,1,75
312,312,149817,2,0,P|304:272|304:232,1,75,8|0,0:0|0:0,0:0:0:0:
304,152,150180,2,0,P|256:144|224:144,1,75
144,152,150544,1,8,0:0:0:0:
72,192,150726,2,0,P|112:256|176:296,1,150,8|8,0:0|0:0,0:0:0:0:
336,280,151453,1,8,0:0:0:0:
400,128,151817,1,8,0:0:0:0:
248,72,152180,1,8,0:0:0:0:
160,104,152362,6,0,P|128:136|112:176,1,75
32,192,152726,2,0,P|64:224|96:240,1,75,8|0,0:0|0:0,0:0:0:0:
112,328,153090,2,0,P|160:296|176:272,1,75
248,248,153453,2,0,P|216:200|200:184,1,75,8|0,0:0|0:0,0:0:0:0:
136,128,153817,1,0,0:0:0:0:
200,64,153999,1,0,0:0:0:0:
104,136,154180,1,8,0:0:0:0:
232,56,154362,1,0,0:0:0:0:
320,64,154544,6,0,P|368:80|400:104,1,75
440,168,154908,2,0,P|416:200|392:224,1,75,8|0,0:0|0:0,0:0:0:0:
376,312,155271,2,0,P|296:288|224:288,1,150,0|8,0:0|0:0,0:0:0:0:
136,280,155817,1,0,0:0:0:0:
64,224,155999,2,0,P|80:160|80:136,1,75
48,72,156362,2,0,P|96:64|136:48,1,75,8|0,0:0|0:0,0:0:0:0:
208,40,156726,2,0,P|248:48|288:64,1,75
368,48,157090,2,0,P|384:96|392:128,1,75,8|0,0:0|0:0,0:0:0:0:
456,184,157453,2,0,P|416:200|360:208,1,75
304,160,157817,6,0,P|280:208|272:232,1,75,8|0,0:0|0:0,0:0:0:0:
320,304,158180,2,0,P|240:304|152:280,1,150,0|8,0:0|0:0,0:0:0:0:
88,256,158726,1,0,0:0:0:0:
32,184,158908,2,0,P|64:152|96:136,1,75
176,168,159271,2,0,P|144:200|112:216,1,75,8|0,0:0|0:0,0:0:0:0:
96,104,159635,2,0,P|128:136|144:168,1,75
112,248,159998,2,0,P|80:216|64:184,1,75,8|0,0:0|0:0,0:0:0:0:
24,112,160362,2,0,P|48:80|80:64,1,75
168,48,160726,2,0,P|216:64|248:64,1,75,8|0,0:0|0:0,0:0:0:0:
328,56,161090,5,0,0:0:0:0:
400,112,161271,1,0,0:0:0:0:
440,192,161453,2,0,P|392:200|360:200,1,75,8|0,0:0|0:0,0:0:0:0:
288,152,161817,2,0,P|248:176|224:200,1,75
152,248,162180,1,8,0:0:0:0:
224,304,162362,1,8,0:0:0:0:
368,192,162726,2,0,P|288:96|264:80,1,150,8|8,0:0|0:0,0:0:0:0:
88,104,163453,1,8,0:0:0:0:
112,280,163817,1,8,0:0:0:0:
384,264,164362,6,0,P|352:232|320:216,1,75,8|0,0:0|0:0,0:0:0:0:
376,144,164726,2,0,P|328:136|296:144,1,75,8|0,0:0|0:0,0:0:0:0:
272,56,165090,2,0,P|224:88|208:112,1,75,8|0,0:0|0:0,0:0:0:0:
128,80,165453,2,0,P|136:128|152:160,1,75,8|0,0:0|0:0,0:0:0:0:
72,208,165817,2,0,P|112:224|152:232,1,75,8|0,0:0|0:0,0:0:0:0:
136,320,166180,2,0,P|184:304|216:280,1,75,8|0,0:0|0:0,0:0:0:0:
288,312,166544,2,0,P|288:264|272:224,1,75,8|0,0:0|0:0,0:0:0:0:
200,192,166908,6,0,P|232:160|264:144,1,75,8|0,0:0|0:0,0:0:0:0:
344,168,167271,2,0,P|344:128|328:96,1,75,8|0,0:0|0:0,0:0:0:0:
248,56,167635,2,0,P|200:48|168:56,1,75,8|0,0:0|0:0,0:0:0:0:
88,72,167999,2,0,P|80:120|80:160,1,75,8|0,0:0|0:0,0:0:0:0:
144,216,168362,2,0,P|104:232|64:240,2,75,8|0|8,0:0|0:0|0:0,0:0:0:0:
192,136,168908,2,0,P|272:96|336:72,1,150,8|8,0:0|0:0,0:0:0:0:
416,104,169453,1,0,1:0:0:0:
416,104,169544,1,0,1:0:0:0:
416,104,169635,1,0,1:0:0:0:
416,104,169726,1,0,1:0:0:0:
416,104,169817,2,0,P|416:152|408:192,1,75,0|0,1:0|0:0,0:0:0:0:
416,272,170180,6,0,P|376:304|352:304,1,75,8|0,0:0|0:0,0:0:0:0:
264,320,170544,2,0,P|240:280|208:256,1,75,8|0,0:0|0:0,0:0:0:0:
136,288,170908,2,0,P|144:240|160:208,1,75,8|0,0:0|0:0,0:0:0:0:
80,168,171271,2,0,P|128:136|168:128,1,75,8|0,0:0|0:0,0:0:0:0:
184,48,171635,2,0,P|216:72|240:112,1,75,8|0,0:0|0:0,0:0:0:0:
320,72,171999,2,0,P|328:120|320:160,1,75,8|0,0:0|0:0,0:0:0:0:
320,240,172362,1,0,1:0:0:0:
304,248,172453,1,0,1:0:0:0:
288,256,172544,1,0,1:0:0:0:
272,264,172635,1,0,1:0:0:0:
256,272,172726,1,4,1:0:0:0:
256,192,172908,12,2,175635,0:0:0:0:
112,192,181453,6,0,P|152:160|184:144,1,75,8|0,0:0|0:0,0:0:0:0:
256,120,181817,1,8,0:0:0:0:
344,136,181999,1,0,0:0:0:0:
272,304,182544,2,0,P|240:280|216:256,1,75,8|0,0:0|0:0,0:0:0:0:
128,264,182908,1,8,0:0:0:0:
80,184,183090,1,0,0:0:0:0:
264,64,183635,5,8,0:0:0:0:
264,64,183817,1,0,0:0:0:0:
352,88,183999,1,8,0:0:0:0:
352,88,184180,1,0,0:0:0:0:
424,144,184362,2,0,P|416:184|400:216,1,75,8|0,0:0|0:0,0:0:0:0:
328,272,184726,1,8,0:0:0:0:
240,304,184908,1,0,0:0:0:0:
16,184,185453,6,0,P|48:144|72:128,1,75,8|0,0:0|0:0,0:0:0:0:
144,80,185817,1,8,0:0:0:0:
184,160,185999,1,0,0:0:0:0:
336,96,186544,2,0,P|400:112|416:128,1,75,8|0,0:0|0:0,0:0:0:0:
464,200,186908,1,8,0:0:0:0:
416,280,187090,1,0,0:0:0:0:
320,304,187271,2,0,B|240:312|240:312|160:296,1,150,0|8,0:0|0:0,0:0:0:0:
72,288,187817,1,0,0:0:0:0:
96,192,187999,6,0,P|160:144|216:88,1,150,0|8,0:0|0:0,0:0:0:0:
256,8,188544,1,0,0:0:0:0:
328,88,188726,2,0,P|272:160|240:224,1,150,0|8,0:0|0:0,0:0:0:0:
296,288,189271,1,0,0:0:0:0:
376,248,189453,2,0,P|424:176|440:112,1,150,0|8,0:0|0:0,0:0:0:0:
368,56,189999,1,0,0:0:0:0:
280,64,190180,2,0,P|240:64|200:72,1,75
112,64,190544,2,0,P|96:112|88:144,1,75,8|0,0:0|0:0,0:0:0:0:
48,216,190908,2,0,P|80:240|112:256,1,75
176,320,191271,2,0,P|208:280|224:248,1,75,8|0,0:0|0:0,0:0:0:0:
176,176,191635,6,0,P|232:160|256:160,1,75
320,104,191999,2,0,P|352:176|360:248,1,150,8|0,0:0|0:0,0:0:0:0:
296,312,192544,1,0,0:0:0:0:
216,280,192726,2,0,P|128:232|88:192,1,150,8|0,0:0|0:0,0:0:0:0:
56,112,193271,1,0,0:0:0:0:
136,64,193453,2,0,P|184:48|208:48,1,75,8|0,0:0|0:0,0:0:0:0:
256,120,193817,2,0,P|296:104|320:80,1,75,0|0,0:0|0:0,0:0:0:0:
392,32,194180,2,0,P|424:64|440:96,1,75,8|0,0:0|0:0,0:0:0:0:
432,184,194544,1,0,0:0:0:0:
392,264,194726,1,0,0:0:0:0:
312,304,194908,6,0,P|248:328|224:328,1,75,8|0,0:0|0:0,0:0:0:0:
160,296,195271,2,0,P|184:256|192:208,1,75
120,176,195635,1,8,0:0:0:0:
176,104,195817,1,0,0:0:0:0:
232,32,195999,2,0,P|312:48|384:48,1,150,8|8,0:0|0:0,0:0:0:0:
440,112,196544,1,0,0:0:0:0:
408,192,196726,2,0,P|336:232|280:288,1,150,8|8,0:0|0:0,0:0:0:0:
200,280,197271,1,0,0:0:0:0:
120,248,197453,2,8,P|144:160|144:96,1,150,8|8,0:0|0:0,0:0:0:0:
224,56,197999,5,0,0:0:0:0:
304,104,198180,2,0,P|336:136|368:152,1,75,8|0,0:0|0:0,0:0:0:0:
312,224,198544,2,0,P|360:240|400:240,1,75,8|0,0:0|0:0,0:0:0:0:
384,240,199271,2,0,P|376:143|347:175,1,225
304,88,199999,2,0,P|264:56|224:48,1,75,8|0,0:0|0:0,0:0:0:0:
144,64,200362,1,0,0:0:0:0:
80,128,200544,1,0,0:0:0:0:
64,216,200726,2,0,P|96:240|128:256,1,75,8|0,0:0|0:0,0:0:0:0:
200,304,201090,2,0,P|232:272|256:240,1,75
184,192,201453,2,0,P|224:160|248:152,1,75,8|0,0:0|0:0,0:0:0:0:
272,144,201726,1,0,0:0:0:0:
304,144,201817,1,0,0:0:0:0:
368,208,201999,5,0,0:0:0:0:
328,288,202180,2,0,P|272:304|248:304,1,75,8|0,0:0|0:0,0:0:0:0:
168,272,202544,2,0,P|176:232|176:192,1,75
112,128,202908,2,0,P|152:112|184:88,1,75,8|0,0:0|0:0,0:0:0:0:
248,40,203271,2,0,P|280:64|312:80,1,75
400,104,203635,2,0,P|376:144|368:176,1,75,8|0,0:0|0:0,0:0:0:0:
344,256,203999,2,0,P|304:256|264:272,1,75
184,280,204362,1,8,0:0:0:0:
184,280,204453,1,0,0:0:0:0:
184,280,204544,1,0,0:0:0:0:
104,232,204726,6,0,P|112:192|112:144,1,75
32,112,205090,2,0,P|72:80|112:64,1,75,8|0,0:0|0:0,0:0:0:0:
176,40,205453,2,0,P|216:56|248:64,1,75
328,96,205817,2,0,P|296:128|264:144,1,75,8|0,0:0|0:0,0:0:0:0:
176,144,206180,2,0,P|184:192|208:224,1,75
224,296,206544,2,0,P|272:264|288:240,1,75,8|0,0:0|0:0,0:0:0:0:
328,168,206908,1,0,0:0:0:0:
392,224,207090,1,0,0:0:0:0:
368,312,207271,1,8,0:0:0:0:
280,344,207453,1,0,0:0:0:0:
200,304,207635,6,0,P|176:256|160:232,1,75,8|0,0:0|0:0,0:0:0:0:
72,248,207999,2,0,P|56:192|56:144,1,75,8|0,0:0|0:0,0:0:0:0:
96,96,208362,1,0,0:0:0:0:
96,96,208544,1,0,0:0:0:0:
184,64,208726,2,0,P|232:48|264:48,1,75,8|0,0:0|0:0,0:0:0:0:
280,136,209090,2,0,P|328:128|360:112,1,75,8|0,0:0|0:0,0:0:0:0:
440,120,209453,2,0,P|440:168|432:208,1,75,8|0,0:0|0:0,0:0:0:0:
440,288,209817,2,0,P|376:304|352:304,1,75,8|0,0:0|0:0,0:0:0:0:
280,280,210180,1,0,0:0:0:0:
280,280,210271,1,0,0:0:0:0:
280,280,210362,1,0,0:0:0:0:
192,280,210544,6,0,P|152:272|112:256,1,75,8|0,0:0|0:0,0:0:0:0:
40,216,210908,2,0,P|56:160|80:128,1,75,8|0,0:0|0:0,0:0:0:0:
136,96,211271,1,0,0:0:0:0:
136,96,211453,1,0,0:0:0:0:
224,88,211635,2,0,P|264:88|304:72,1,75,8|0,0:0|0:0,0:0:0:0:
384,80,211999,2,0,P|376:128|352:160,1,75,8|0,0:0|0:0,0:0:0:0:
376,240,212362,1,0,0:0:0:0:
376,240,212544,1,0,0:0:0:0:
312,296,212726,6,0,P|256:312|224:312,1,75,8|0,0:0|0:0,0:0:0:0:
160,264,213090,2,0,P|192:232|224:216,1,75,8|0,0:0|0:0,0:0:0:0:
296,168,213453,1,8,0:0:0:0:
224,112,213635,1,0,0:0:0:0:
136,128,213817,2,0,P|96:104|80:80,1,75,8|0,0:0|0:0,0:0:0:0:
160,40,214180,2,0,P|208:32|248:32,1,75,8|0,0:0|0:0,0:0:0:0:
320,56,214544,2,0,P|344:96|376:120,1,75,8|0,0:0|0:0,0:0:0:0:
256,192,214908,12,2,216362,0:0:0:0:
88,192,222180,5,8,0:0:0:0:
192,144,222362,1,8,0:0:0:0:
256,232,222544,1,8,0:0:0:0:
472,72,223090,2,0,P|424:64|384:64,1,75,8|0,0:0|0:0,0:0:0:0:
216,72,223635,1,8,0:0:0:0:
288,160,223817,1,8,0:0:0:0:
208,240,223999,1,8,0:0:0:0:
416,304,224544,6,8,L|376:288,2,37.5
344,88,225090,1,8,0:0:0:0:
288,184,225271,1,8,0:0:0:0:
184,224,225453,1,8,0:0:0:0:
56,56,225999,5,8,0:0:0:0:
112,224,226362,1,8,0:0:0:0:
288,280,226726,1,8,0:0:0:0:
384,128,227090,2,8,P|296:152|240:192,1,150
80,128,227817,2,0,P|168:80|296:64,1,225,0|8,0:0|0:0,0:0:0:0:
376,96,228544,5,0,0:0:0:0:
408,176,228726,2,0,P|376:216|352:240,1,75
328,320,229090,2,0,P|288:304|248:304,1,75,8|0,0:0|0:0,0:0:0:0:
168,280,229453,2,0,P|136:232|120:216,1,75,0|0,0:0|0:0,0:0:0:0:
48,176,229817,2,0,P|96:136|112:120,1,75,8|0,0:0|0:0,0:0:0:0:
184,88,230180,1,0,0:0:0:0:
272,72,230362,1,0,0:0:0:0:
152,80,230544,1,8,0:0:0:0:
304,80,230726,1,0,0:0:0:0:
392,112,230908,6,0,P|416:160|432:200,1,75
384,264,231271,1,8,0:0:0:0:
296,288,231453,1,0,0:0:0:0:
208,280,231635,2,0,P|152:256|128:240,1,75
48,240,231999,2,0,P|40:184|40:152,1,75,8|0,0:0|0:0,0:0:0:0:
96,96,232362,2,0,P|112:136|112:184,1,75
0,144,232726,2,0,P|56:136|88:136,1,75,8|0,0:0|0:0,0:0:0:0:
144,192,233089,2,0,P|104:208|56:208,1,75
24,288,233453,2,0,P|64:304|96:304,1,75,8|0,0:0|0:0,0:0:0:0:
128,304,233726,1,0,0:0:0:0:
160,296,233817,1,0,0:0:0:0:
248,264,233999,5,0,0:0:0:0:
312,200,234180,2,0,P|352:176|384:168,1,75,8|0,0:0|0:0,0:0:0:0:
440,104,234544,2,0,P|392:80|360:72,1,75
280,64,234908,2,0,P|208:72|192:80,1,75,8|0,0:0|0:0,0:0:0:0:
128,112,235271,2,0,P|104:168|104:192,1,75
32,232,235635,2,0,P|72:272|120:288,1,75,8|0,0:0|0:0,0:0:0:0:
160,336,235999,2,0,P|184:296|192:264,1,75
128,208,236362,2,0,P|176:184|208:184,1,75,8|0,0:0|0:0,0:0:0:0:
240,104,236726,2,0,P|272:144|288:184,1,75
264,256,237090,5,8,0:0:0:0:
344,280,237271,1,0,0:0:0:0:
416,240,237453,1,0,0:0:0:0:
440,160,237635,1,0,0:0:0:0:
408,88,237817,2,0,P|360:64|328:64,1,75,8|8,0:0|0:0,0:0:0:0:
160,96,238362,1,8,0:0:0:0:
128,272,238726,1,8,0:0:0:0:
304,304,239090,1,8,0:0:0:0:
416,160,239453,1,8,0:0:0:0:
152,216,239999,6,0,P|144:256|144:296,1,75,8|0,0:0|0:0,0:0:0:0:
152,216,240362,2,0,P|111:218|72:228,1,75,8|0,0:0|0:0,0:0:0:0:
152,216,240726,2,0,P|138:177|118:142,1,75,8|0,0:0|0:0,0:0:0:0:
72,72,241090,2,0,P|128:56|160:56,1,75,8|0,0:0|0:0,0:0:0:0:
216,112,241453,2,0,P|256:120|288:144,1,75,8|0,0:0|0:0,0:0:0:0:
296,232,241817,2,0,P|352:216|368:200,1,75,8|0,0:0|0:0,0:0:0:0:
432,144,242180,2,0,P|400:112|368:96,1,75,8|0,0:0|0:0,0:0:0:0:
296,48,242544,2,0,P|248:40|192:40,1,75,8|0,0:0|0:0,0:0:0:0:
128,48,242908,6,0,P|112:104|112:144,1,75,8|0,0:0|0:0,0:0:0:0:
40,184,243271,2,0,P|64:216|96:240,1,75,8|0,0:0|0:0,0:0:0:0:
112,328,243635,2,0,P|176:312|208:296,1,75,8|0,0:0|0:0,0:0:0:0:
272,280,243999,1,8,0:0:0:0:
336,224,244180,1,0,0:0:0:0:
360,144,244362,1,8,0:0:0:0:
328,72,244544,1,0,0:0:0:0:
248,40,244726,2,0,P|208:48|168:72,1,75,8|0,0:0|0:0,0:0:0:0:
128,128,245090,5,0,1:0:0:0:
128,128,245180,1,0,1:0:0:0:
128,128,245271,1,0,1:0:0:0:
128,128,245362,1,0,1:0:0:0:
128,128,245453,2,0,P|104:176|104:208,1,75,0|0,1:0|0:0,0:0:0:0:
104,280,245817,2,0,P|144:280|184:272,1,75,8|0,0:0|0:0,0:0:0:0:
192,192,246180,2,0,P|232:176|264:176,1,75,8|0,0:0|0:0,0:0:0:0:
272,256,246544,2,0,P|304:296|328:312,1,75,8|0,0:0|0:0,0:0:0:0:
408,328,246908,2,0,P|416:288|408:248,1,75,8|0,0:0|0:0,0:0:0:0:
344,208,247271,6,0,P|368:176|400:160,1,75,8|0,0:0|0:0,0:0:0:0:
456,104,247635,2,0,P|424:80|384:64,1,75,8|0,0:0|0:0,0:0:0:0:
312,64,247999,1,0,1:0:0:0:
312,64,248090,1,0,1:0:0:0:
312,64,248180,1,0,1:0:0:0:
312,64,248271,1,0,1:0:0:0:
312,64,248362,2,0,P|240:72|216:64,1,75,4|0,1:0|0:0,0:0:0:0:
152,40,248726,6,0,P|104:58|59:88,1,75,8|0,0:0|0:0,0:0:0:0:
48,160,249090,2,0,P|72:208|88:232,1,75,8|0,0:0|0:0,0:0:0:0:
160,280,249453,2,0,P|168:224|160:192,1,75,8|0,0:0|0:0,0:0:0:0:
128,128,249817,2,0,P|176:112|208:112,1,75,8|0,0:0|0:0,0:0:0:0:
240,32,250180,2,0,P|288:56|312:88,1,75,8|0,0:0|0:0,0:0:0:0:
392,72,250544,2,0,P|400:112|400:160,1,75,8|0,0:0|0:0,0:0:0:0:
480,184,250908,2,0,P|456:224|424:248,1,75,8|0,0:0|0:0,0:0:0:0:
408,256,251180,1,0,0:0:0:0:
376,264,251271,1,0,0:0:0:0:
280,304,251453,5,0,0:0:0:0:
176,312,251635,2,0,P|144:280|128:248,1,75,8|0,0:0|0:0,0:0:0:0:
48,224,251999,2,0,P|80:184|112:168,1,75,8|0,0:0|0:0,0:0:0:0:
144,96,252362,2,0,P|184:128|192:160,1,75,8|0,0:0|0:0,0:0:0:0:
280,176,252726,2,0,P|248:216|216:232,1,75,8|0,0:0|0:0,0:0:0:0:
280,304,253090,2,0,P|336:296|360:288,1,75,8|0,0:0|0:0,0:0:0:0:
408,216,253453,1,8,0:0:0:0:
432,128,253635,1,0,0:0:0:0:
368,64,253817,2,0,P|320:56|280:56,1,75,8|0,0:0|0:0,0:0:0:0:
264,56,254090,1,0,0:0:0:0:
232,64,254180,1,0,0:0:0:0:
152,104,254362,5,0,0:0:0:0:
80,160,254544,2,0,P|72:208|72:248,1,75,8|0,0:0|0:0,0:0:0:0:
144,288,254908,1,8,0:0:0:0:
232,304,255090,1,0,0:0:0:0:
312,256,255271,2,0,P|352:224|368:192,1,75,8|0,0:0|0:0,0:0:0:0:
328,120,255635,1,8,0:0:0:0:
256,176,255817,1,0,0:0:0:0:
168,192,255999,2,0,P|128:168|112:144,1,75,8|0,0:0|0:0,0:0:0:0:
152,64,256362,6,0,P|192:56|232:56,1,75,8|0,0:0|0:0,0:0:0:0:
320,56,256726,2,0,P|368:64|400:80,1,75,8|0,0:0|0:0,0:0:0:0:
408,160,257090,2,0,P|352:224|296:256,1,150,8|8,0:0|0:0,0:0:0:0:
216,288,257635,1,0,0:0:0:0:
128,264,257817,2,0,P|96:184|88:112,1,150,8|0,0:0|0:0,0:0:0:0:
160,64,258362,1,0,0:0:0:0:
248,64,258544,2,0,P|288:80|320:80,1,75,8|0,0:0|0:0,0:0:0:0:
392,136,258908,2,0,P|360:176|352:200,1,75,8|0,0:0|0:0,0:0:0:0:
408,272,259271,2,0,P|328:296|256:304,1,150,8|8,0:0|0:0,0:0:0:0:
176,264,259817,1,0,0:0:0:0:
112,192,259999,6,0,P|88:152|64:128,1,75,8|0,0:0|0:0,0:0:0:0:
136,80,260362,2,0,P|176:72|224:64,1,75,8|0,0:0|0:0,0:0:0:0:
256,144,260726,2,0,P|296:112|312:88,1,75,8|0,0:0|0:0,0:0:0:0:
360,168,261090,2,0,P|352:208|360:248,1,75,8|0,0:0|0:0,0:0:0:0:
272,256,261453,2,0,P|240:280|192:296,1,75,8|0,0:0|0:0,0:0:0:0:
168,208,261817,2,0,P|120:184|88:160,1,75,8|0,0:0|0:0,0:0:0:0:
80,88,262180,2,0,P|136:88|176:80,1,75,8|0,0:0|0:0,0:0:0:0:
240,56,262544,2,0,P|264:96|288:120,1,75,8|0,0:0|0:0,0:0:0:0:
256,200,262908,6,0,P|320:200|352:184,1,75,8|0,0:0|0:0,0:0:0:0:
416,184,263271,2,0,P|400:248|384:272,1,75,8|0,0:0|0:0,0:0:0:0:
208,288,263635,2,0,P|184:248|152:224,1,75,8|0,0:0|0:0,0:0:0:0:
80,192,263999,2,0,P|112:160|144:136,1,75,8|0,0:0|0:0,0:0:0:0:
176,64,264362,2,0,P|232:80|264:80,1,75,8|0,0:0|0:0,0:0:0:0:
248,168,264726,2,0,P|288:176|328:192,1,75,8|0,0:0|0:0,0:0:0:0:
400,152,265090,2,0,P|408:192|408:240,1,75,8|0,0:0|0:0,0:0:0:0:
344,288,265453,2,0,P|304:304|272:312,1,75,8|0,0:0|0:0,0:0:0:0:
192,280,265817,6,0,P|152:312|128:320,2,75,8|0|8,0:0|0:0|0:0,0:0:0:0:
256,216,266362,2,0,P|288:176|320:80,1,150
232,48,266908,2,0,P|176:64|160:80,1,75,8|0,0:0|0:0,0:0:0:0:
112,144,267271,2,0,P|72:128|48:96,2,75,8|0|8,0:0|0:0|0:0,0:0:0:0:
200,136,267817,2,0,P|256:192|296:264,1,150
352,320,268362,2,0,P|384:288|400:248,1,75,8|0,0:0|0:0,0:0:0:0:
400,176,268726,5,8,0:0:0:0:
352,112,268908,1,0,0:0:0:0:
272,80,269090,1,8,0:0:0:0:
192,88,269271,1,0,0:0:0:0:
88,240,269635,5,0,0:0:0:0:
192,264,269817,1,8,0:0:0:0:
176,160,269999,1,0,0:0:0:0:
344,216,270362,5,0,0:0:0:0:
256,152,270544,1,8,0:0:0:0:
344,96,270726,1,0,0:0:0:0:
168,56,271090,5,0,0:0:0:0:
104,112,271271,1,8,0:0:0:0:
248,216,271635,6,0,P|280:184|296:160,1,75,2|0,0:0|0:0,0:0:0:0:
328,248,271999,2,0,P|352:288|376:304,1,75,2|0,0:0|0:0,0:0:0:0:
176,120,272726,6,0,P|152:80|128:56,1,75,2|0,0:0|0:0,0:0:0:0:
208,184,273090,2,0,P|232:216|264:240,1,75,2|0,0:0|0:0,0:0:0:0:
384,96,273817,6,0,P|416:72|440:48,1,75,2|0,0:0|0:0,0:0:0:0:
312,128,274180,2,0,P|288:160|272:200,1,75,2|0,0:0|0:0,0:0:0:0:
256,192,274908,12,2,277817,0:0:0:0:
256,192,277908,12,2,283271,0:0:0:0:
