osu file format v12

[General]
AudioFilename: 10 Soshite Kimi to Koi wo Suru.mp3
AudioLeadIn: 0
PreviewTime: 140726
Countdown: 1
SampleSet: Normal
StackLeniency: 0.7
Mode: 0
LetterboxInBreaks: 1
WidescreenStoryboard: 1

[Editor]
DistanceSpacing: 1
BeatDivisor: 4
GridSize: 8

[Metadata]
Title:Soshite Kimi to Koi wo Suru
TitleUnicode:そして君と恋をする
Artist:Konjiki no Yami & Momo & Lala & Nana
ArtistUnicode:金色の闇&モモ&ララ&ナナ
Creator:[ B e a r ]
Version:Easy
Source:To LOVEる -とらぶる- ダークネス
Tags:Konjiki no Yami Momo Velia Lala Satalin Nana Astar Deviluke Yuuki Rito Character Album Darkness Trouble Toraburu toloveru Fukuen Misato Toyosaki Aki Tomatsu Haruka Itou Kanae
BeatmapID:360639
BeatmapSetID:144474

[Difficulty]
HPDrainRate:2
CircleSize:3
OverallDifficulty:2
ApproachRate:4
SliderMultiplier:1
SliderTickRate:2

[Events]
//Background and Video events
0,0,"BG.jpg",0,0
//Break Periods
2,30017,31770
2,95834,105951
2,172926,180133
2,216562,220860
2,248562,258679
//Storyboard Layer 0 (Background)
//Storyboard Layer 1 (Fail)
//Storyboard Layer 2 (Pass)
//Storyboard Layer 3 (Foreground)
//Storyboard Sound Samples
//Background Colour Transformations
3,100,163,162,255

[TimingPoints]
1090,363.636363636364,4,2,0,100,1,0
1090,-133.333333333333,4,2,0,75,0,0
10544,-133.333333333333,4,2,0,75,0,0
12726,-133.333333333333,4,2,0,75,0,0
15090,-100,4,1,0,75,0,0
32362,-100,4,1,0,75,0,0
63635,-100,4,1,0,75,0,1
95635,-100,4,2,0,75,0,0
107271,-133.333333333333,4,2,0,75,0,0
118908,-100,4,1,0,75,0,0
140726,-100,4,1,0,75,0,1
172726,-100,4,1,0,75,0,0
216362,-133.333333333333,4,2,0,75,0,0
222180,-100,4,1,0,75,0,0
227817,-100,4,1,0,75,0,1
248362,-100,4,1,0,75,0,0
271635,-100,4,2,0,75,0,0

[Colours]
Combo1 : 255,128,128
Combo2 : 255,0,255
Combo3 : 255,255,0
Combo4 : 255,128,192
Combo5 : 0,255,255

[HitObjects]
112,112,1090,2,0,P|256:72|400:112,1,300.000011444092
256,192,3271,1,0,0:0:0:0:
112,272,3999,2,0,P|256:312|400:272,1,300.000011444092
256,192,6180,1,0,0:0:0:0:
176,48,6908,6,0,P|136:192|176:336,1,300.000011444092
256,192,9090,1,0,0:0:0:0:
336,48,9817,2,0,P|376:192|336:336,1,300.000011444092
256,192,11999,1,0,0:0:0:0:
256,192,12726,12,0,15271,0:0:0:0:
88,192,15635,6,0,P|168:144|272:120,1,200
368,152,16726,1,8,0:0:0:0:
384,248,17090,2,0,P|312:256|264:256,1,100,0|8,0:0|0:0,0:0:0:0:
184,256,17817,2,0,P|136:208|112:176,1,100,0|8,0:0|0:0,0:0:0:0:
80,88,18544,2,0,P|184:64|280:88,1,200
352,144,19635,5,8,0:0:0:0:
408,232,19999,2,0,P|344:248|296:248,1,100,0|8,0:0|0:0,0:0:0:0:
216,280,20726,2,0,P|168:248|136:208,1,100,0|8,0:0|0:0,0:0:0:0:
64,152,21453,2,0,P|160:104|256:72,1,200
344,104,22544,1,8,0:0:0:0:
400,192,22908,2,0,P|296:256|208:288,1,200
120,288,23999,5,8,0:0:0:0:
96,192,24362,2,0,P|160:176|208:160,1,100,0|8,0:0|0:0,0:0:0:0:
224,72,25090,2,0,P|280:96|336:96,1,100,0|8,0:0|0:0,0:0:0:0:
400,160,25817,2,0,P|320:240|272:272,1,150,0|8,0:0|0:0,0:0:0:0:
152,280,26726,1,8,0:0:0:0:
256,192,27271,12,0,29817,0:0:0:0:
176,64,33090,6,0,P|232:80|272:96,3,100,0|8|0|8,0:0|0:0|0:0|0:0,0:0:0:0:
368,64,34544,2,0,P|392:168|392:264,1,200
304,304,35635,1,8,0:0:0:0:
208,296,35999,2,0,P|144:272|112:248,1,100,0|8,0:0|0:0,0:0:0:0:
72,168,36726,2,0,P|120:120|152:104,1,100,0|8,0:0|0:0,0:0:0:0:
224,48,37453,6,0,P|320:96|392:160,1,200
400,256,38544,1,8,0:0:0:0:
312,312,38908,2,0,P|192:288|120:248,1,200
200,192,39999,1,8,0:0:0:0:
120,128,40362,2,0,P|232:78|313:70,1,200
400,112,41453,5,8,0:0:0:0:
432,208,41817,2,0,P|368:248|296:272,1,150
200,280,42726,2,0,P|240:200|256:176,1,100,8|0,0:0|0:0,0:0:0:0:
256,192,43271,12,0,44362,0:0:0:0:
336,320,44726,2,0,P|280:304|240:288,3,100,0|8|0|8,0:0|0:0|0:0|0:0,0:0:0:0:
144,320,46180,2,0,P|120:216|120:120,1,200
208,80,47271,1,8,0:0:0:0:
304,88,47635,2,0,P|368:112|400:136,1,100,0|8,0:0|0:0,0:0:0:0:
440,216,48362,2,0,P|392:264|360:280,1,100,0|8,0:0|0:0,0:0:0:0:
288,336,49089,6,0,P|192:288|120:224,1,200
112,128,50180,1,8,0:0:0:0:
200,72,50544,2,0,P|320:96|392:136,1,200
312,192,51635,1,8,0:0:0:0:
392,256,51998,2,0,P|279:305|198:313,1,200
112,272,53089,5,8,0:0:0:0:
80,176,53453,2,0,P|144:136|216:112,1,150
312,104,54362,2,0,P|272:184|256:208,1,100,8|0,0:0|0:0,0:0:0:0:
176,312,55271,6,0,P|128:272|88:232,2,100,0|8|0,0:0|0:0|0:0,0:0:0:0:
280,312,56362,2,0,P|341:297|394:277,2,100,0|8|0,0:0|0:0|0:0,0:0:0:0:
184,288,57453,2,0,P|124:273|71:253,2,100,0|8|0,0:0|0:0|0:0,0:0:0:0:
216,192,58544,2,0,P|184:128|160:96,2,100
312,176,59635,2,0,P|336:192|352:216,1,50,8|0,0:0|0:0,0:0:0:0:
424,272,60180,2,0,P|376:320|336:336,1,100,8|8,0:0|0:0,0:0:0:0:
256,192,60726,12,0,63271,0:0:0:0:
184,136,63635,2,0,P|136:176|112:224,3,100,0|8|0|8,0:0|0:0|0:0|0:0,0:0:0:0:
144,304,65090,2,0,P|208:304|248:296,3,100,0|8|0|8,0:0|0:0|0:0|0:0,0:0:0:0:
336,264,66544,2,0,P|360:216|368:168,1,100,0|8,0:0|0:0,0:0:0:0:
384,72,67271,2,0,P|312:56|272:56,1,100,0|8,0:0|0:0,0:0:0:0:
184,64,67999,2,0,P|104:144|56:224,1,200
120,296,69090,5,8,0:0:0:0:
216,312,69453,2,0,B|264:296|264:296|280:248|280:248|328:232|328:232|344:184|344:184,1,200
344,88,70544,1,8,0:0:0:0:
248,80,70908,2,0,B|200:96|200:96|184:144|184:144|136:160|136:160|120:208|120:208,1,200
184,280,71999,5,8,0:0:0:0:
288,264,72362,2,0,L|408:96,1,200
336,32,73453,1,8,0:0:0:0:
280,120,73817,2,0,L|160:288,1,200
64,272,74908,5,8,0:0:0:0:
40,184,75271,2,0,P|136:128|224:96,1,200
320,72,76362,1,8,0:0:0:0:
400,128,76726,2,0,P|360:160|304:160,3,100,0|8|0|8,0:0|0:0|0:0|0:0,0:0:0:0:
216,112,78180,2,0,B|168:144|168:144|168:200|168:200|136:224|136:224|136:272|136:272,1,200
224,320,79271,5,8,0:0:0:0:
320,296,79635,2,0,P|360:256|392:208,3,100,0|8|0|8,0:0|0:0|0:0|0:0,0:0:0:0:
368,120,81090,2,0,P|256:96|168:104,1,200
112,192,82180,1,8,0:0:0:0:
152,280,82544,2,0,B|256:304|256:304|352:280,1,200
400,192,83635,5,8,0:0:0:0:
360,104,83999,2,0,B|256:80|256:80|160:104,1,200
104,192,85090,2,0,P|128:248|152:288,1,100,8|0,0:0|0:0,0:0:0:0:
240,312,85817,2,0,P|304:304|336:280,1,100,8|0,0:0|0:0,0:0:0:0:
408,216,86544,6,0,P|416:160|408:112,1,100,8|0,0:0|0:0,0:0:0:0:
320,64,87271,2,0,P|248:56|200:64,3,100,8|8|8|8,0:0|0:0|0:0|0:0,0:0:0:0:
136,112,88726,2,0,P|112:192|112:224,3,100,8|8|8|8,0:0|0:0|0:0|0:0,0:0:0:0:
176,288,90180,2,0,P|216:240|232:184,3,100,8|8|8|8,0:0|0:0|0:0|0:0,0:0:0:0:
240,104,91635,5,8,0:0:0:0:
336,80,91999,1,8,0:0:0:0:
416,136,92362,2,0,P|424:192|416:240,1,100,8|8,0:0|0:0,0:0:0:0:
320,256,93090,2,8,P|278:204|261:168,3,100
208,88,94544,2,0,P|157:104|111:138,3,100,8|8|8|12,0:0|0:0|0:0|1:0,0:0:0:0:
80,192,107271,6,0,P|152:160|224:152,1,150.000005722046,8|8,0:0|0:0,0:0:0:0:
320,160,108362,1,8,0:0:0:0:
400,216,108726,2,8,P|336:280|272:312,1,150.000005722046
184,296,109817,1,8,0:0:0:0:
104,248,110180,2,0,B|104:168|104:168|152:104,1,150.000005722046,8|8,0:0|0:0,0:0:0:0:
240,88,111271,1,8,0:0:0:0:
336,104,111635,2,8,B|376:168|376:168|384:248,1,150.000005722046
296,280,112726,5,8,0:0:0:0:
200,312,113090,2,8,P|160:240|144:168,1,150.000005722046
208,104,114180,1,8,0:0:0:0:
288,160,114544,2,8,P|336:96|400:48,1,150.000005722046
464,120,115635,6,8,P|464:176|456:208,1,75.0000028610231
384,296,116544,2,8,L|336:296|296:296,1,75.0000028610231
224,296,117271,1,8,0:0:0:0:
80,280,117817,2,0,P|112:328|128:344,2,75.0000028610231,0|8|8,1:0|1:0|1:0,0:0:0:0:
32,184,118908,6,0,P|88:160|128:152,1,100,0|8,0:0|0:0,0:0:0:0:
184,64,119635,2,0,P|240:80|280:96,1,100,0|8,0:0|0:0,0:0:0:0:
368,64,120362,2,0,P|368:176|392:264,1,200
304,304,121453,1,8,0:0:0:0:
208,296,121817,2,0,P|160:264|112:248,1,100,0|8,0:0|0:0,0:0:0:0:
72,168,122544,2,0,P|136:128|152:104,1,100,0|8,0:0|0:0,0:0:0:0:
224,48,123271,6,0,B|280:48|280:48|304:88|352:112|352:112|360:160,1,200
400,256,124362,1,8,0:0:0:0:
312,320,124726,2,0,B|264:296|264:296|168:312|168:312|112:288,1,200
40,240,125817,1,8,0:0:0:0:
112,168,126180,2,0,B|160:152|160:152|208:168|208:168|256:152|256:152|304:168,1,200
384,112,127271,5,8,0:0:0:0:
432,200,127635,2,0,B|400:248|400:272|400:272|376:272|328:304,1,150
232,296,128544,2,0,B|216:272|200:256|200:256|208:232|208:208,1,100,8|0,0:0|0:0,0:0:0:0:
328,120,129453,2,0,P|376:96|432:88,2,100
232,80,130544,2,0,P|184:56|128:48,2,100
256,176,131635,2,0,P|224:224|176:256,2,100
160,160,132726,2,0,P|128:120|120:72,2,100
216,80,133817,2,0,P|240:72|280:72,1,50,8|0,0:0|0:0,0:0:0:0:
336,8,134362,2,0,P|360:56|360:104,1,100,0|8,0:0|0:0,0:0:0:0:
256,192,134908,12,0,137453,0:0:0:0:
256,192,137817,12,8,140362,0:0:0:0:
272,280,140726,6,0,P|320:264|384:256,3,100,0|8|0|8,0:0|0:0|0:0|0:0,0:0:0:0:
456,216,142180,2,0,P|424:176|368:168,3,100,0|8|0|8,0:0|0:0|0:0|0:0,0:0:0:0:
280,184,143635,2,0,P|272:136|304:96,1,100,0|8,0:0|0:0,0:0:0:0:
400,64,144362,2,0,L|432:168,1,100,0|8,0:0|0:0,0:0:0:0:
376,248,145090,2,0,B|328:272|328:272|288:248|288:248|240:272|184:256,1,200
88,256,146180,1,8,0:0:0:0:
144,176,146544,6,0,B|160:128|160:128|208:120|208:120|232:72|232:72|288:56,1,200
376,80,147635,1,8,0:0:0:0:
383,178,147999,2,0,B|344:216|352:272|352:272|296:272|272:320,1,200
208,240,149090,1,8,0:0:0:0:
136,312,149453,2,0,P|80:224|136:160,1,200
224,112,150544,1,8,0:0:0:0:
320,96,150908,2,0,B|368:112|368:112|384:160|384:160|360:208|376:264,1,200
296,320,151999,1,8,0:0:0:0:
200,288,152362,6,0,P|144:200|144:104,1,200
232,56,153453,1,8,0:0:0:0:
328,96,153817,2,0,L|432:80,1,100,0|8,0:0|0:0,0:0:0:0:
448,176,154544,2,0,L|344:192,1,100,0|8,0:0|0:0,0:0:0:0:
248,208,155271,2,0,B|216:248|208:296|208:296|152:304|112:336,1,200
64,248,156362,5,8,0:0:0:0:
104,152,156726,2,0,P|152:128|208:120,3,100,0|8|0|8,0:0|0:0|0:0|0:0,0:0:0:0:
200,224,158180,2,0,P|280:288|368:264,1,200
440,192,159271,1,8,0:0:0:0:
360,128,159635,2,0,B|256:104|256:104|160:128,1,200
96,192,160726,1,8,0:0:0:0:
152,272,161090,2,0,B|256:296|256:296|352:272,1,200
408,192,162181,2,0,P|384:136|360:96,1,100,8|0,0:0|0:0,0:0:0:0:
272,72,162908,2,0,P|216:80|176:104,1,100,8|0,0:0|0:0,0:0:0:0:
112,184,163635,5,8,0:0:0:0:
96,280,163999,1,0,0:0:0:0:
192,320,164362,2,0,P|264:328|312:320,3,100,8|8|8|8,0:0|0:0|0:0|0:0,0:0:0:0:
376,272,165817,2,0,P|400:192|400:160,3,100,8|8|8|8,0:0|0:0|0:0|0:0,0:0:0:0:
336,96,167271,2,0,P|296:144|280:200,3,100,8|8|8|8,0:0|0:0|0:0|0:0,0:0:0:0:
272,280,168726,5,8,0:0:0:0:
176,304,169090,1,8,0:0:0:0:
96,248,169453,2,0,P|88:192|96:144,1,100,8|8,0:0|0:0,0:0:0:0:
176,88,170181,2,0,P|240:72|280:72,1,100,8|8,0:0|0:0,0:0:0:0:
360,128,170908,2,0,P|368:192|360:232,1,100,8|8,0:0|0:0,0:0:0:0:
288,296,171635,1,8,0:0:0:0:
192,320,171999,2,0,P|136:296|104:272,2,100,8|8|12,0:0|0:0|0:0,0:0:0:0:
72,288,181453,6,0,P|96:200|120:144,1,150,8|8,0:0|0:0,0:0:0:0:
208,24,182544,2,8,P|280:48|344:88,1,150
448,192,183635,2,8,P|368:256|360:264,1,100
304,328,184362,2,8,P|248:312|168:264,1,150
32,320,185453,2,8,P|59:245|107:178,1,150
136,40,186544,2,0,P|216:48|240:56,1,100,8|8,0:0|0:0,0:0:0:0:
320,104,187271,6,0,P|352:160|368:200,3,100,0|8|0|8,0:0|0:0|0:0|0:0,0:0:0:0:
328,288,188726,2,0,P|256:304|216:304,3,100,0|8|0|8,0:0|0:0|0:0|0:0,0:0:0:0:
128,304,190180,2,0,P|104:240|96:192,1,100,0|8,0:0|0:0,0:0:0:0:
24,136,190908,2,0,P|88:112|128:112,1,100,0|8,0:0|0:0,0:0:0:0:
216,88,191635,2,0,P|272:96|312:112,1,100,0|8,0:0|0:0,0:0:0:0:
376,192,192362,1,0,0:0:0:0:
352,288,192726,1,8,0:0:0:0:
256,312,193090,2,0,P|192:296|152:272,1,100,0|8,0:0|0:0,0:0:0:0:
64,272,193817,6,8,P|80:224|120:200,1,100,0|8,0:0|0:0,0:0:0:0:
128,88,194544,2,0,B|224:72|224:72|328:88,1,200
392,160,195635,1,8,0:0:0:0:
352,248,195999,2,0,L|256:280,1,100,0|8,0:0|0:0,0:0:0:0:
160,312,196726,2,0,L|104:224,1,100,0|8,0:0|0:0,0:0:0:0:
24,168,197453,2,0,P|120:128|216:112,1,200
312,120,198544,2,0,P|336:136|360:168,1,50,8|8,0:0|0:0,0:0:0:0:
224,72,199271,6,0,P|144:136|112:192,1,150
96,224,199999,2,0,L|48:192,2,50,8|0|0,0:0|0:0|0:0,0:0:0:0:
200,272,200726,2,0,L|256:280,1,50,0|8,0:0|0:0,0:0:0:0:
352,296,201271,2,0,P|376:248|384:192,1,100,8|8,0:0|0:0,0:0:0:0:
288,88,202180,1,8,0:0:0:0:
184,88,202544,2,0,P|144:120|112:168,1,100,0|8,0:0|0:0,0:0:0:0:
158,244,203271,2,0,P|199:206|225:158,1,100,0|8,0:0|0:0,0:0:0:0:
184,88,203999,2,0,P|248:72|296:72,1,100,0|8,0:0|0:0,0:0:0:0:
384,48,204726,6,0,P|359:152|309:236,1,200
296,320,205817,1,8,0:0:0:0:
200,312,206180,2,0,P|112:232|80:160,1,200
160,88,207271,1,8,0:0:0:0:
264,56,207635,2,0,B|304:112|264:160|264:160|216:160|192:224,1,200
144,288,208726,1,8,0:0:0:0:
232,336,209090,2,0,B|240:280|272:240|272:240|336:224|344:168,1,200
368,88,210180,2,0,L|264:80,1,100,8|8,0:0|0:0,0:0:0:0:
120,120,211090,6,8,P|120:200|144:264,1,150
288,320,212180,1,8,0:0:0:0:
400,216,212726,2,8,B|400:160|400:160|368:120,1,100
304,56,213453,2,0,P|224:80|152:120,1,150,8|8,0:0|0:0,0:0:0:0:
104,248,214544,2,8,L|160:256,1,50
256,192,216362,1,2,0:0:0:0:
128,192,222180,6,8,L|192:176,2,50
224,80,223090,2,0,L|288:88,1,50,8|0,0:0|0:0,0:0:0:0:
368,120,223635,2,0,L|384:168,2,50,8|8|8,0:0|0:0|0:0,0:0:0:0:
312,264,224544,2,8,L|360:264,2,25
208,264,225090,2,8,L|160:216,2,50
144,128,225999,2,0,P|192:112|240:104,1,100,0|0,3:3|0:0,0:0:0:0:
328,56,226726,2,0,P|360:112|376:152,1,100
352,240,227453,1,0,0:0:0:0:
272,304,227817,6,0,P|176:256|144:224,1,150,0|8,0:0|0:0,0:0:0:0:
56,192,228726,2,0,P|80:152|96:136,1,50,0|8,0:0|0:0,0:0:0:0:
152,72,229271,1,0,0:0:0:0:
248,40,229635,2,0,P|304:64|336:96,1,100
392,168,230362,2,0,P|360:224|328:264,1,100
192,296,231271,1,8,0:0:0:0:
120,224,231635,2,0,P|144:144|160:120,1,100,0|8,0:0|0:0,0:0:0:0:
224,56,232362,2,0,P|320:56|344:64,1,100,0|8,0:0|0:0,0:0:0:0:
392,128,233090,2,0,P|392:192|384:248,2,100,0|8|0,0:0|0:0|0:0,0:0:0:0:
312,72,234180,6,0,P|240:120|216:144,1,100,8|0,0:0|0:0,0:0:0:0:
256,224,234908,2,0,P|192:248|160:256,1,100,8|0,0:0|0:0,0:0:0:0:
72,208,235635,1,8,0:0:0:0:
112,120,235999,2,8,P|176:88|208:80,3,100,0|8|0|8,0:0|0:0|0:0|0:0,0:0:0:0:
296,56,237453,2,0,P|336:96|360:144,1,100,0|8,0:0|0:0,0:0:0:0:
328,232,238180,1,0,0:0:0:0:
240,272,238544,2,0,P|184:224|160:184,3,100,8|0|8|0,0:0|0:0|0:0|0:0,0:0:0:0:
120,128,239999,6,8,P|184:96|224:88,3,100
300,89,241453,2,8,P|348:103|392:128,3,100
376,224,242908,2,8,P|343:261|303:291,3,100
200,296,244362,2,8,P|152:282|108:257,3,100
56,176,245817,2,8,P|96:136|136:120,1,100
208,64,246544,2,8,P|264:80|304:104,2,100
112,32,247635,2,8,B|104:88|104:88|104:136,2,100,8|0|12,0:0|0:0|0:0,0:0:0:0:
240,80,259999,6,8,P|296:72|352:80,3,100
440,120,261453,2,8,P|424:184|408:216,3,100
344,288,262908,2,8,P|256:280|224:272,1,100
144,272,263635,2,8,P|160:192|176:168,1,100
160,80,264362,2,8,P|224:72|264:72,3,100
352,104,265817,2,8,P|376:168|384:208,3,100
328,288,267271,2,8,P|272:320|232:328,3,100
144,296,268726,6,0,P|120:184|120:136,1,150,8|8,0:0|0:0,0:0:0:0:
192,80,269635,2,0,P|264:72|304:72,3,100,8|8|8|8,0:0|0:0|0:0|0:0,0:0:0:0:
384,120,271090,2,0,P|400:160|416:184,1,50,8|8,0:0|0:0,0:0:0:0:
256,192,271635,12,2,274180,0:0:0:0:
256,192,274271,12,2,277817,0:0:0:0:
256,192,277908,12,2,283271,0:0:0:0:
