osu file format v9

[General]
AudioFilename: Hetalia---Marukaite-Chikyuu~America.mp3
AudioLeadIn: 0
PreviewTime: 17251
Countdown: 1
SampleSet: Normal
StackLeniency: 0.7
Mode: 0
LetterboxInBreaks: 1

[Editor]
Bookmarks: 15376
DistanceSpacing: 1
BeatDivisor: 4
GridSize: 8

[Metadata]
Title:Marukaite Chikyuu America ver.
Artist:Konishi Katsuyuki
Creator:Mint Bunny
Version:Hard
Source:Hetalia: Axis Powers
Tags:Alfred Jones APH version animelover1432 lovhin456

[Difficulty]
HPDrainRate:5
CircleSize:4
OverallDifficulty:5
ApproachRate:6
SliderMultiplier:2
SliderTickRate:1

[Events]
//Background and Video events
0,0,"Optimized-BG.jpg"
//Break Periods
2,47451,51826
2,98075,100107
//Storyboard Layer 0 (Background)
//Storyboard Layer 1 (Fail)
//Storyboard Layer 2 (Pass)
//Storyboard Layer 3 (Foreground)
//Storyboard Sound Samples
//Background Colour Transformations
3,100,163,162,255

[TimingPoints]
2251,468.75,4,2,0,70,1,0
17251,-100,4,2,0,100,0,0
19126,-100,4,2,0,70,0,0
19360,-100,4,2,0,80,0,0
21001,-100,4,2,0,90,0,0
21235,-100,4,2,0,100,0,0
24751,-100,4,1,0,100,0,0
24751,-100,4,1,0,100,0,0
47251,-100,4,1,0,71,0,0
53110,-100,4,2,0,51,0,0
54751,-100,4,2,0,100,0,0
54751,-100,4,1,0,100,0,0
62251,-100,4,1,0,100,0,0
84751,-100,4,1,0,100,0,1
84751,-100,4,1,0,100,0,1
97876,-100,4,1,0,70,0,1
109100,-100,4,1,0,70,0,0
122485,-100,4,2,0,39,0,0
124126,-200,4,1,0,50,0,0
124946,-200,4,1,0,50,0,0
125063,468.75,4,1,0,70,1,1
125063,-100,4,1,0,70,0,1
132563,-100,4,1,0,100,0,1
163969,-100,4,2,0,100,0,0

[Colours]
Combo1 : 223,223,223
Combo2 : 5,34,231
Combo3 : 213,0,0

[HitObjects]
256,192,15376,12,8,17251
168,184,17485,5,0
168,184,17719,2,0,B|160:104|256:72|320:96,1,200,8|0
232,280,18422,2,0,B|232:392,2,100,0|8|0
56,168,19126,1,4
56,168,19360,5,0
56,168,19594,2,0,B|48:88|144:56|208:80,1,200,8|0
384,144,20297,2,0,B|464:152|464:248,1,100,0|8
280,288,20766,2,0,B|241:318|185:310,1,100,0|4
72,240,21235,5,0
128,168,21469,2,0,B|192:200|184:320|80:320,1,200,8|2
216,152,22173,1,10
416,152,22407,1,2
296,312,22641,2,0,B|184:368,1,100
136,296,23110,2,0,B|56:208,1,100,0|8
120,152,23579,2,0,B|223:100,1,100
288,72,24047,1,0
376,80,24282,1,8
424,160,24516,1,0
424,248,24751,5,4
352,296,24985,1,0
352,296,25102,1,0
352,296,25219,1,8
280,248,25454,2,2,B|208:240|232:152,3,100,2|2|2|10
147,135,26391,1,0
224,81,26626,1,4
299,132,26860,5,0
274,222,27094,1,8
184,224,27329,1,0
224,304,27563,2,2,B|88:304,2,100,2|2|10
304,272,28266,1,0
304,272,28501,1,4
352,200,28735,6,0,B|248:120,1,100,0|8
200,88,29204,1,0
128,144,29438,2,2,B|40:216,2,100,2|2|10
200,88,30141,1,0
288,144,30376,1,2
368,88,30610,1,2
448,144,30844,1,2
360,200,31079,1,2
360,200,31313,2,0,B|392:320|296:368|184:352|96:328|128:200,1,400
256,192,32485,12,0,33657
152,216,34008,5,0
152,216,34126,2,0,B|160:136|232:88|336:88,1,200,8|0
432,200,35063,2,0,B|424:277|352:325|295:321,1,200,8|0
224,264,35766,1,0
224,264,35883,1,0
224,264,36001,2,0,B|176:224|120:256,1,100,8|0
56,200,36469,1,0
80,112,36704,1,0
80,112,36821,1,0
80,112,36938,2,0,B|120:56|208:40|296:88,1,200,8|0
312,144,37641,1,0
312,232,37876,1,8
312,320,38110,5,2
312,320,38227,1,0
312,320,38344,1,0
312,320,38461,1,2
312,320,38579,1,0
312,320,38696,1,0
312,320,38813,2,0,B|384:304|408:200|336:144,1,200,10|0
304,80,39516,5,0
216,80,39751,1,10
260,0,39985,2,0,B|348:-24|460:40|444:168|428:216,1,300,0|8
392,264,40922,1,0
336,328,41157,1,0
248,328,41391,1,0
96,200,41626,5,2
464,64,42094,1,2
64,64,42563,1,2
440,200,43032,1,0
256,192,43501,12,4,47251
248,176,52876,5,4
248,264,53110,2,4,B|320:264,2,50
248,352,53579,2,4,B|160:352,2,50
320,304,54047,1,4
344,264,54165,1,4
360,224,54282,2,4,B|392:168|400:112|352:80|272:64,1,200,4|4
144,56,54985,5,0
80,120,55219,1,8
144,184,55454,1,0
184,264,55688,2,0,B|200:320|256:352|312:328|328:240,1,200,0|8
328,176,56391,2,0,B|376:200|416:184|424:120,1,100,0|0
416,56,56860,5,0
344,0,57094,1,8
272,56,57329,1,0
104,128,57563,2,2,B|0:64,2,100,2|2|10
216,232,58266,2,0,B|216:352,1,100
136,360,58735,5,0
136,360,58969,2,0,B|80:392|8:336,1,100,8|0
72,152,59438,1,2
256,80,59673,1,2
440,152,59907,1,2
304,296,60141,2,0,B|259:330|211:290,1,100
208,200,60610,2,0,B|265:161|304:216,2,100,0|8|0
160,128,61313,2,0,B|212:83|292:83|343:129,1,200,0|8
408,192,62016,5,0
432,232,62133,1,0
448,272,62251,2,0,B|456:328|440:344|360:352,1,100,4|0
312,344,62719,2,0,B|256:344|192:336|176:272|224:184,1,200,8|2
232,136,63422,2,0,B|240:80|280:48|312:80|320:176,1,150,2|0
336,176,63891,1,0
288,256,64126,6,12,B|296:360|384:360|440:272,1,200,12|8
424,136,64829,1,0
224,136,65063,1,2
392,32,65297,1,2
272,192,65532,1,10
336,256,65766,6,0,B|304:312|232:296,1,100,0|4
168,272,66235,1,0
136,240,66352,1,0
104,208,66469,1,8
168,144,66704,1,0
232,208,66938,2,2,B|344:208,2,100,2|2|10
256,192,67641,12,8,69751
96,312,70219,5,0
192,160,70688,1,8
288,312,71157,1,0
384,160,71626,2,0,B|471:232|545:153|555:77|555:-3|444:-31|354:10|384:78,1,400,8|8
320,104,72797,1,0
280,184,73032,2,0,B|312:232|312:296|264:328|160:296,1,200,8|4
136,232,73735,5,8
152,144,73969,1,0
224,88,74204,1,0
320,88,74438,1,8
392,152,74672,1,0
368,248,74907,2,2,B|288:192|224:312|168:232,1,200
432,56,76782,5,8
432,144,77016,1,0
432,232,77251,1,8
344,232,77485,2,0,B|264:328|168:328|80:256|72:200,1,300,8|0
48,152,78422,1,0
96,72,78657,1,8
184,72,78891,1,8
232,152,79126,2,2,B|448:152,2,200
192,232,80297,1,0
136,144,80532,1,8
96,232,80766,1,0
256,192,81001,12,8,84751
88,184,85219,6,2,B|128:272|280:328|440:264|464:192,1,400,2|10
416,136,86391,1,0
344,80,86626,1,0
256,88,86860,1,0
184,128,87094,2,2,B|104:216,1,100,10|2
80,280,87563,1,0
168,280,87797,1,0
256,280,88032,2,2,B|384:232,1,100,10|2
368,160,88501,5,0
288,88,88735,1,2
240,88,88852,1,0
192,88,88969,1,10
192,176,89204,1,0
240,176,89321,1,0
288,176,89438,1,0
288,264,89672,1,2
240,264,89790,1,0
192,264,89907,2,0,B|72:224|56:112,1,200,10|0
136,80,90610,5,2
184,72,90727,1,0
232,80,90844,1,10
240,168,91079,1,2
240,168,91313,2,2,B|264:128|424:128|456:192,2,200,2|10|2
104,208,92485,5,2
152,208,92602,1,0
200,208,92720,1,10
200,296,92954,1,2
248,296,93071,1,0
296,296,93188,1,2
296,208,93422,2,2,B|360:184|392:248,1,100,2|10
384,320,93891,1,0
296,320,94126,6,0,B|168:320,2,100,0|0|8
384,320,94829,1,2
384,320,95063,1,2
384,232,95297,2,0,B|384:128,2,100,0|8|0
304,272,96001,5,4
216,272,96235,1,0
216,272,96469,2,0,B|160:208|168:128|248:80,1,200,8|0
312,96,97172,1,0
400,104,97407,2,0,B|457:136|465:216|409:280,1,200,8|4
328,128,101157,5,0
256,72,101391,1,0
208,152,101626,2,0,B|128:144|80:192|32:296,1,200
120,320,102329,1,0
120,320,102563,1,0
208,320,102797,6,0,B|288:360|432:320|456:192,1,300
416,128,103735,1,0
336,88,103969,1,0
256,128,104204,1,0
176,88,104438,1,0
256,192,104672,12,0,108656
112,168,109126,5,8
112,168,109360,1,0
112,168,109594,1,0
200,168,109829,1,0
200,168,110063,1,8
200,168,110297,1,0
200,256,110532,2,0,B|240:320|312:344|392:320,1,200,0|8
384,232,111235,1,0
384,232,111352,1,0
384,232,111469,1,0
296,232,111704,2,2,B|256:176|256:176|208:264|208:264|144:192|144:176|144:176|120:176,1,300
32,176,112641,5,0
32,176,112876,2,0,B|123:81|245:77,1,200,8|0
304,80,113579,2,0,B|385:79|476:174,1,200,8|0
416,256,114282,1,0
344,304,114516,1,8
272,352,114751,1,8
80,288,114985,5,8
112,256,115102,1,8
144,224,115219,1,8
264,64,115454,1,0
376,232,115688,1,8
424,208,115805,1,8
448,160,115922,1,8
424,120,116040,1,0
376,104,116157,1,8
288,160,116391,1,0
264,64,116626,6,10,B|267:64|187:216|187:216|147:112|147:112|51:192,1,400
54,188,117797,1,0
88,96,118032,2,2,B|168:64|240:96|270:195,1,200,2|10
264,256,118735,1,0
176,296,118969,2,2,B|104:304|56:248|64:176|120:144,1,200,2|10
176,104,119672,1,0
216,80,119790,1,0
264,88,119907,1,0
280,184,120141,1,0
240,216,120258,1,0
192,200,120376,6,2,B|160:240|152:264|216:312,1,100,10|2
272,336,120844,1,0
368,368,121079,1,0
464,336,121313,1,10
464,336,121547,1,2
464,336,121782,2,0,B|504:288|504:272|440:248|440:216|500:212|502:200|456:144,1,200,0|4
360,56,122485,5,12
312,56,122602,1,12
264,56,122719,1,12
112,192,122954,1,12
112,240,123071,1,12
112,288,123188,1,12
240,352,123422,1,12
283,352,123540,1,12
326,353,123657,1,12
288,272,123891,5,2
288,272,124126,2,2,B|488:272,1,200,4|4
472,184,125297,5,0
440,104,125532,2,0,B|384:88|336:136,1,100,8|0
208,264,126001,1,2
136,80,126235,1,2
336,64,126469,1,10
312,264,126704,2,0,B|344:304|344:336|264:368,1,100
216,344,127172,6,0,B|176:332|176:300|208:260,1,100,0|8
136,208,127641,1,0
200,144,127876,1,2
264,208,128110,1,2
200,272,128344,1,10
264,208,128579,6,0,B|200:176|208:120,1,100
144,72,129047,1,0
144,160,129282,1,8
144,248,129516,1,0
232,248,129751,2,2,B|232:352,2,100,2|2|10
424,192,130454,5,2
264,72,130688,1,2
104,192,130922,1,2
264,320,131157,1,2
264,320,131391,1,0
264,320,131625,2,2,B|312:224|392:320|448:240,1,200
256,192,132563,12,8,133969
80,152,134321,5,0
80,152,134438,2,0,B|168:96|189:104|280:144,1,200,0|8
256,320,135376,2,0,B|271:311|207:359|103:343|79:279,1,200,0|8
80,192,136079,1,0
80,96,136313,2,0,B|216:40|392:56|480:168,1,400,0|8
432,232,137485,1,0
376,304,137719,2,0,B|288:352|152:312,1,200,0|8
96,200,138422,5,2
96,200,138540,1,0
96,200,138657,1,0
96,200,138774,1,2
96,200,138891,1,0
16,160,139126,2,0,B|40:112|136:104,1,100,2|0
184,88,139594,5,0
232,168,139829,1,0
272,88,140063,1,2
272,88,140297,2,0,B|352:32|472:64|512:176|464:240,1,300,0|0
480,296,141235,1,0
480,296,141469,1,0
480,296,141704,1,0
400,96,141938,5,2
176,96,142407,1,2
176,296,142876,1,2
400,296,143344,1,0
256,192,143813,12,0,146626
256,192,147094,5,0
64,208,147563,2,2,B|176:88|328:64|448:112,1,400,2|10
440,192,148735,1,0
376,256,148969,1,0
440,320,149204,1,0
352,344,149438,2,2,B|152:344,2,200,10|2|10
296,272,150610,1,0
216,232,150844,2,0,B|136:112|272:64,1,200,0|8
344,40,151547,5,0
416,88,151782,1,0
344,144,152016,1,0
416,192,152251,2,2,B|512:200|512:320|464:360,1,200,10|2
392,328,152954,2,0,B|280:320,1,100,0|8
216,280,153422,1,0
136,240,153657,1,0
136,240,153891,1,0
136,240,154008,1,0
136,240,154126,2,2,B|224:176|320:176,2,150,10|2|2
64,296,155063,5,10
152,296,155297,1,0
224,248,155532,1,0
296,296,155766,1,0
384,296,156001,1,8
456,240,156235,1,0
384,184,156469,1,0
312,128,156704,1,0
224,104,156938,6,2,B|160:168|88:160|32:104,2,200,10|2|10
256,280,158344,1,0
256,192,158813,12,4,163969
