osu file format v9

[General]
AudioFilename: 1869.mp3
AudioLeadIn: 1000
PreviewTime: 66137
Countdown: 0
SampleSet: Soft
StackLeniency: 0.7
Mode: 0
LetterboxInBreaks: 0
StoryFireInFront: 0

[Editor]
DistanceSpacing: 0.9
BeatDivisor: 4
GridSize: 4

[Metadata]
Title:Sakura Addiction (TV Size)
Artist:Kondou Takashi & Iida Toshinobu
Creator:lovhin456
Version:Insane
Source:Katekyo Hitman Reborn!
Tags:hibari mukuro vongola akira amano Katei kyoushi Tutor 6918 1869

[Difficulty]
HPDrainRate:7
CircleSize:4
OverallDifficulty:7
ApproachRate:7
SliderMultiplier:1.7
SliderTickRate:1

[Events]
//Background and Video events
Video,0,"Sakura Addiction.avi"
0,0,"BG4.jpg"
//Break Periods
//Storyboard Layer 0 (Background)
//Storyboard Layer 1 (Fail)
//Storyboard Layer 2 (Pass)
//Storyboard Layer 3 (Foreground)
//Storyboard Sound Samples
//Background Colour Transformations
3,100,0,0,0

[TimingPoints]
826,333.333333333333,4,2,0,60,1,0
22139,-100,4,1,1,50,0,0
23805,-100,4,2,1,60,0,0
65305,-100,4,1,1,70,0,0
66159,-100,4,1,1,70,0,1
87492,-100,4,2,0,60,0,0

[Colours]
Combo1 : 252,152,152
Combo2 : 253,193,204

[HitObjects]
48,64,1492,5,0
200,64,1825,1,2
120,192,2159,1,4
56,240,2325,2,0,B|56:280|128:304|184:272|184:232,1,170
260,235,2825,1,0
336,235,2992,2,0,B|336:344|440:344,1,170
474,276,3492,1,0
474,122,3825,1,2
474,45,3992,1,0
397,45,4159,6,0,B|397:173|157:173|156:52,1,340,0|0
80,56,4992,2,0,B|0:132|72:204,1,170
20,260,5492,1,0
72,316,5659,1,0
132,364,5825,2,0,B|180:364|212:316|188:260|132:260,2,170,2|0|2
272,300,6825,5,0
260,224,6992,2,0,B|316:224|336:256,1,85,0|2
400,296,7325,1,2
440,232,7492,2,0,B|496:232|496:176,1,85
496,104,7825,2,0,B|496:48|448:48,1,85,2|0
376,32,8159,1,0
304,40,8325,2,0,B|192:40|152:112,1,170
136,184,8825,2,0,B|40:184|0:280,1,170,0|2
136,344,9492,5,0
432,264,9825,1,2
136,184,10159,1,0
136,184,10325,1,0
256,88,10659,1,0
256,88,10825,1,0
376,184,11159,1,2
496,88,11492,1,0
496,88,11659,1,0
376,280,12159,5,0
80,336,12492,1,2
80,32,12826,2,0,B|192:32|232:96,1,170,0|2
80,120,13492,2,0,B|144:192|240:192,1,170,0|2
280,48,14159,1,0
280,356,14826,5,0
280,204,15159,1,2
280,356,15492,1,0
280,48,16159,1,0
280,356,16826,1,0
236,52,17492,6,0,B|160:-8|76:60,1,170,0|2
28,112,17992,1,0
80,168,18159,1,0
32,228,18326,2,0,B|32:276|72:300,1,85,2|0
128,348,18659,1,2
188,300,18826,2,0,B|268:268|268:156,1,170,0|2
212,108,19325,1,0
268,56,19492,2,0,B|308:16|340:56,1,85
416,56,19825,1,2
416,208,20159,5,0
308,316,20492,1,2
200,208,20825,1,4
200,56,21159,2,0,B|112:24|24:80|-8:216|88:272,1,340,2|2
152,264,21992,2,0,B|152:352,2,85
228,264,22492,1,8
304,276,22659,1,0
380,264,22825,1,0
432,208,22992,1,0
464,136,23159,2,0,B|504:96|464:64,1,85,8|0
432,48,23409,1,0
392,48,23492,5,4
240,48,23825,2,0,B|240:152|112:152,1,170
112,80,24325,2,0,B|56:80|56:136,1,85,0|8
56,208,24659,6,0,B|136:272|208:200,1,170
208,200,25159,2,0,B|264:200|264:256,1,85,8|0
208,304,25492,1,0
280,336,25659,2,0,B|320:368|360:336,1,85,0|8
408,280,25992,2,0,B|448:312|488:280,1,85
448,216,26325,1,0
448,216,26492,5,8
488,152,26659,2,8,B|448:128|408:152,1,85,0|0
352,96,26992,1,0
312,32,27159,1,8
160,32,27492,1,0
32,120,27825,5,8
112,120,27992,1,0
72,184,28159,1,0
72,336,28492,1,8
224,336,28825,1,0
72,336,29159,1,8
152,336,29325,1,0
152,256,29492,1,0
304,256,29825,5,8
352,312,29992,2,8,B|456:352|488:248,1,170,0|0
464,184,30492,1,8
464,32,30825,1,0
328,112,31159,1,8
176,112,31492,5,0
48,32,31825,1,8
48,32,31992,1,0
48,184,32325,1,0
128,184,32492,2,0,B|168:224|120:264,1,85,8|0
48,256,32825,1,0
48,104,33159,1,8
344,40,33492,1,0
472,320,33825,1,8
352,216,34159,5,4
312,280,34325,1,0
240,312,34492,1,8
224,240,34659,1,0
264,176,34825,1,0
416,136,35159,2,0,B|352:40|184:40|120:144,2,340,8|8|8
488,272,36825,5,0
424,320,36992,2,0,B|384:320|384:320|376:312|376:312|376:328|376:328|368:320|368:320|272:320,1,170,0|0
200,320,37492,1,0
72,232,37825,1,8
128,176,37992,1,0
184,120,38159,1,0
336,120,38492,1,8
464,32,38825,5,0
504,96,38992,1,0
464,160,39159,1,8
504,224,39325,1,0
464,288,39492,1,0
312,288,39826,1,8
264,344,39992,1,0
216,288,40159,1,0
264,144,40492,5,8
264,48,40826,2,0,B|200:48|96:104|64:192,2,255,0|0|8
340,48,41992,2,0,B|424:48,2,85
368,120,42492,1,8
340,192,42659,1,0
192,224,42992,5,0
192,224,43159,2,8,B|192:336|88:336,1,170,8|0
56,272,43659,1,0
16,208,43826,1,8
56,144,43992,2,0,B|56:96|96:64,1,85
168,56,44326,2,8,B|248:112|336:48,1,170,0|0
400,56,44826,1,4
488,352,45492,1,0
336,352,45826,5,8
288,296,45992,2,8,B|216:248|120:288,1,170,0|0
48,288,46492,1,8
40,208,46659,2,8,B|24:160|56:128,1,85,0|0
16,64,46992,1,0
88,32,47159,1,8
160,64,47326,1,0
232,32,47492,5,4
384,32,47826,1,8
480,152,48159,1,0
376,264,48492,1,8
228,308,48826,1,0
120,200,49159,2,0,B|32:200,2,85,8|0|0
256,128,49826,2,0,B|256:44,2,85,8|0|4
384,44,50492,1,0
476,336,51159,5,8
480,260,51326,2,8,B|416:188|328:204,1,170,0|0
336,280,51826,1,8
264,256,51992,2,8,B|224:344|112:304,1,170,0|0
48,312,52492,1,8
88,160,52826,5,4
88,80,52992,1,0
160,48,53159,1,8
232,80,53326,1,0
232,160,53492,1,0
360,80,53826,5,8
416,32,53992,2,8,B|488:88|448:192,1,170,0|0
488,248,54492,1,8
408,248,54659,1,0
328,248,54826,1,0
224,360,55159,2,0,B|112:208|224:40,1,340,8|4
376,48,56159,1,0
376,48,56326,1,0
416,112,56492,5,8
416,112,56659,1,0
456,176,56826,2,0,B|256:232|168:16,1,340,0|0
24,40,57826,1,8
32,192,58159,2,8,B|72:224|112:192,2,85,0|0|8
32,344,58826,1,0
168,280,59159,1,8
168,280,59326,1,0
168,280,59492,1,0
236,316,59659,2,0,B|236:248|328:212|416:248|416:316,1,255
480,172,60492,5,8
432,112,60659,1,0
384,52,60826,1,4
256,136,61159,1,8
128,56,61492,1,0
72,112,61659,1,0
24,168,61826,1,8
168,216,62159,2,0,B|56:216|56:328,3,170,0|8|0|8
208,320,63492,5,0
360,328,63826,1,8
424,288,63992,2,0,B|408:208|288:208,1,170,0|0
288,128,64492,1,8
440,96,64826,1,0
288,128,65159,6,0,B|208:56|136:136,2,170,8|2|8
216,264,66159,5,4
160,320,66326,2,0,B|72:376|0:304,1,170
48,248,66826,1,0
0,184,66992,2,0,B|32:112|144:112,2,170
48,248,67826,1,8
200,248,68159,5,0
280,248,68326,2,0,B|368:288|432:200,1,170
280,248,68826,1,0
152,168,68992,2,0,B|48:144|48:40,1,170
152,168,69492,1,0
304,128,69659,2,0,B|216:128|184:16,1,170
304,128,70159,1,0
456,128,70492,1,8
368,256,70826,6,0,B|360:360|264:372,2,170,0|8|0
296,240,71659,2,0,B|296:296|248:300,1,85,0|8
96,300,71992,1,0
176,168,72159,1,0
304,80,72326,2,0,B|288:168|172:168,1,170
216,20,72826,2,0,B|204:60|148:60,1,85
24,148,73159,1,8
24,148,73326,1,0
24,300,73492,5,0
24,300,73825,1,0
160,228,74159,1,0
216,280,74326,2,0,B|216:336|160:336,1,85,0|8
216,280,74659,1,0
160,228,74826,2,0,B|112:228|112:164,1,85,0|0
168,116,75159,1,8
244,112,75326,2,0,B|284:152|324:104,1,85,0|0
396,112,75659,1,0
356,180,75826,1,8
456,292,76159,5,0
156,348,76492,1,8
44,64,76826,1,4
120,60,76992,2,0,B|168:84|152:140,1,85,0|8
232,136,77326,2,0,B|280:160|264:216,1,85,0|0
224,272,77659,2,0,B|304:328|384:264,1,170
432,208,78159,1,0
432,208,78492,1,8
432,56,78825,5,0
352,56,78992,2,0,B|312:32|272:56,1,85,0|8
192,56,79325,1,0
232,120,79492,1,0
152,120,79659,2,0,B|64:120|24:224,1,170
80,272,80159,2,0,B|120:360|328:360|376:264,1,340,0|0
304,232,80992,2,0,B|224:288|144:232,1,170
80,192,81492,5,0
344,32,81825,1,8
456,320,82159,1,0
376,320,82325,2,0,B|368:264|312:264,1,85,0|8
272,328,82659,1,0
224,264,82825,1,0
176,200,82992,2,0,B|76:208|28:128,1,170
184,120,83492,2,0,B|104:140|60:28,1,170,0|8
364,60,84159,6,0,B|464:60|512:168|468:280|364:280,2,340
264,176,85825,1,8
256,192,86159,8,4,87492
