osu file format v14

[General]
AudioFilename: file_vmusice.net (1).mp3
AudioLeadIn: 0
PreviewTime: 28140
Countdown: 0
SampleSet: Soft
StackLeniency: 0.7
Mode: 0
LetterboxInBreaks: 0
WidescreenStoryboard: 0

[Editor]
DistanceSpacing: 1.1
BeatDivisor: 4
GridSize: 4
TimelineZoom: 1

[Metadata]
Title:Koganeiro
TitleUnicode:コガネイロ
Artist:Kondo Takashi X John
ArtistUnicode:近藤 隆 X じょん
Creator:nadapan
Version:Easy
Source:
Tags:Tsukiuta. ツキウタ。 Nagatsuki Yoru 長月 夜 Drama CD ツキノ芸能プロダクション Tsukino Geinou Production
BeatmapID:695143
BeatmapSetID:311180

[Difficulty]
HPDrainRate:2
CircleSize:2.5
OverallDifficulty:2
ApproachRate:3
SliderMultiplier:1
SliderTickRate:1

[Events]
//Background and Video events
0,0,"tumblr_ne30cyYMzc1rmx18lo6_500.jpg",0,0
//Break Periods
2,56223,68104
2,125519,137400
//Storyboard Layer 0 (Background)
//Storyboard Layer 1 (Fail)
//Storyboard Layer 2 (Pass)
//Storyboard Layer 3 (Foreground)
//Storyboard Sound Samples

[TimingPoints]
1939,422.535211267606,4,2,1,30,1,0
28981,-100,4,2,1,60,0,0
42502,-100,4,2,1,60,0,1
54333,-100,4,2,1,50,0,0
96586,-100,4,2,1,60,0,1
108417,-100,4,2,1,60,0,0
110108,-100,4,2,1,60,0,1
121939,-100,4,2,1,55,0,0
138840,-100,4,2,1,35,0,0
155741,-100,4,2,1,65,0,1
167572,-100,4,2,1,60,0,0
169262,-100,4,2,1,65,0,1
181093,-100,4,2,1,60,0,0

[Colours]
Combo1 : 255,230,217
Combo2 : 255,128,64
Combo3 : 244,250,137
Combo4 : 186,123,29

[HitObjects]
72,264,1939,6,2,P|120:288|256:244,1,200
348,304,3206,1,2,0:0:0:0:
440,248,3629,2,2,P|460:208|456:136,1,100
356,116,4474,2,2,P|320:132|244:140,1,100
156,104,5319,5,2,0:0:0:0:
128,208,5741,2,2,P|140:236|296:260,1,200
380,204,7009,2,2,P|384:152|360:104,2,100
272,176,8277,1,2,0:0:0:0:
200,260,8699,5,2,0:0:0:0:
116,192,9122,2,0,P|124:128|252:72,1,200,2|2,0:0|0:0,0:0:0:0:
224,176,10389,2,2,P|292:188|332:172,2,100
276,80,11657,1,2,0:0:0:0:
384,92,12079,6,2,P|424:136|432:184,1,100
324,184,12924,2,0,P|292:236|156:268,1,200,2|2,0:0|0:0,0:0:0:0:
128,168,14192,1,0,0:0:0:0:
204,92,14615,2,2,P|252:88|308:92,1,100
352,188,15460,6,2,P|304:192|248:188,1,100
152,236,16305,1,2,0:0:0:0:
164,128,16727,1,2,0:0:0:0:
252,189,17150,2,2,L|272:293,1,100
368,340,17995,2,2,P|420:344|472:336,1,100
464,228,18840,5,2,0:0:0:0:
388,148,19262,2,2,P|432:124|496:124,2,100
300,212,20530,1,2,0:0:0:0:
192,200,20953,1,2,0:0:0:0:
156,96,21375,2,2,L|260:76,1,100
360,60,22220,6,2,P|384:108|376:168,1,100
332,252,23065,2,2,P|284:268|156:188,1,200
68,260,24333,1,2,0:0:0:0:
64,152,24755,2,2,P|96:112|148:92,1,106.25
244,120,25600,6,2,P|272:136|344:148,1,100
324,32,26446,2,2,P|420:60|456:168,1,200
456,256,27713,2,2,P|415:343|321:369,1,200,2|0,0:0|0:0,0:0:0:0:
236,300,28981,5,0,0:0:0:0:
200,196,29403,2,0,P|252:152|392:132,1,200,8|8,0:0|0:0,0:0:0:0:
480,172,30671,2,0,P|504:220|508:272,1,100,2|8,0:0|0:0,0:0:0:0:
408,304,31516,2,0,P|376:336|308:348,1,100,2|8,0:0|0:0,0:0:0:0:
320,240,32361,6,0,L|300:128,1,100,2|8,0:0|0:0,0:0:0:0:
216,76,33206,1,2,0:0:0:0:
116,120,33629,1,8,0:0:0:0:
188,204,34051,2,0,L|168:316,1,100,2|8,0:0|0:0,0:0:0:0:
276,332,34896,2,0,P|336:344|384:328,1,100,2|8,0:0|0:0,0:0:0:0:
456,264,35741,6,0,P|488:216|440:72,1,200,2|2,0:0|0:0,0:0:0:0:
348,76,37009,1,8,0:0:0:0:
244,40,37431,2,0,P|240:92|264:148,1,100,2|8,0:0|0:0,0:0:0:0:
240,244,38277,1,2,0:0:0:0:
348,228,38699,1,8,0:0:0:0:
256,192,39122,12,0,41657,0:0:0:0:
320,296,42502,6,0,P|352:256|360:200,1,100,2|8,0:0|0:0,0:0:0:0:
268,148,43347,2,0,P|240:108|228:52,1,100,2|8,0:0|0:0,0:0:0:0:
336,64,44192,1,2,0:0:0:0:
412,140,44615,1,8,0:0:0:0:
392,248,45037,2,0,P|350:288|299:314,1,100,2|8,0:0|0:0,0:0:0:0:
204,308,45882,6,0,P|163:281|136:232,2,100,2|8|0,0:0|0:0|0:0,0:0:0:0:
240,204,47150,1,8,0:0:0:0:
348,192,47572,2,0,P|372:144|296:32,1,200,2|2,0:0|0:0,0:0:0:0:
228,116,48840,1,8,0:0:0:0:
156,32,49262,6,0,P|120:80|116:124,1,100,4|8,0:0|0:0,0:0:0:0:
168,216,50108,1,2,0:0:0:0:
276,216,50530,1,8,0:0:0:0:
228,316,50953,2,0,P|296:324|328:312,2,100,2|8|2,0:0|0:0|0:0,0:0:0:0:
276,216,52220,1,8,0:0:0:0:
276,104,52643,6,0,P|332:116|380:256,1,200,2|2,0:0|0:0,0:0:0:0:
324,328,53910,1,8,0:0:0:0:
256,192,54333,12,0,56023,0:0:0:0:
104,268,69544,6,0,P|144:300|240:300,2,150,2|8|2,0:0|0:0|0:0,0:0:0:0:
192,200,71234,2,0,P|208:144|172:48,2,150,2|8|0,0:0|0:0|0:0,0:0:0:0:
304,204,72924,6,0,P|312:132|292:48,2,150,2|8|2,0:0|0:0|0:0,0:0:0:0:
372,292,74615,2,0,P|424:280|484:200,2,150,2|8|8,0:0|0:0|0:0,0:0:0:0:
380,184,76305,6,0,P|308:176|224:208,2,150,0|8|0,0:0|0:0|0:0,0:0:0:0:
320,92,77995,2,0,P|416:104|464:136,2,150,0|8|0,0:0|0:0|0:0,0:0:0:0:
272,192,79685,2,0,P|280:228|384:256,2,150,2|8|0,0:0|0:0|0:0,0:0:0:0:
192,116,81375,2,0,P|180:64|56:88,1,200,0|8,0:0|0:0,0:0:0:0:
72,184,82643,1,8,0:0:0:0:
96,292,83065,6,0,P|144:268|172:232,1,100,4|8,0:0|0:0,0:0:0:0:
264,172,83910,1,2,0:0:0:0:
316,268,84333,2,0,B|364:288|364:288|416:268,1,100,8|2,0:0|0:0,0:0:0:0:
456,172,85178,2,0,P|428:92|308:84,1,200,8|8,0:0|0:0,0:0:0:0:
248,156,86446,6,0,P|200:192|148:200,1,100,2|8,0:0|0:0,0:0:0:0:
64,148,87291,2,0,L|36:48,2,100,2|8|2,0:0|0:0|0:0,0:0:0:0:
163,200,88558,1,8,0:0:0:0:
192,308,88981,2,0,P|152:324|84:320,1,100,2|8,0:0|0:0,0:0:0:0:
128,220,89826,5,4,0:0:0:0:
116,112,90248,1,8,0:0:0:0:
216,64,90671,1,2,0:0:0:0:
300,136,91093,2,0,P|348:164|400:172,1,100,8|2,0:0|0:0,0:0:0:0:
392,284,91939,2,0,P|344:312|200:288,1,200,8|8,0:0|0:0,0:0:0:0:
256,192,93206,12,0,95741,0:0:0:0:
348,296,96586,6,0,P|388:272|416:220,1,100,4|2,0:0|0:0,0:0:0:0:
408,116,97431,2,0,P|383:72|341:46,1,100,2|8,0:0|0:0,0:0:0:0:
232,68,98277,1,2,0:0:0:0:
144,132,98699,1,8,0:0:0:0:
156,240,99122,2,0,L|248:288,1,100,2|8,0:0|0:0,0:0:0:0:
356,292,99967,6,0,P|396:240|400:200,2,100,2|8|2,0:0|0:0|0:0,0:0:0:0:
288,204,101234,1,8,0:0:0:0:
184,168,101657,2,0,P|156:196|92:220,2,100,2|8|2,0:0|0:0|0:0,0:0:0:0:
248,76,102924,1,8,0:0:0:0:
360,76,103347,6,0,P|380:112|328:252,1,200,4|2,0:0|0:0,0:0:0:0:
232,204,104615,1,8,0:0:0:0:
128,180,105037,2,0,P|88:148|72:92,2,100,2|8|2,0:0|0:0|0:0,0:0:0:0:
184,84,106305,1,8,0:0:0:0:
292,104,106727,6,0,P|328:104|392:76,1,100,2|8,0:0|0:0,0:0:0:0:
496,84,107572,2,0,L|480:184,1,100,2|8,0:0|0:0,0:0:0:0:
412,264,108417,1,2,0:0:0:0:
304,280,108840,2,0,P|212:304|128:228,1,200,8|8,0:0|0:0,0:0:0:0:
232,196,110108,6,0,P|264:184|312:132,1,100,4|8,0:0|0:0,0:0:0:0:
220,64,110953,2,0,L|120:104,1,100,2|8,0:0|0:0,0:0:0:0:
96,208,111798,1,2,0:0:0:0:
160,296,112220,2,0,P|232:336|328:264,1,200,8|8,0:0|0:0,0:0:0:0:
380,184,113488,6,0,L|472:221,2,100,2|8|0,0:0|0:0|0:0,0:0:0:0:
304,100,114755,1,8,0:0:0:0:
196,112,115178,1,2,0:0:0:0:
264,200,115600,1,8,0:0:0:0:
308,300,116023,2,0,P|356:320|404:320,1,100,2|8,0:0|0:0,0:0:0:0:
376,212,116868,5,4,0:0:0:0:
380,100,117291,2,0,L|456:32,2,100,8|2|8,0:0|0:0|0:0,0:0:0:0:
288,160,118558,2,0,P|224:92|116:76,1,200,2|2,0:0|0:0,0:0:0:0:
52,160,119826,1,8,0:0:0:0:
84,264,120248,6,0,P|136:296|180:296,1,100,2|8,0:0|0:0,0:0:0:0:
276,260,121093,1,2,0:0:0:0:
352,180,121516,1,8,0:0:0:0:
256,192,121939,12,4,125319,0:0:0:0:
360,128,138840,6,0,L|456:188,1,100,2|2,0:0|0:0,0:0:0:0:
420,288,139685,1,2,0:0:0:0:
316,324,140108,2,0,P|244:340|128:272,1,200,2|2,0:0|0:0,0:0:0:0:
100,180,141375,2,0,P|96:124|128:76,1,100,2|2,0:0|0:0,0:0:0:0:
224,76,142220,6,0,P|284:76|332:68,1,100,2|2,0:0|0:0,0:0:0:0:
420,128,143065,1,2,0:0:0:0:
428,236,143488,1,2,0:0:0:0:
320,260,143910,2,0,P|316:292|264:340,2,100,2|2|2,0:0|0:0|0:0,0:0:0:0:
304,152,145178,1,2,0:0:0:0:
240,64,145600,6,0,P|176:56|84:156,1,200,2|2,0:0|0:0,0:0:0:0:
196,164,146868,1,2,0:0:0:0:
232,268,147291,2,0,P|284:280|344:268,1,100,2|2,0:0|0:0,0:0:0:0:
288,172,148136,2,0,L|280:60,1,100,2|2,0:0|0:0,0:0:0:0:
172,72,148981,6,0,L|64:32,2,100,2|2|2,0:0|0:0|0:0,0:0:0:0:
276,104,150248,1,2,0:0:0:0:
380,136,150671,2,0,L|472:56,2,100,2|2|2,0:0|0:0|0:0,0:0:0:0:
300,212,151939,1,2,0:0:0:0:
256,192,152361,12,8,154896,0:0:0:0:
324,292,155741,6,0,P|356:268|380:200,1,100,4|8,0:0|0:0,0:0:0:0:
268,196,156586,2,0,L|180:136,1,100,2|8,0:0|0:0,0:0:0:0:
80,164,157431,1,2,0:0:0:0:
142,250,157854,2,0,P|214:298|342:282,1,200,8|8,0:0|0:0,0:0:0:0:
344,196,159122,6,0,P|368:148|408:120,2,100,2|8|2,0:0|0:0|0:0,0:0:0:0:
452,220,160389,1,8,0:0:0:0:
376,300,160812,2,0,L|272:344,1,100,2|8,0:0|0:0,0:0:0:0:
176,312,161657,2,0,P|144:284|124:208,1,100,2|8,0:0|0:0,0:0:0:0:
232,220,162502,5,4,0:0:0:0:
340,196,162924,2,0,P|368:188|420:132,2,100,8|2|8,0:0|0:0|0:0,0:0:0:0:
316,88,164192,2,0,P|248:56|132:100,1,200,2|2,0:0|0:0,0:0:0:0:
112,204,165460,2,0,P|120:256|168:296,1,100,8|2,0:0|0:0,0:0:0:0:
264,308,166305,5,8,0:0:0:0:
376,296,166727,2,0,P|428:264|448:220,2,100,2|8|2,0:0|0:0|0:0,0:0:0:0:
340,192,167995,2,0,L|232:200,2,100,8|2|8,0:0|0:0|0:0,0:0:0:0:
428,128,169262,6,0,P|436:100|428:24,1,100,4|8,0:0|0:0,0:0:0:0:
328,76,170108,2,0,P|292:88|224:88,1,100,2|8,0:0|0:0,0:0:0:0:
168,180,170953,1,2,0:0:0:0:
196,284,171375,2,0,P|100:308|24:248,1,200,8|8,0:0|0:0,0:0:0:0:
124,200,172643,6,0,L|184:116,1,100,8|2,0:0|0:0,0:0:0:0:
248,32,173488,1,2,0:0:0:0:
320,116,173910,2,0,L|380:200,1,100,8|2,0:0|0:0,0:0:0:0:
268,204,174755,2,0,L|248:308,1,100,8|2,0:0|0:0,0:0:0:0:
140,308,175600,1,8,0:0:0:0:
80,220,176023,6,0,P|60:176|84:112,1,100,4|8,0:0|0:0,0:0:0:0:
172,84,176868,2,0,P|216:84|272:76,1,100,2|8,0:0|0:0,0:0:0:0:
376,104,177713,2,0,L|452:40,2,100,2|8|2,0:0|0:0|0:0,0:0:0:0:
316,204,178981,1,8,0:0:0:0:
396,280,179403,6,0,P|360:304|304:312,1,100,2|8,0:0|0:0,0:0:0:0:
204,268,180248,1,2,0:0:0:0:
164,164,180671,1,8,0:0:0:0:
256,192,181093,12,0,182784,0:0:0:0:
340,292,183629,6,0,P|372:272|392:200,1,100,2|8,0:0|0:0,0:0:0:0:
332,124,184474,2,0,P|248:88|220:88,1,100,2|8,0:0|0:0,0:0:0:0:
180,180,185319,2,0,P|152:236|108:260,1,100,2|8,0:0|0:0,0:0:0:0:
76,160,186164,5,2,0:0:0:0:
136,68,186586,1,8,0:0:0:0:
248,64,187009,2,0,P|296:72|360:56,1,100,2|8,0:0|0:0,0:0:0:0:
444,116,187854,2,0,P|456:164|388:304,1,200,2|2,0:0|0:0,0:0:0:0:
296,340,189122,1,8,0:0:0:0:
224,256,189544,5,2,0:0:0:0:
112,264,189967,2,0,P|64:240|44:180,1,100,8|2,0:0|0:0,0:0:0:0:
104,108,190812,1,8,0:0:0:0:
212,104,191234,2,0,P|260:112|324:104,2,100,2|8|2,0:0|0:0|0:0,0:0:0:0:
144,192,192502,1,8,0:0:0:0:
200,284,192924,6,0,P|260:312|296:312,1,100,2|8,0:0|0:0,0:0:0:0:
372,232,193769,1,2,0:0:0:0:
340,128,194192,1,8,0:0:0:0:
252,64,194615,2,0,L|136:96,1,100,8|8,0:0|0:0,0:0:0:0:
120,196,195460,2,0,L|220:220,1,100,8|8,0:0|0:0,0:0:0:0:
296,144,196305,6,0,P|320:192|320:260,1,100,4|8,0:0|0:0,0:0:0:0:
320,348,197150,1,2,0:0:0:0:
224,296,197572,2,0,P|132:296|64:212,1,200,8|8,0:0|0:0,0:0:0:0:
112,112,198840,2,0,P|148:80|216:64,1,100,2|8,0:0|0:0,0:0:0:0:
308,76,199685,5,2,0:0:0:0:
392,148,200108,2,0,P|404:200|388:264,2,100,8|2|8,0:0|0:0|0:0,0:0:0:0:
308,76,201375,2,0,P|260:72|120:132,1,200,2|2,0:0|0:0,0:0:0:0:
108,240,202643,1,8,0:0:0:0:
204,292,203065,6,0,P|256:304|320:296,1,100,4|8,0:0|0:0,0:0:0:0:
324,192,203910,1,2,0:0:0:0:
220,152,204333,2,0,P|224:104|260:52,1,100,8|2,0:0|0:0,0:0:0:0:
356,32,205178,1,8,0:0:0:0:
444,96,205600,2,0,P|456:124|456:208,1,100,2|8,0:0|0:0,0:0:0:0:
392,280,206446,5,2,0:0:0:0:
284,300,206868,1,8,0:0:0:0:
176,272,207291,2,0,P|140:248|112:196,1,100,2|8,0:0|0:0,0:0:0:0:
180,112,208136,2,0,L|296:76,1,100,8|8,0:0|0:0,0:0:0:0:
368,144,208981,2,0,L|224:192,1,150,8|8,0:0|0:0,0:0:0:0:
