osu file format v12

[General]
AudioFilename: 01 The Plain and the Sky.mp3
AudioLeadIn: 0
PreviewTime: 0
Countdown: 3
SampleSet: Soft
StackLeniency: 0.7
Mode: 0
LetterboxInBreaks: 1
CountdownOffset: 3
WidescreenStoryboard: 1

[Editor]
DistanceSpacing: 1
BeatDivisor: 4
GridSize: 4
TimelineZoom: 1

[Metadata]
Title:The Plain and the Sky
TitleUnicode:The Plain and the Sky
Artist:Konami Sound Team
ArtistUnicode:Konami Sound Team
Creator:Ariadim
Version:Hard
Source:OST Suikoden Tiekreis
Tags:suikoden tierkreis nintendo game
BeatmapID:346109
BeatmapSetID:138597

[Difficulty]
HPDrainRate:5
CircleSize:4
OverallDifficulty:6
ApproachRate:7
SliderMultiplier:1.4
SliderTickRate:2

[Events]
//Background and Video events
0,0,"Suikoden Tierkreis_wallpaper_001_m.jpg",0,0
//Break Periods
//Storyboard Layer 0 (Background)
//Storyboard Layer 1 (Fail)
//Storyboard Layer 2 (Pass)
//Storyboard Layer 3 (Foreground)
//Storyboard Sound Samples
//Background Colour Transformations
3,100,163,162,255

[TimingPoints]
670,566.037735849057,4,2,0,70,1,0

[Colours]
Combo1 : 240,213,15
Combo2 : 254,92,92
Combo3 : 249,23,63
Combo4 : 186,136,31

[HitObjects]
256,184,670,5,0,0:0:0:0:
256,120,953,1,0,0:0:0:0:
256,120,1094,1,0,0:0:0:0:
256,16,1519,2,0,B|288:16|312:40|320:48|320:80,1,70
328,120,2085,1,0,0:0:0:0:
392,152,2368,1,4,0:0:0:0:
256,192,2934,1,0,0:0:0:0:
256,264,3217,1,0,0:0:0:0:
256,264,3358,1,0,0:0:0:0:
256,368,3783,2,0,B|224:368|200:344|192:336|192:304,1,70
184,272,4349,1,0,0:0:0:0:
184,192,4632,1,4,0:0:0:0:
320,192,5198,6,0,B|320:232|312:288|296:328|280:336,1,140
264,192,6330,2,0,B|263:185|303:169|359:161|399:161,1,140
320,104,7462,1,8,0:0:0:0:
416,152,7886,1,0,0:0:0:0:
416,152,8028,1,0,0:0:0:0:
416,224,8311,1,0,0:0:0:0:
416,296,8594,5,8,0:0:0:0:
312,296,9019,1,0,0:0:0:0:
312,296,9160,2,0,L|224:296,2,70
384,296,10009,1,8,0:0:0:0:
416,280,10151,1,0,0:0:0:0:
440,256,10292,1,0,0:0:0:0:
456,192,10575,1,8,0:0:0:0:
456,120,10858,2,8,B|384:120|312:160|272:248|208:240,1,280
208,168,12273,5,0,0:0:0:0:
208,136,12415,2,0,B|136:136|64:168|40:240|40:312,1,245
112,280,13688,1,0,0:0:0:0:
112,280,13830,1,0,0:0:0:0:
128,248,13971,1,0,0:0:0:0:
128,248,14113,1,0,0:0:0:0:
160,248,14254,2,0,L|240:160,1,105
228,170,14820,2,0,L|161:90,1,105
160,56,15386,1,4,0:0:0:0:
300,56,15953,5,0,0:0:0:0:
300,160,16377,1,0,0:0:0:0:
300,196,16519,2,0,L|444:196,3,140
364,316,18783,6,0,B|288:336|228:320|204:300,1,140
156,300,19632,1,0,0:0:0:0:
128,280,19773,1,0,0:0:0:0:
112,248,19915,2,0,P|112:172|148:120,1,140
208,84,20764,1,0,0:0:0:0:
240,72,20905,1,0,0:0:0:0:
276,68,21047,6,0,P|364:84|404:124,1,140
436,176,21896,1,0,0:0:0:0:
452,208,22037,1,0,0:0:0:0:
452,244,22179,2,0,P|396:316|324:308,1,140
228,260,23311,6,0,B|220:188|252:172|268:180|300:124|292:76|252:44|180:52|156:92,2,280
224,328,25858,1,0,0:0:0:0:
224,328,26000,2,0,L|120:240,1,105
92,216,26707,1,0,0:0:0:0:
88,148,26990,1,0,0:0:0:0:
112,124,27132,2,0,L|200:45,1,105
244,100,27839,5,0,0:0:0:0:
312,104,28122,1,0,0:0:0:0:
312,104,28264,1,0,0:0:0:0:
416,104,28688,2,0,B|480:112|520:184|480:256|424:264,1,210
324,184,30103,6,0,B|324:144|324:144|300:88,1,70
248,92,30670,2,0,B|216:92|216:92|184:116,1,70
180,184,31236,2,0,B|180:224|180:224|148:256,1,70
112,300,31802,2,0,B|72:300|72:300|40:268,1,70
52,208,32368,5,0,0:0:0:0:
76,140,32651,1,0,0:0:0:0:
124,88,32934,1,0,0:0:0:0:
188,64,33217,1,0,0:0:0:0:
188,64,33358,1,4,0:0:0:0:
316,184,34066,2,0,L|316:112,6,70
296,252,36047,5,8,0:0:0:0:
364,252,36330,1,8,0:0:0:0:
364,184,36613,1,8,0:0:0:0:
296,184,36896,2,4,B|216:192|192:280|248:352|336:360|384:272|352:224|456:160,1,420
192,64,39726,5,0,0:0:0:0:
124,68,40009,1,0,0:0:0:0:
128,136,40292,2,2,L|208:136,1,70
268,136,40858,2,0,L|268:216,1,70
264,276,41424,2,2,L|160:172,1,140
100,208,42273,5,0,0:0:0:0:
92,140,42556,1,0,0:0:0:0:
136,88,42839,1,0,0:0:0:0:
204,72,43122,1,0,0:0:0:0:
256,192,43688,12,0,47650,0:0:0:0:
256,192,48217,5,4,0:0:0:0:
184,192,48500,1,0,0:0:0:0:
256,192,48783,5,0,0:0:0:0:
256,120,49066,1,0,0:0:0:0:
256,192,49349,5,4,0:0:0:0:
256,264,49632,1,0,0:0:0:0:
256,192,49915,5,0,0:0:0:0:
328,192,50198,1,0,0:0:0:0:
256,192,50481,12,4,52179,0:0:0:0:
256,192,52745,5,0,0:0:0:0:
244,260,53028,1,0,0:0:0:0:
224,192,53170,2,0,L|224:72,2,105
296,120,54443,2,0,L|336:96,1,35
376,192,55009,2,0,L|448:192,1,70
400,240,55434,2,0,L|320:240,1,70
296,240,55858,1,0,0:0:0:0:
224,240,56141,2,0,B|192:200|192:160|192:120,1,105
192,40,56990,6,0,L|232:40,1,35
264,40,57273,2,0,B|264:80|232:96|200:112|136:112,1,140
88,112,58122,1,0,0:0:0:0:
88,184,58405,1,0,0:0:0:0:
192,184,58830,1,0,0:0:0:0:
224,184,58971,1,0,0:0:0:0:
224,80,59396,1,0,0:0:0:0:
224,48,59537,2,0,L|368:48,1,140
368,80,60245,5,0,0:0:0:0:
368,112,60386,2,0,L|280:112,1,70
280,144,60811,2,0,L|200:144,1,70
176,144,61236,2,0,B|104:144|72:200|64:248,1,140
176,224,63641,2,0,L|216:224,3,35
280,224,64349,1,8,0:0:0:0:
280,224,64490,1,8,0:0:0:0:
280,296,64773,6,0,L|312:272,1,35
376,272,65198,1,0,0:0:0:0:
376,200,65481,1,0,0:0:0:0:
376,200,65622,1,0,0:0:0:0:
376,128,65905,1,0,0:0:0:0:
376,128,66047,1,0,0:0:0:0:
304,128,66330,2,0,L|232:128,4,70
176,192,68028,2,0,L|144:160,1,35
80,88,68594,1,12,0:0:0:0:
352,192,69726,6,0,L|352:48,2,140
256,192,71141,1,0,0:0:0:0:
224,192,71283,1,0,0:0:0:0:
120,192,71707,1,8,0:0:0:0:
176,144,71990,1,8,0:0:0:0:
256,24,72556,1,8,0:0:0:0:
256,160,73122,1,4,0:0:0:0:
392,184,73688,5,0,0:0:0:0:
360,176,73830,1,0,0:0:0:0:
328,160,73971,1,0,0:0:0:0:
296,144,74113,1,0,0:0:0:0:
264,128,74254,1,0,0:0:0:0:
136,184,74820,2,0,P|176:212|216:216,1,70
304,168,75386,2,0,B|360:240|296:336|216:336,1,210
224,264,76802,6,0,P|176:256|160:216,1,70
168,168,77368,2,0,P|193:144|227:145,5,70
336,64,79349,5,0,0:0:0:0:
336,136,79632,1,0,0:0:0:0:
336,208,79915,2,0,B|320:256|256:256|232:208|240:152|248:128|200:104|144:96|104:112|80:144|72:216|96:240|144:240|160:272|176:232,1,420
160,320,81896,1,8,0:0:0:0:
160,248,82179,6,0,B|232:248|256:224|280:136|256:120|168:88|120:96|104:136|88:80|64:40|88:0|152:-16|176:16,1,420
296,24,84443,1,4,0:0:0:0:
224,24,84726,1,0,0:0:0:0:
224,96,85009,1,0,0:0:0:0:
224,96,85292,1,0,0:0:0:0:
296,96,85575,1,4,0:0:0:0:
368,96,85858,6,0,B|400:80|424:64|440:24|440:24|440:136,1,210
480,192,86990,2,0,P|456:240|432:240,1,70
368,240,87556,1,0,0:0:0:0:
312,184,87839,5,4,0:0:0:0:
320,216,87981,1,0,0:0:0:0:
312,256,88122,1,0,0:0:0:0:
280,272,88264,1,0,0:0:0:0:
240,256,88405,1,4,0:0:0:0:
224,224,88547,1,0,0:0:0:0:
240,184,88688,1,0,0:0:0:0:
248,152,88830,1,0,0:0:0:0:
256,112,88971,2,4,B|224:32|144:8|64:32|32:136,2,280
256,184,91519,5,8,0:0:0:0:
256,184,91660,1,8,0:0:0:0:
256,184,91802,1,8,0:0:0:0:
256,184,92085,1,8,0:0:0:0:
256,48,92368,6,0,P|300:48|320:64,1,70
344,128,92934,2,0,P|360:164|396:180,1,70
388,248,93500,2,0,P|312:248|264:204,1,140
160,120,94632,5,0,0:0:0:0:
256,120,95198,1,0,0:0:0:0:
352,120,95764,1,0,0:0:0:0:
360,256,96330,2,0,L|272:256,1,70
224,256,96896,2,0,L|144:256,1,70
160,128,97462,2,0,L|240:128,1,70
296,128,98028,5,8,0:0:0:0:
368,128,98311,1,0,0:0:0:0:
368,128,98453,1,0,0:0:0:0:
392,104,98594,1,8,0:0:0:0:
392,104,98877,1,8,0:0:0:0:
392,32,99160,1,8,0:0:0:0:
304,56,99443,5,0,0:0:0:0:
272,56,99585,1,0,0:0:0:0:
240,56,99726,1,8,0:0:0:0:
168,56,100009,1,8,0:0:0:0:
168,128,100292,2,4,L|240:128,3,70
256,64,101424,1,0,0:0:0:0:
400,264,101990,1,0,0:0:0:0:
152,264,102556,1,4,0:0:0:0:
