osu file format v12

[General]
AudioFilename: 01 The Plain and the Sky.mp3
AudioLeadIn: 0
PreviewTime: 0
Countdown: 3
SampleSet: Soft
StackLeniency: 0.7
Mode: 0
LetterboxInBreaks: 1
CountdownOffset: 3
WidescreenStoryboard: 1

[Editor]
DistanceSpacing: 1
BeatDivisor: 4
GridSize: 8
TimelineZoom: 1

[Metadata]
Title:The Plain and the Sky
TitleUnicode:The Plain and the Sky
Artist:Konami Sound Team
ArtistUnicode:Konami Sound Team
Creator:Ariadim
Version:Easy
Source:OST Suikoden Tiekreis
Tags:suikoden tierkreis nintendo game
BeatmapID:346108
BeatmapSetID:138597

[Difficulty]
HPDrainRate:2
CircleSize:2
OverallDifficulty:2
ApproachRate:2
SliderMultiplier:1.4
SliderTickRate:2

[Events]
//Background and Video events
0,0,"Suikoden Tierkreis_wallpaper_001_m.jpg",0,0
//Break Periods
//Storyboard Layer 0 (Background)
//Storyboard Layer 1 (Fail)
//Storyboard Layer 2 (Pass)
//Storyboard Layer 3 (Foreground)
//Storyboard Sound Samples
//Background Colour Transformations
3,100,163,162,255

[TimingPoints]
670,566.037735849057,4,2,0,70,1,0

[Colours]
Combo1 : 240,213,15
Combo2 : 254,137,137
Combo3 : 173,5,35
Combo4 : 186,136,31

[HitObjects]
112,80,670,1,0,0:0:0:0:
256,320,1802,2,0,B|312:296|352:264|368:208|368:136|368:48,1,280
224,88,3500,5,0,0:0:0:0:
96,152,4066,1,0,0:0:0:0:
208,232,4632,1,0,0:0:0:0:
312,136,5198,6,0,P|312:56|368:16,1,140
464,104,6330,2,0,P|464:184|408:224,1,140
304,288,7462,6,0,B|299:293|267:333|192:352|139:325|96:272|48:176|104:104|200:88|224:96,1,420
336,96,9726,6,0,P|368:112|384:144,2,70
200,96,10858,1,4,0:0:0:0:
472,40,11990,6,0,P|480:88|456:128,1,70
424,160,12556,1,8,0:0:0:0:
288,192,13122,2,0,P|248:192|208:232,1,70
176,264,13688,1,8,0:0:0:0:
64,184,14254,6,0,B|64:88|184:128|200:24,2,210
80,320,16519,5,0,0:0:0:0:
216,296,17085,1,0,0:0:0:0:
304,192,17651,1,4,0:0:0:0:
0,80,18783,6,0,B|48:136|48:136|112:136,1,140
216,40,19915,2,0,B|296:40|296:40|344:88,1,140
480,88,21047,6,0,B|480:160|480:160|424:216,1,140
288,208,22179,2,0,B|232:264|232:264|232:336,1,140
96,328,23311,5,4,0:0:0:0:
0,224,23877,1,0,0:0:0:0:
0,88,24443,5,4,0:0:0:0:
112,8,25009,1,0,0:0:0:0:
248,24,25575,6,0,B|288:56|320:88|352:144,1,140
472,176,26707,2,0,B|432:240|384:256|336:256,1,140
256,168,27839,6,0,P|184:208|120:192,1,140
152,336,28971,2,0,B|88:320|40:288|24:240,1,140
40,128,30103,22,0,B|88:80|240:112|168:200|208:288|344:288|400:200|400:200,1,420
496,112,32368,1,8,0:0:0:0:
360,72,32934,1,8,0:0:0:0:
392,208,33500,1,4,0:0:0:0:
272,288,34066,1,0,0:0:0:0:
176,184,34632,6,0,B|256:120|296:264|416:224|432:144|416:88|360:40|272:80,1,420
144,32,36896,1,8,0:0:0:0:
32,112,37462,1,8,0:0:0:0:
40,248,38028,1,4,0:0:0:0:
160,328,38594,1,0,0:0:0:0:
296,304,39160,6,0,P|368:240|248:144,1,280
128,184,40858,1,0,0:0:0:0:
208,64,41424,6,0,B|272:40|320:104|240:152,2,140
128,184,43122,1,8,0:0:0:0:
264,136,43688,6,0,B|224:184|288:248|344:176,2,140
376,48,45386,1,4,0:0:0:0:
488,136,45953,2,0,B|424:152|400:192|408:240,1,140
288,312,47085,6,0,B|304:256|288:208|224:200|200:192,1,140
104,248,48217,2,0,B|48:208|40:160|72:104,1,140
184,64,49349,2,0,B|208:104|240:120|288:128|320:120,1,140
256,192,50481,12,0,52745,0:0:0:0:
464,48,53877,5,0,0:0:0:0:
368,152,54443,1,0,0:0:0:0:
232,184,55009,2,0,B|184:192|144:280|144:280|96:192|40:184,2,280
312,72,57839,6,0,B|320:120|400:168|400:168|320:216|296:272,1,280
160,304,59537,5,0,0:0:0:0:
104,264,59820,1,0,0:0:0:0:
96,192,60103,1,12,0:0:0:0:
216,112,60670,1,0,0:0:0:0:
232,176,60953,1,0,0:0:0:0:
280,224,61236,1,12,0:0:0:0:
416,184,61802,5,0,0:0:0:0:
328,80,62368,1,0,0:0:0:0:
192,48,62934,2,0,B|160:104|128:112|72:88,1,140
24,192,64066,6,0,B|24:248|24:248|104:288,1,140
216,200,65198,1,0,0:0:0:0:
328,120,65764,1,0,0:0:0:0:
464,120,66330,6,0,L|464:280,1,140
328,256,67462,1,8,0:0:0:0:
192,256,68028,1,8,0:0:0:0:
256,192,68594,12,0,70292,0:0:0:0:
256,320,70858,6,0,B|160:200|312:192|240:64|136:64|80:160|16:64,2,420
240,40,75386,6,0,B|336:160|184:168|256:296|360:296|416:200|480:296,2,420
256,16,79915,6,0,B|320:16|360:48|368:104|352:120,1,140
496,104,81047,2,0,B|496:168|464:208|408:216|392:200,1,140
296,144,82179,6,0,B|232:144|192:176|184:232|200:248,1,140
104,328,83311,2,0,B|40:328|0:296|-8:240|8:224,1,140
64,56,84443,5,8,0:0:0:0:
136,56,84726,1,8,0:0:0:0:
208,56,85009,1,12,0:0:0:0:
344,56,85575,5,8,0:0:0:0:
344,128,85858,1,8,0:0:0:0:
344,200,86141,1,12,0:0:0:0:
232,288,86707,6,0,B|176:384|24:328|32:232|48:184,1,280
168,160,88405,1,0,0:0:0:0:
296,216,88971,6,0,B|408:128|296:16|240:16|184:48,1,280
168,160,90670,1,0,0:0:0:0:
40,208,91236,6,0,B|32:296|160:384|248:344|264:312,2,280
304,120,94632,6,0,B|336:200|232:256|152:248|120:152,2,280
32,192,98028,5,0,0:0:0:0:
120,80,98594,1,0,0:0:0:0:
256,72,99160,5,0,0:0:0:0:
360,160,99726,1,0,0:0:0:0:
256,192,100292,12,0,102556,0:0:0:0:
