osu file format v5

[General]
AudioFilename: 1-03_-_bloodlines_(stage_1_bgm).mp3
AudioLeadIn: 298
PreviewTime: 14017
Countdown: 1
SampleSet: Normal
StackLeniency: 0.6
Mode: 0
LetterboxInBreaks: 1

[Editor]
DistanceSpacing: 1
BeatDivisor: 6
GridSize: 32

[Metadata]
Title:Bloodlines
Artist:Konami Kukeiha Club
Creator:nelm2009
Version:Normal
Source:Video Game
Tags:castlevania

[Difficulty]
HPDrainRate:5
CircleSize:5
OverallDifficulty:6
SliderMultiplier:1.5
SliderTickRate:2

[Events]
//Background and Video events
0,0,"untitled.jpg"
//Break Periods
2,34813,47383
//Storyboard Layer 0 (Background)
//Storyboard Layer 1 (Fail)
//Storyboard Layer 2 (Pass)
//Storyboard Layer 3 (Foreground)
//Storyboard Sound Samples
//Background Colour Transformations
3,100,163,162,255

[TimingPoints]
7275,427.167876975651,4,1,0,50,1,0

[HitObjects]
399,228,7275,2,0,B|330:297|247:326|127:243,1,300
168,152,8414,1,0
231,44,8770,1,0
304,58,8983,2,0,B|435:109|453:191|376:306,1,300
296,244,10122,5,0
252,126,10478,1,0
212,62,10692,2,0,B|110:83|50:154|131:301,1,300
209,236,11831,5,0
299,149,12187,1,0
301,224,12401,2,0,B|461:224,3,150
331,133,14109,6,0,B|296:73|194:42|105:44|86:147,1,300
175,184,15248,1,0
300,184,15604,1,0
374,189,15818,2,0,B|390:290|272:333|134:257,1,300
87,201,16957,5,0
155,96,17313,1,0
222,63,17527,2,0,B|337:23|423:61|442:200,1,300
322,216,18666,1,0
197,214,19022,1,0
198,287,19235,2,0,B|110:309|-11:182|102:83,1,300
205,110,20374,5,0
315,129,20730,1,0
315,129,20944,1,0
256,160,22083,5,2
224,224,22368,1,0
288,224,22653,1,0
256,224,23792,5,10
288,160,24076,1,0
224,160,24361,1,0
256,160,25500,5,2
256,160,25785,1,0
256,224,26070,1,0
99,267,26924,5,2
151,206,27209,1,2
206,148,27565,1,2
261,97,27779,2,2,B|315:64|414:65|430:101|467:181|424:250,1,300
334,258,28918,1,2
281,198,29202,1,2
326,132,29487,2,2,B|272:76|199:52|88:68|33:122,1,300
102,168,30626,1,2
175,199,30911,1,2
172,98,31196,6,2,B|259:51|309:110,1,150
455,135,32050,2,2,B|490:215|450:279,1,150
300,289,32905,2,2,B|230:347|161:308,1,150
131,161,33759,2,2,B|155:90|243:71,1,150
260,164,34613,5,2
53,79,48283,6,0,B|199:31|305:36|390:118,1,350
395,186,49493,1,0
313,243,49707,1,0
375,283,49991,2,8,B|228:341|135:341|26:251,1,350
93,208,51202,5,0
109,109,51415,1,0
133,37,51700,2,0,B|249:45|325:76|392:120|426:217,1,350
400,273,52910,5,0
334,299,53195,1,0
254,238,53409,2,0,B|120:134,1,150
50,183,54263,5,0
89,90,54548,1,0
212,72,54904,1,0
273,114,55117,2,0,B|398:234,1,150
387,323,55972,5,0
452,248,56256,1,0
405,132,56612,1,0
333,107,56826,2,0,B|175:47,1,150
107,177,57680,5,0
186,237,57965,1,0
290,304,58321,1,0
339,247,58535,5,0
416,160,58962,1,0
320,96,59389,1,0
256,192,59816,1,0
160,128,60243,5,0
96,224,60670,1,0
192,288,61098,1,0
256,192,61525,1,0
256,128,61952,6,0,B|416:128,1,150
320,224,63020,1,2
448,224,63376,1,2
448,96,63661,5,0
416,128,63874,1,0
384,96,64088,1,0
352,128,64301,1,0
320,96,64515,1,0
288,128,64729,1,0
256,96,64942,1,0
224,128,65156,1,0
256,192,65369,5,0
128,192,66224,1,0
128,192,66437,1,2
192,192,66864,1,2
256,256,67078,5,2
288,224,67292,1,2
320,256,67505,1,2
352,224,67719,1,2
384,256,67932,1,2
416,224,68146,1,2
448,256,68360,1,2
480,224,68573,1,2
448,160,68787,5,2
312,128,69641,2,0,B|239:84|149:80,1,150
128,160,70495,1,0
160,192,70709,1,0
192,224,70923,1,0
224,256,71136,1,0
256,288,71350,5,2
288,256,71563,1,0
320,224,71777,1,10
352,192,71990,1,0
384,160,72204,2,0,B|256:76,2,150
256,159,73486,5,0
256,160,73913,1,0
256,224,74767,5,0
256,224,75052,1,0
130,224,75408,1,0
196,196,75621,6,0,L|132:137|187:76,1,150
288,54,76476,2,0,L|379:92|422:149,1,150
448,192,77330,1,0
448,256,77757,1,0
384,256,78184,2,0,L|224:256,1,150
160,256,79039,5,2
96,256,79466,1,2
96,192,79893,1,0
160,192,80320,1,8
224,192,80747,1,0
256,96,81602,5,0
256,96,82029,1,0
256,96,82456,1,0
256,192,82670,12,0,90999
