osu file format v5

[General]
AudioFilename: Snatcher Theme.mp3
AudioLeadIn: 0
PreviewTime: -1
Countdown: 1
SampleSet: Normal
EditorBookmarks: 56125,129625,159000,160250

[Metadata]
Title:Snatcher Theme Battle Perfect Selection
Artist:Konami
Creator:-[GuiLLe]-
Version:Normal

[Difficulty]
HPDrainRate:5
CircleSize:6
OverallDifficulty:5
SliderMultiplier:1.5
SliderTickRate:3

[Events]
//Background and Video events
0,0,"38447d18c8086be0081ef4f94d4de486.jpg"
//Break Periods
2,114033,129449
2,151950,160075
//Storyboard Layer 0 (Background)
//Storyboard Layer 1 (Failing)
//Storyboard Layer 2 (Passing)
//Storyboard Layer 3 (Foreground)
//Storyboard Sound Samples
//Background Colour Transformations
3,100,163,162,255

[TimingPoints]
0,1000,4,1,0,100

[HitObjects]
48,48,625,1,0
48,48,750,1,0
137,48,1500,1,0
138,48,1625,1,0
222,48,2333,1,0
302,48,3000,1,0
302,48,3125,1,0
392,48,3875,1,0
392,48,4000,2,0,B|286:166,1,150
47,324,5375,1,0
47,324,5500,1,0
136,326,6250,1,0
136,326,6375,1,0
220,324,7083,1,0
300,324,7750,1,0
300,324,7875,1,0
390,324,8625,1,0
390,324,8750,1,0
464,48,10125,5,0
464,48,10250,1,0
375,48,11000,1,0
375,48,11125,1,0
291,48,11833,1,0
211,48,12500,1,0
211,48,12625,1,0
121,48,13375,1,0
121,48,13500,2,0,B|227:166,1,150
465,324,14875,1,0
465,324,15000,1,0
375,324,15625,1,0
375,326,15750,1,0
305,325,16583,1,0
256,186,18125,1,0
256,186,18250,1,4
59,46,19500,6,0,B|252:232,1,262.5
160,288,21875,5,0
160,288,22000,1,0
352,288,22750,1,0
352,288,22875,1,0
338,46,24333,5,0
338,102,24833,1,0
337,141,25125,2,0,C|337:296,1,150
160,96,26625,1,0
160,96,26750,1,0
160,288,27500,1,0
160,288,27625,1,0
453,46,29000,6,0,B|260:232,1,262.5
352,288,31375,5,0
352,288,31500,1,0
160,288,32250,1,0
160,288,32375,1,0
174,46,33625,5,0
174,102,34125,1,0
175,141,34417,2,0,C|175:296,1,150
352,96,36000,1,0
352,96,36125,1,0
352,288,36875,1,0
352,288,37000,1,0
256,192,37500,12,0,38125
48,48,38500,5,0
48,108,39000,1,0
48,138,39250,1,0
49,197,39750,1,0
50,266,40333,2,0,B|358:265,1,300
464,47,43125,6,0,C|464:88,1,37.5
465,129,43750,1,0
465,159,44000,1,0
464,237,44666,1,0
464,257,44833,1,0
464,296,45166,1,0
256,192,45833,12,0,47500
48,48,48000,5,0
48,108,48500,1,0
48,138,48750,1,0
49,197,49250,1,0
50,266,49833,2,0,B|376:267,1,318.75
97,48,52875,6,0,C|96:212|96:293,1,243.75
80,349,55000,1,0
98,325,55250,1,0
113,350,55500,1,0
127,350,55625,1,0
256,192,56250,12,0,57625
137,48,58250,1,0
138,48,58375,1,0
222,50,59125,2,0,C|223:140,1,75
222,144,59750,1,0
326,145,60625,1,0
326,145,60750,1,0
47,324,62000,1,0
47,324,62125,1,0
136,326,62875,1,0
136,326,63000,1,0
220,324,63708,1,0
300,324,64375,1,0
300,324,64500,1,0
390,324,65250,1,0
390,324,65375,1,0
59,46,66625,6,0,B|252:232,1,262.5
160,288,69125,5,0
160,288,69250,1,0
352,288,70000,1,0
352,288,70125,1,0
336,20,71500,6,0,C|337:96,1,75
337,141,72250,2,0,C|337:296,1,150
160,96,73875,1,0
160,96,74000,1,0
160,288,74750,1,0
160,288,74875,1,0
453,46,76125,6,0,B|260:232,1,262.5
352,288,78500,5,0
352,288,78625,1,0
160,288,79375,1,0
160,288,79500,1,0
174,46,81000,5,0
174,102,81500,1,0
175,141,81792,2,0,C|175:296,1,150
352,96,83250,1,0
352,96,83375,1,0
352,288,84125,1,0
352,288,84250,1,0
256,192,84750,12,0,85375
48,48,85750,5,0
48,108,86250,1,0
48,138,86500,1,0
49,197,87000,1,0
50,266,87583,2,0,B|358:265,1,300
464,47,90375,6,0,C|464:88,1,37.5
465,129,91000,1,0
465,159,91250,1,0
464,237,91916,1,0
464,257,92083,1,0
464,296,92416,1,0
256,192,93083,12,0,94750
48,48,95250,5,0
48,108,95750,1,0
48,138,96000,1,0
49,197,96500,1,0
50,266,97083,2,0,B|376:267,1,318.75
97,48,100125,6,0,C|96:212|96:293,1,243.75
80,349,102250,1,0
98,325,102500,1,0
113,350,102750,1,0
127,350,102875,1,0
256,192,103500,12,0,104875
137,48,105375,1,0
138,48,105500,1,0
222,50,106250,2,0,C|223:140,1,75
222,144,106875,1,0
326,145,107750,1,0
326,145,107875,1,0
47,324,109250,1,0
47,324,109375,1,0
136,326,110125,1,0
136,326,110250,1,0
220,324,110958,1,0
256,192,112000,12,4,113833
256,192,130500,12,0,132000
95,257,132875,2,0,C|179:258,1,75
172,216,133375,2,0,C|268:216,1,93.75
267,173,134000,2,0,C|366:174,1,93.75
360,132,134625,2,0,C|360:35,1,93.75
318,38,135250,2,0,C|218:37,1,93.75
256,128,136375,1,0
256,128,136500,1,0
257,187,137000,1,0
257,187,137125,1,0
258,246,137625,1,0
256,192,138625,12,0,140875
417,257,142250,2,0,C|333:258,1,75
340,216,142750,2,0,C|244:216,1,93.75
245,173,143375,2,0,C|146:174,1,93.75
152,132,144000,2,0,C|152:35,1,93.75
194,38,144625,2,0,C|294:37,1,93.75
256,128,145750,1,0
256,128,145875,1,0
255,187,146375,1,4
256,192,147125,12,0,151750
59,46,161250,6,0,B|252:232,1,262.5
160,288,163625,5,0
160,288,163750,1,0
352,288,164500,1,0
352,288,164625,1,0
336,20,166000,6,0,C|337:96,1,75
337,141,166750,2,0,C|337:296,1,150
160,96,168250,1,0
160,96,168375,1,0
160,288,169125,1,0
160,288,169250,1,0
453,46,170625,6,0,B|260:232,1,262.5
352,288,173000,5,0
352,288,173125,1,0
160,288,173875,1,0
160,288,174000,1,0
174,46,175500,5,0
174,102,176000,1,0
175,141,176292,2,0,C|175:296,1,150
352,96,177750,1,0
352,96,177875,1,0
352,288,178625,1,0
352,288,178750,1,0
256,192,179000,12,0,179625
48,48,180250,5,0
48,108,180750,1,0
48,138,181000,1,0
49,197,181500,1,0
50,266,182083,2,0,B|358:265,1,300
464,47,184750,6,0,C|464:88,1,37.5
465,129,185375,1,0
465,159,185625,1,0
464,237,186291,1,0
464,257,186458,1,0
464,296,186791,1,0
256,192,187458,12,0,189125
48,48,189625,5,0
48,108,190125,1,0
48,138,190375,1,0
49,197,190875,1,0
50,266,191458,2,0,B|376:267,1,318.75
256,192,194500,12,0,199000
