osu file format v5

[General]
AudioFilename: Snatcher Theme.mp3
AudioLeadIn: 0
PreviewTime: -1
Countdown: 1
SampleSet: Normal
EditorBookmarks: 129625,159000

[Metadata]
Title:Snatcher Theme Battle Perfect Selection
Artist:Konami
Creator:-[GuiLLe]-
Version:Easy

[Difficulty]
HPDrainRate:7
CircleSize:7
OverallDifficulty:6
SliderMultiplier:1.4
SliderTickRate:1

[Events]
//Background and Video events
0,0,"38447d18c8086be0081ef4f94d4de486.jpg"
//Break Periods
2,114033,129449
2,151950,157700
//Storyboard Layer 0 (Background)
//Storyboard Layer 1 (Failing)
//Storyboard Layer 2 (Passing)
//Storyboard Layer 3 (Foreground)
//Storyboard Sound Samples
//Background Colour Transformations
3,100,163,162,255

[TimingPoints]
0,1000,4,1,0,100

[HitObjects]
48,48,1250,5,0
169,47,2333,1,0
299,46,3500,1,0
90,274,5666,5,0
257,271,7166,1,0
387,271,8333,1,0
48,48,10666,1,0
178,45,11833,1,0
308,46,13000,1,0
90,274,15333,5,0
239,275,16666,1,0
387,275,18000,1,0
404,275,18166,1,0
59,46,19500,6,0,B|254:231,1,256.666666666667
338,46,24333,5,0
338,102,24833,1,0
336,138,25166,2,0,B|340:370|66:99|48:369,1,420
458,63,29000,6,0,B|271:236,1,233.333333333333
160,48,33666,5,0
160,104,34166,1,0
160,141,34499,2,0,B|151:376|409:123|424:409,1,420
48,48,38500,5,0
48,178,39666,1,0
48,252,40333,2,0,B|356:251,1,303.333333333333
464,48,43166,5,0
464,216,44666,1,0
464,234,44833,1,0
464,271,45166,1,0
256,192,45833,12,0,47500
48,48,48000,5,0
48,178,49166,1,0
109,220,49833,2,0,B|417:219,1,303.333333333333
256,192,53000,12,0,57333
169,47,59000,1,0
299,46,60167,1,0
90,274,62333,5,0
257,271,63833,1,0
387,271,65000,1,0
59,46,66666,6,0,B|254:231,1,256.666666666667
338,46,71499,5,0
336,138,72332,2,0,B|340:370|66:99|48:369,1,420
458,63,76166,6,0,B|271:236,1,233.333333333333
160,48,80832,5,0
160,104,81332,1,0
160,141,81665,2,0,B|151:376|409:123|424:409,1,420
48,48,85833,5,0
48,178,86999,1,0
48,252,87666,2,0,B|356:251,1,303.333333333333
464,48,90499,5,0
464,216,91999,1,0
464,234,92166,1,0
464,271,92499,1,0
256,192,93166,12,0,94833
48,48,95333,5,0
48,178,96499,1,0
109,220,97166,2,0,B|417:219,1,303.333333333333
256,192,100166,12,4,104500
169,47,106333,1,0
299,46,107500,1,0
90,274,109666,5,0
257,271,111000,1,0
256,192,112000,12,4,113833
256,192,130500,12,0,132000
96,320,132833,5,0
160,320,133375,1,0
224,320,134000,1,0
192,256,134625,1,0
160,192,135250,1,0
192,128,135875,1,0
256,128,136375,1,0
256,128,136500,1,0
320,128,137000,1,0
320,128,137125,1,0
320,192,137625,1,0
416,320,142250,5,0
416,320,142375,1,0
384,320,142792,1,0
320,288,143417,1,0
256,224,144042,1,0
288,160,144667,1,0
224,96,145292,1,0
160,96,145792,1,0
160,96,145917,1,0
96,96,146417,1,0
256,192,147125,12,0,151750
256,192,158750,12,0,160000
59,46,161125,6,0,B|254:231,1,256.666666666667
338,46,165958,5,0
338,102,166458,1,0
336,138,166791,2,0,B|340:370|66:99|32:384,1,455
458,63,170625,6,0,B|271:236,1,233.333333333333
32,32,175250,6,0,B|128:96,1,105
160,141,176124,2,0,B|151:376|409:123|424:409,1,420
48,48,180209,5,0
48,66,180375,1,0
48,94,180625,1,0
48,178,181375,1,0
48,252,182042,2,0,B|356:251,1,303.333333333333
464,48,184875,5,0
464,61,185000,1,0
464,89,185250,1,0
464,216,186375,1,0
464,234,186542,1,0
466,271,186875,2,0,B|351:272,1,105
256,192,187542,12,0,189209
48,48,189709,5,0
48,66,189875,1,0
48,94,190125,1,0
48,178,190875,1,0
109,220,191542,2,0,B|417:219,1,303.333333333333
256,192,194709,12,0,199042
