osu file format v13

[General]
AudioFilename: Isshuukan Friends OP [ Niji no Kakera ].mp3
AudioLeadIn: 0
PreviewTime: 51212
Countdown: 0
SampleSet: Soft
StackLeniency: 0.7
Mode: 3
LetterboxInBreaks: 0
SpecialStyle: 0
WidescreenStoryboard: 1

[Editor]
DistanceSpacing: 0.8
BeatDivisor: 4
GridSize: 8
TimelineZoom: 1.750001

[Metadata]
Title:Niji no Kakera-TV size ver.-
TitleUnicode:虹のかけら-TV size ver.-
Artist:Kon Natsumi
ArtistUnicode:昆夏美
Creator:kifuera456
Version:NM
Source:Isshuukan Friends.
Tags:Opening Anime 一週間フレンズ。
BeatmapID:419851
BeatmapSetID:173805

[Difficulty]
HPDrainRate:6
CircleSize:4
OverallDifficulty:7
ApproachRate:5
SliderMultiplier:1.4
SliderTickRate:1

[Events]
//Background and Video events
0,0,"bg.png",0,0
//Break Periods
//Storyboard Layer 0 (Background)
//Storyboard Layer 1 (Fail)
//Storyboard Layer 2 (Pass)
//Storyboard Layer 3 (Foreground)
//Storyboard Sound Samples
//Background Colour Transformations
3,100,163,162,255

[TimingPoints]
720,454.545454545455,4,2,0,40,1,0
51629,-100,4,2,0,40,0,1
78901,-100,4,2,0,40,0,0

[HitObjects]
64,192,720,5,2,0:0:0:0:
192,192,947,1,0,0:0:0:0:
320,192,1174,1,0,0:0:0:0:
448,192,1401,1,2,0:0:0:0:
192,192,1856,1,0,0:0:0:0:
320,192,2083,1,0,0:0:0:0:
448,192,2310,1,2,0:0:0:0:
64,192,2765,1,0,0:0:0:0:
192,192,2992,1,0,0:0:0:0:
320,192,3220,1,2,0:0:0:0:
448,192,3674,1,0,0:0:0:0:
64,192,3901,1,0,0:0:0:0:
320,192,4129,1,0,0:0:0:0:
448,192,4356,128,0,5038:0:0:0:0:
192,192,4356,1,4,1:0:0:0:
64,192,5038,128,0,5492:0:0:0:0:
320,192,5038,1,4,1:0:0:0:
448,192,5492,128,8,5720:3:0:0:0:
320,192,5720,128,4,5947:3:0:0:0:
64,192,5947,128,4,7992:3:0:0:0:
192,192,5947,1,4,1:0:0:0:
192,192,6629,1,0,0:0:0:0:
448,192,7083,1,4,3:0:0:0:
320,192,7538,1,4,3:0:0:0:
448,192,7992,1,8,3:0:0:0:
192,192,8220,1,0,0:0:0:0:
320,192,8447,1,0,1:0:0:0:
448,192,8674,128,0,9810:0:0:0:0:
64,192,9356,1,0,1:0:0:0:
192,192,9810,1,4,3:0:0:0:
320,192,10038,1,0,0:0:0:0:
192,192,10265,1,0,1:0:0:0:
64,192,10492,128,0,11629:0:0:0:0:
448,192,11174,1,0,1:0:0:0:
448,192,11629,1,4,3:0:0:0:
320,192,11856,1,0,0:0:0:0:
192,192,12083,1,0,1:0:0:0:
320,192,12310,128,0,13447:0:0:0:0:
64,192,12992,1,0,1:0:0:0:
192,192,13447,1,4,3:0:0:0:
320,192,13674,1,0,0:0:0:0:
448,192,13901,1,0,1:0:0:0:
192,192,14129,128,0,15265:0:0:0:0:
448,192,14810,1,0,1:0:0:0:
64,192,15265,1,4,3:0:0:0:
448,192,15492,1,0,0:0:0:0:
192,192,15720,1,0,1:0:0:0:
64,192,15947,128,0,17083:0:0:0:0:
320,192,16629,1,0,1:0:0:0:
192,192,17083,1,4,3:0:0:0:
448,192,17310,1,0,0:0:0:0:
320,192,17538,1,0,1:0:0:0:
192,192,17765,128,0,18447:0:0:0:0:
448,192,18447,128,0,18901:2:0:0:0:
64,192,18447,1,0,1:0:0:0:
320,192,18901,1,4,3:0:0:0:
64,192,19129,1,0,0:0:0:0:
192,192,19356,1,0,1:0:0:0:
320,192,19583,128,0,20265:0:0:0:0:
448,192,20265,1,0,1:0:0:0:
64,192,20492,1,4,3:0:0:0:
448,192,20720,1,4,3:0:0:0:
320,192,20947,1,0,0:0:0:0:
192,192,21174,1,0,1:0:0:0:
320,192,21401,1,8,3:0:0:0:
448,192,21401,1,0,0:0:0:0:
64,192,21629,1,4,3:0:0:0:
448,192,21856,1,4,3:0:0:0:
192,192,22083,1,8,3:0:0:0:
64,192,22083,128,0,22538:0:0:0:0:
320,192,22538,1,4,3:0:0:0:
448,192,22538,1,4,1:0:0:0:
64,192,22992,1,4,3:0:0:0:
192,192,22992,1,0,0:0:0:0:
320,192,23447,1,4,3:0:0:0:
192,192,23447,1,0,0:0:0:0:
192,192,23901,1,0,1:0:0:0:
448,192,23901,1,0,0:0:0:0:
448,192,24356,1,4,3:0:0:0:
320,192,24356,1,0,0:0:0:0:
192,192,24810,1,4,3:0:0:0:
320,192,24810,1,0,0:0:0:0:
64,192,25265,1,4,3:0:0:0:
192,192,25265,1,0,0:0:0:0:
64,192,25720,1,0,0:0:0:0:
320,192,25720,1,0,1:0:0:0:
192,192,26174,1,4,3:0:0:0:
320,192,26174,1,0,0:0:0:0:
320,192,26629,1,4,3:0:0:0:
448,192,26629,1,0,0:0:0:0:
192,192,27083,1,4,3:0:0:0:
64,192,27083,1,0,0:0:0:0:
192,192,27538,1,0,0:0:0:0:
448,192,27538,1,0,1:0:0:0:
192,192,27992,1,4,3:0:0:0:
64,192,27992,1,0,0:0:0:0:
320,192,28447,1,4,3:0:0:0:
192,192,28447,1,0,0:0:0:0:
448,192,28901,1,4,3:0:0:0:
64,192,28901,1,0,0:0:0:0:
320,192,29129,1,0,1:0:0:0:
448,192,29356,1,4,3:0:0:0:
192,192,29356,1,0,0:0:0:0:
320,192,29583,1,0,1:0:0:0:
64,192,29810,1,4,3:0:0:0:
448,192,29810,1,0,0:0:0:0:
64,192,30265,1,4,3:0:0:0:
320,192,30265,1,0,0:0:0:0:
320,192,30720,1,4,3:0:0:0:
192,192,30720,1,0,0:0:0:0:
192,192,31174,1,0,1:0:0:0:
448,192,31174,1,0,0:0:0:0:
64,192,31629,1,4,3:0:0:0:
192,192,31629,1,0,0:0:0:0:
192,192,32083,1,0,1:0:0:0:
320,192,32083,1,0,0:0:0:0:
64,192,32310,1,0,0:0:0:0:
448,192,32310,1,4,0:0:0:0:
192,192,32765,1,4,3:0:0:0:
448,192,32992,1,4,3:0:0:0:
64,192,33220,1,4,3:0:0:0:
192,192,33447,128,4,33901:3:0:0:0:
320,192,33447,1,0,0:0:0:0:
64,192,33901,1,0,1:0:0:0:
320,192,34129,1,4,3:0:0:0:
448,192,34129,1,0,0:0:0:0:
448,192,34583,1,4,3:0:0:0:
64,192,34810,1,0,1:0:0:0:
320,192,35038,128,4,35492:3:0:0:0:
192,192,35038,1,0,0:0:0:0:
64,192,35492,1,4,3:0:0:0:
192,192,35720,128,0,36174:0:0:0:0:
448,192,36174,128,4,36629:3:0:0:0:
64,192,36629,128,0,37083:1:0:0:0:
448,192,37083,1,4,3:0:0:0:
192,192,37083,1,0,0:0:0:0:
448,192,37310,1,4,3:0:0:0:
320,192,37310,1,0,0:0:0:0:
320,192,37765,1,4,3:0:0:0:
192,192,37992,1,0,0:0:0:0:
448,192,37992,1,0,1:0:0:0:
64,192,38220,1,4,3:0:0:0:
448,192,38447,128,0,38901:0:0:0:0:
192,192,38447,1,4,3:0:0:0:
64,192,38901,1,4,3:0:0:0:
320,192,38901,1,0,0:0:0:0:
64,192,39129,1,4,3:0:0:0:
192,192,39129,1,0,0:0:0:0:
192,192,39583,1,4,3:0:0:0:
320,192,39810,1,0,0:0:0:0:
64,192,39810,1,0,1:0:0:0:
448,192,40038,1,4,3:0:0:0:
192,192,40265,128,8,40720:3:0:0:0:
64,192,40265,1,0,3:0:0:0:
320,192,40720,1,4,3:0:0:0:
448,192,40720,1,0,0:0:0:0:
320,192,40947,1,4,3:0:0:0:
64,192,40947,1,0,0:0:0:0:
320,192,41401,1,4,3:0:0:0:
64,192,41629,1,0,1:0:0:0:
448,192,41629,1,0,1:0:0:0:
320,192,41856,1,4,3:0:0:0:
192,192,42083,1,0,1:0:0:0:
448,192,42310,128,4,42765:3:0:0:0:
64,192,42310,1,0,0:0:0:0:
192,192,42765,1,0,1:0:0:0:
448,192,42992,1,0,1:0:0:0:
64,192,42992,1,0,0:0:0:0:
192,192,43220,128,0,43901:1:0:0:0:
320,192,43220,1,0,0:0:0:0:
64,192,43674,1,0,0:0:0:0:
320,192,43901,1,8,3:0:0:0:
448,192,43901,1,0,0:0:0:0:
192,192,44129,1,4,3:0:0:0:
320,192,44356,1,0,1:0:0:0:
448,192,44356,1,0,0:0:0:0:
64,192,44583,1,4,3:0:0:0:
192,192,44810,1,4,3:0:0:0:
320,192,45038,1,4,3:0:0:0:
448,192,45265,1,4,3:0:0:0:
320,192,45492,1,4,3:0:0:0:
192,192,45720,1,4,3:0:0:0:
64,192,45947,1,4,3:0:0:0:
448,192,46174,1,4,3:0:0:0:
320,192,46401,1,4,3:0:0:0:
192,192,46629,1,4,3:0:0:0:
64,192,46856,1,4,3:0:0:0:
192,192,47083,1,4,3:0:0:0:
320,192,47310,1,4,3:0:0:0:
448,192,47538,1,4,3:0:0:0:
320,192,47765,1,4,3:0:0:0:
192,192,47992,1,4,0:0:0:0:
448,192,47992,1,0,0:3:0:0:
64,192,48447,1,0,1:0:0:0:
320,192,48447,1,0,0:0:0:0:
448,192,48674,1,4,3:0:0:0:
192,192,48901,1,4,3:0:0:0:
448,192,49129,1,4,3:0:0:0:
64,192,49356,1,0,0:0:0:0:
320,192,49356,1,0,1:0:0:0:
192,192,49583,128,4,50038:3:0:0:0:
448,192,49583,1,0,3:0:0:0:
448,192,50038,1,0,1:0:0:0:
320,192,50265,1,0,1:0:0:0:
192,192,50492,1,0,0:0:0:0:
64,192,50492,128,0,51629:1:0:0:0:
192,192,51629,1,4,3:0:0:0:
320,192,51629,1,0,0:0:0:0:
64,192,52083,1,0,1:0:0:0:
448,192,52083,1,0,0:0:0:0:
64,192,52538,1,4,3:0:0:0:
320,192,52538,1,0,0:0:0:0:
320,192,52992,1,0,0:0:0:0:
448,192,52992,1,0,1:0:0:0:
192,192,53220,1,0,0:0:0:0:
64,192,53447,1,4,3:0:0:0:
448,192,53447,128,0,53901:3:0:0:0:
192,192,53901,1,0,0:0:0:0:
320,192,53901,1,0,1:0:0:0:
64,192,54356,1,4,3:0:0:0:
320,192,54356,128,0,54810:0:0:0:0:
64,192,54810,1,0,1:0:0:0:
192,192,54810,1,0,0:0:0:0:
448,192,55265,1,4,3:0:0:0:
192,192,55265,1,0,0:0:0:0:
320,192,55720,1,0,1:0:0:0:
192,192,55720,1,0,0:0:0:0:
64,192,56174,1,4,3:0:0:0:
448,192,56174,1,0,0:0:0:0:
64,192,56629,1,0,0:0:0:0:
448,192,56629,1,0,1:0:0:0:
320,192,56856,1,0,0:0:0:0:
448,192,57083,1,4,3:0:0:0:
192,192,57083,128,0,57538:0:0:0:0:
320,192,57538,1,0,1:0:0:0:
448,192,57538,1,0,0:0:0:0:
64,192,57992,1,4,3:0:0:0:
320,192,57992,128,0,58447:0:0:0:0:
192,192,58447,1,0,1:0:0:0:
448,192,58447,1,0,0:0:0:0:
64,192,58901,128,4,59356:3:0:0:0:
320,192,58901,1,4,1:0:0:0:
448,192,59356,1,0,1:0:0:0:
192,192,59583,128,0,60265:0:0:0:0:
448,192,59810,1,4,3:0:0:0:
448,192,60265,128,0,60720:2:0:0:0:
320,192,60265,1,0,1:0:0:0:
320,192,60720,128,0,61174:2:0:0:0:
192,192,60720,1,4,3:0:0:0:
64,192,61174,1,0,1:0:0:0:
448,192,61401,128,0,62538:0:0:0:0:
64,192,61629,1,4,3:0:0:0:
64,192,62083,1,0,1:0:0:0:
192,192,62538,128,0,63901:2:0:0:0:
320,192,62538,1,4,3:0:0:0:
448,192,62992,1,0,1:0:0:0:
64,192,63447,1,4,3:0:0:0:
320,192,63901,1,0,1:0:0:0:
448,192,64129,128,0,64583:0:0:0:0:
64,192,64129,1,0,0:0:0:0:
320,192,64583,1,4,3:0:0:0:
192,192,64810,1,4,3:0:0:0:
64,192,65038,1,4,3:0:0:0:
192,192,65265,1,4,3:0:0:0:
320,192,65492,1,4,3:0:0:0:
448,192,65720,1,0,0:0:0:0:
192,192,65720,1,0,1:0:0:0:
64,192,65947,1,4,3:0:0:0:
64,192,66174,1,4,3:0:0:0:
448,192,66174,128,0,67992:0:0:0:0:
192,192,66629,1,0,1:0:0:0:
320,192,67083,1,4,3:0:0:0:
64,192,67538,1,0,1:0:0:0:
320,192,67992,128,0,68901:2:0:0:0:
192,192,67992,1,4,3:0:0:0:
64,192,68447,1,0,1:0:0:0:
448,192,68901,128,0,69356:2:0:0:0:
192,192,68901,1,4,3:0:0:0:
192,192,69356,128,0,69810:2:0:0:0:
64,192,69356,1,0,1:0:0:0:
320,192,69810,128,0,71629:2:0:0:0:
448,192,69810,1,4,3:0:0:0:
64,192,70265,1,0,1:0:0:0:
192,192,70720,1,4,3:0:0:0:
448,192,71174,1,0,1:0:0:0:
64,192,71629,128,0,72310:2:0:0:0:
192,192,71629,1,4,3:0:0:0:
448,192,72083,1,0,1:0:0:0:
192,192,72310,1,0,1:0:0:0:
320,192,72538,128,0,72992:2:0:0:0:
448,192,72992,128,0,73447:2:0:0:0:
64,192,72992,1,0,1:0:0:0:
64,192,73447,128,0,75265:2:0:0:0:
192,192,73447,1,4,3:0:0:0:
320,192,73901,1,0,1:0:0:0:
192,192,74356,1,4,3:0:0:0:
448,192,74810,1,0,1:0:0:0:
320,192,75265,128,0,75947:2:0:0:0:
192,192,75265,1,4,3:0:0:0:
448,192,75492,1,4,3:0:0:0:
64,192,75720,1,4,3:0:0:0:
448,192,75947,128,0,77083:0:0:0:0:
192,192,75947,1,0,1:0:0:0:
64,192,76401,1,4,3:0:0:0:
192,192,76629,1,0,1:0:0:0:
192,192,77083,1,0,1:0:0:0:
320,192,77310,1,4,3:0:0:0:
448,192,77538,1,4,3:0:0:0:
320,192,77765,1,4,3:0:0:0:
192,192,77992,1,4,3:0:0:0:
64,192,78220,1,4,3:0:0:0:
192,192,78447,1,4,3:0:0:0:
320,192,78674,1,4,3:0:0:0:
448,192,78901,128,4,80720:1:0:0:0:
64,192,78901,1,0,0:0:0:0:
64,192,80720,1,4,0:0:0:0:
320,192,80947,1,0,0:0:0:0:
192,192,81174,1,0,0:0:0:0:
64,192,81401,1,2,0:0:0:0:
64,192,81856,1,0,0:0:0:0:
192,192,82083,1,0,0:0:0:0:
320,192,82310,1,2,0:0:0:0:
448,192,82765,1,0,0:0:0:0:
192,192,82992,1,0,0:0:0:0:
320,192,83220,1,2,0:0:0:0:
448,192,83674,1,0,0:0:0:0:
320,192,83901,1,0,0:0:0:0:
448,192,84129,1,0,0:0:0:0:
192,192,84356,1,2,0:0:0:0:
320,192,84583,1,0,0:0:0:0:
64,192,84810,1,0,0:0:0:0:
192,192,85038,1,2,0:0:0:0:
192,192,85492,1,0,0:0:0:0:
448,192,85720,1,2,0:0:0:0:
64,192,85947,128,0,89356:0:0:0:0:
320,192,85947,128,0,89356:0:0:0:0:
