osu file format v12

[General]
AudioFilename: Isshuukan Friends - Openin.mp3
AudioLeadIn: 0
PreviewTime: 52215
Countdown: 0
SampleSet: Soft
StackLeniency: 0.7
Mode: 0
LetterboxInBreaks: 0
WidescreenStoryboard: 0

[Editor]
DistanceSpacing: 1.1
BeatDivisor: 4
GridSize: 4
TimelineZoom: 1

[Metadata]
Title:Niji no Kakera (TV Size)
TitleUnicode:虹のかけら (TV Size)
Artist:Kon Natsumi
ArtistUnicode:昆 夏美
Creator:Yoshino-Sakura
Version:Forever Friend
Source:一週間フレンズ。
Tags:opening Isshuukan Friends. 615915887 One_Week_Friends
BeatmapID:408899
BeatmapSetID:168499

[Difficulty]
HPDrainRate:5
CircleSize:4
OverallDifficulty:6
ApproachRate:7
SliderMultiplier:1.6
SliderTickRate:1

[Events]
//Background and Video events
0,0,"[TSDM]41202124.JPG",0,0
Video,1045,"Isshuukan Friends.flv"
//Break Periods
//Storyboard Layer 0 (Background)
//Storyboard Layer 1 (Fail)
//Storyboard Layer 2 (Pass)
//Storyboard Layer 3 (Foreground)
//Storyboard Sound Samples
//Background Colour Transformations
3,100,163,162,255

[TimingPoints]
1647,454.545454545455,4,2,1,40,1,0
5283,-100,4,2,1,50,0,0
8919,-111.111111111111,4,2,1,40,0,0
23465,-100,4,2,3,50,0,0
33692,-100,4,2,1,50,0,0
38010,-111.111111111111,4,2,2,45,0,0
45283,-100,4,2,1,40,0,0
47101,-100,4,2,1,42,0,0
47556,-100,4,2,1,44,0,0
48010,-100,4,2,1,46,0,0
48465,-100,4,2,1,48,0,0
48919,-100,4,2,1,50,0,0
50965,-100,4,2,2,50,0,0
51647,-100,4,2,1,50,0,0
52556,-100,4,2,1,60,0,1
66874,-100,4,2,1,60,0,0
67101,-100,4,2,1,60,0,1
78010,-100,4,2,1,52,0,1
78465,-100,4,2,1,54,0,1
78919,-100,4,2,1,56,0,1
79374,-100,4,2,1,58,0,1
79828,-100,4,2,1,60,0,1
81647,-111.111111111111,4,2,1,40,0,0
87101,-111.111111111111,4,2,1,30,0,0
88010,-111.111111111111,4,2,1,20,0,0
88919,-111.111111111111,4,2,1,15,0,0
89828,-111.111111111111,4,2,1,10,0,0
90397,-111.111111111111,4,2,1,5,0,0

[Colours]
Combo1 : 213,168,100
Combo2 : 195,134,113
Combo3 : 154,114,65 sliderBorder :
255,255,255

[HitObjects]
256,192,1647,5,2,0:0:0:0:
344,192,1874,2,0,P|344:232|340:276,1,80,0|0,0:0|0:0,0:0:0:0:
336,360,2328,1,2,0:0:0:0:
72,224,2783,2,0,P|72:184|76:140,1,80,0|0,0:0|0:0,0:0:0:0:
80,56,3237,1,2,0:0:0:0:
456,56,3692,6,0,P|456:96|452:140,1,80,0|0,0:0|0:0,0:0:0:0:
448,224,4146,1,2,0:0:0:0:
256,340,4601,2,0,P|252:304|256:256,2,80,2|0|2,0:3|0:0|0:0,0:0:0:0:
344,288,5283,6,0,P|344:240|264:168,1,160,4|2,0:0|0:0,0:0:0:0:
204,104,5965,2,0,P|184:140|184:196,1,80,4|8,0:0|0:0,0:0:0:0:
180,178,6306,1,8,0:0:0:0:
180,178,6419,1,8,0:0:0:0:
184,268,6647,1,8,0:3:0:0:
52,128,6874,6,0,P|96:76|172:20,1,160,4|2,0:0|0:0,0:0:0:0:
256,24,7556,1,2,0:0:0:0:
432,212,8010,2,0,L|480:204,2,40,8|8|8,0:0|0:0|0:0,0:0:0:0:
388,288,8465,1,8,0:0:0:0:
336,360,8692,2,0,L|288:368,2,40,8|8|8,0:3|0:3|0:3,0:0:0:0:
308,284,9147,5,0,0:0:0:0:
236,256,9374,1,8,0:0:0:0:
156,268,9601,2,0,P|144:304|140:352,1,71.9999978027344,0|0,0:0|0:0,0:0:0:0:
80,240,10056,2,0,P|68:208|60:164,1,71.9999978027344,0|8,0:0|0:0,0:0:0:0:
44,92,10510,1,0,0:0:0:0:
120,116,10737,6,0,P|184:132|284:96,1,143.999995605469,2|8,0:0|0:0,0:0:0:0:
332,84,11419,2,0,P|352:128|360:236,1,143.999995605469,0|0,0:0|0:0,0:0:0:0:
316,348,12101,2,0,P|300:320|296:280,1,71.9999978027344,8|0,0:0|0:0,0:0:0:0:
376,292,12556,5,2,0:0:0:0:
228,344,12783,1,0,0:0:0:0:
300,232,13010,1,8,0:0:0:0:
160,280,13237,1,2,0:0:0:0:
164,284,13692,2,0,P|164:244|148:212,1,71.9999978027344,0|8,0:0|0:0,0:0:0:0:
92,268,14147,1,0,0:0:0:0:
76,192,14374,6,0,P|116:144|196:152,1,143.999995605469,2|8,0:0|0:0,0:0:0:0:
388,132,15056,2,0,P|348:180|268:172,1,143.999995605469,2|0,0:0|0:0,0:0:0:0:
316,108,15737,1,8,0:0:0:0:
376,56,15965,1,0,0:0:0:0:
468,112,16192,5,2,0:0:0:0:
408,212,16419,1,0,0:0:0:0:
512,180,16647,1,8,0:0:0:0:
452,280,16874,1,2,0:0:0:0:
456,284,17328,2,0,L|384:312,2,71.9999978027344,0|8|0,0:0|0:0|0:0,0:0:0:0:
408,212,18010,6,0,B|304:252|304:252|288:288,1,143.999995605469,2|8,0:0|0:0,0:0:0:0:
260,356,18692,2,0,B|224:348|224:348|188:308|176:240,1,143.999995605469,2|0,0:0|0:0,0:0:0:0:
152,176,19374,2,0,L|76:196,1,71.9999978027344,8|0,0:0|0:0,0:0:0:0:
136,96,19828,6,0,P|192:104|232:184,1,143.999995605469,2|8,0:0|0:0,0:0:0:0:
232,256,20510,2,0,P|272:304|344:264,1,143.999995605469,2|0,0:0|0:0,0:0:0:0:
416,288,21192,2,0,P|408:328|396:368,1,71.9999978027344,8|0,0:0|0:0,0:0:0:0:
496,292,21647,6,0,P|504:240|496:144,1,143.999995605469,2|8,0:0|0:0,0:0:0:0:
476,72,22328,1,8,0:3:0:0:
400,44,22556,1,8,0:0:0:0:
400,44,22669,1,8,0:0:0:0:
400,44,22783,1,8,0:0:0:0:
404,124,23010,2,0,P|368:144|316:156,1,71.9999978027344,0|4,0:0|0:3,0:0:0:0:
252,176,23465,6,0,P|192:204|152:308,1,160,4|8,0:0|0:0,0:0:0:0:
64,284,24147,2,0,P|60:248|52:200,1,80,10|8,0:0|0:0,0:0:0:0:
112,80,24601,2,0,P|116:116|124:164,1,80,10|8,0:0|0:0,0:0:0:0:
196,108,25056,1,8,0:0:0:0:
276,72,25283,6,0,P|320:60|416:120,1,160,10|8,0:0|0:0,0:0:0:0:
464,284,25965,2,0,P|476:212|504:124,1,160,10|8,0:0|0:0,0:0:0:0:
404,200,26647,2,0,P|368:192|340:160,1,80,8|8,0:0|0:0,0:0:0:0:
252,160,27101,6,0,P|232:204|200:320,1,160,10|8,0:0|0:0,0:0:0:0:
136,372,27783,2,0,P|116:336|112:296,1,80,10|8,0:0|0:0,0:0:0:0:
136,183,28237,1,8,0:0:0:0:
24,220,28465,1,8,0:0:0:0:
112,298,28692,1,8,0:0:0:0:
228,260,28919,6,0,P|280:276|364:360,1,160,10|8,0:0|0:0,0:0:0:0:
444,324,29601,1,10,0:0:0:0:
444,236,29828,2,0,P|452:196|476:156,1,80,8|10,0:0|0:0,0:0:0:0:
396,119,30283,2,0,P|423:91|460:76,1,80,8|10,0:0|0:0,0:0:0:0:
376,32,30737,5,12,0:0:0:0:
136,104,31192,1,0,0:0:0:0:
136,104,31419,2,0,L|140:192,2,80,10|8|10,0:0|0:0|0:0,0:0:0:0:
60,148,32101,1,8,0:0:0:0:
48,236,32328,1,8,0:0:0:0:
92,312,32556,6,0,P|132:332|180:336,1,80,10|8,0:0|0:0,0:0:0:0:
228,276,33010,1,0,0:0:0:0:
300,160,33237,2,0,P|312:240|308:332,1,160,4|8,0:0|0:0,0:0:0:0:
309,318,33806,1,8,0:0:0:0:
309,318,33919,1,8,0:0:0:0:
384,364,34147,1,8,0:0:0:0:
448,304,34374,6,0,P|460:264|456:216,1,80,4|0,0:0|0:0,0:0:0:0:
408,152,34828,1,8,0:0:0:0:
360,8,35056,2,0,P|348:48|352:96,1,80,2|0,0:0|0:0,0:0:0:0:
496,120,35510,2,0,P|468:84|424:60,1,80,2|8,0:0|0:0,0:0:0:0:
408,152,35965,6,0,P|344:176|248:192,1,160,4|0,0:0|0:0,0:0:0:0:
168,100,36647,2,0,P|164:148|164:192,1,80,8|0,0:0|0:0,0:0:0:0:
194,340,37101,2,0,P|198:292|198:248,1,80,2|0,0:0|0:0,0:0:0:0:
164,179,37556,1,8,0:0:0:0:
86,137,37783,1,0,0:0:0:0:
64,296,38010,6,0,P|56:336|52:392,2,71.9999978027344,4|2|0,0:0|0:0|0:0,0:0:0:0:
136,256,38692,1,2,0:0:0:0:
212,276,38919,2,0,P|248:284|288:272,1,71.9999978027344,8|2,0:0|0:0,0:0:0:0:
360,256,39374,1,8,0:0:0:0:
432,288,39601,1,2,0:0:0:0:
488,168,39828,6,0,P|496:132|496:88,1,71.9999978027344,2|2,0:0|0:0,0:0:0:0:
308,56,40510,2,0,P|296:92|292:144,2,71.9999978027344,2|8|2,0:0|0:0|0:0,0:0:0:0:
384,76,41192,1,8,0:3:0:0:
292,126,41419,1,2,0:0:0:0:
188,100,41647,6,0,P|176:136|172:180,2,71.9999978027344,4|2|0,0:0|0:0|0:0,0:0:0:0:
240,212,42328,1,2,0:0:0:0:
228,292,42556,2,0,P|220:328|192:360,2,71.9999978027344,8|2|8,0:0|0:0|0:0,0:0:0:0:
148,296,43237,6,0,P|224:336|288:348,1,143.999995605469,4|2,0:0|0:0,0:0:0:0:
368,296,43919,2,0,P|384:332|384:368,1,71.9999978027344,8|8,0:3|0:3,0:0:0:0:
480,188,44601,1,2,0:0:0:0:
400,180,44828,2,0,P|368:176|324:152,1,71.9999978027344,8|8,0:3|0:3,0:0:0:0:
256,116,45283,6,0,P|236:152|220:196,1,80,6|2,0:0|0:0,0:0:0:0:
116,304,45737,2,0,P|136:268|152:224,1,80,2|2,0:0|0:0,0:0:0:0:
164,80,46192,2,0,P|144:116|128:160,1,80,2|2,0:0|0:0,0:0:0:0:
20,264,46647,2,0,P|40:228|56:184,1,80,2|2,0:0|0:0,0:0:0:0:
132,152,47101,5,10,0:0:0:0:
220,148,47328,1,2,0:0:0:0:
136,160,47556,1,10,0:0:0:0:
232,184,47783,1,2,0:0:0:0:
132,168,48010,1,10,0:0:0:0:
228,216,48237,1,2,0:0:0:0:
128,176,48465,1,10,0:0:0:0:
212,252,48692,1,2,0:0:0:0:
124,180,48919,6,0,P|100:240|112:340,1,160,6|8,0:0|0:0,0:0:0:0:
192,364,49601,1,0,0:2:0:0:
192,364,49715,1,0,0:2:0:0:
192,364,49828,2,0,L|272:368,1,80,8|0,0:0|0:0,0:0:0:0:
360,376,50283,1,8,0:0:0:0:
312,276,50510,6,0,P|312:212|340:120,1,160,4|2,0:0|0:0,0:0:0:0:
464,220,51192,1,2,0:3:0:0:
312,276,51419,1,2,0:0:0:0:
76,248,52328,5,0,0:0:0:0:
76,248,52442,1,0,0:0:0:0:
76,248,52556,6,0,P|100:212|104:132,2,120,6|2|2,0:0|0:0|0:0,0:0:0:0:
124,320,53465,1,0,0:0:0:0:
212,336,53692,2,0,P|208:296|216:244,1,80,2|8,0:0|0:0,0:0:0:0:
240,172,54147,1,2,0:0:0:0:
312,20,54374,6,0,P|328:80|320:196,1,160,2|8,0:0|0:0,0:0:0:0:
300,260,55056,1,0,0:0:0:0:
428,272,55283,2,0,P|396:304|356:320,1,80,2|0,0:0|0:0,0:0:0:0:
300,260,55737,1,8,0:0:0:0:
196,320,55965,1,0,0:0:0:0:
196,320,56078,1,0,0:0:0:0:
196,320,56192,6,0,P|180:276|200:192,2,120,2|2|2,0:0|0:0|0:0,0:0:0:0:
116,356,57101,1,0,0:0:0:0:
36,320,57328,2,0,P|56:284|64:236,1,80,2|8,0:0|0:0,0:0:0:0:
76,160,57783,1,2,0:0:0:0:
0,116,58010,6,0,P|64:124|168:112,1,160,2|8,0:0|0:0,0:0:0:0:
244,84,58692,1,0,0:0:0:0:
272,168,58919,2,0,P|272:212|268:256,1,80,2|0,0:0|0:0,0:0:0:0:
360,240,59374,2,0,P|352:280|340:320,1,80,10|0,0:0|0:0,0:0:0:0:
424,352,59828,6,0,P|472:320|492:256,2,120,4|2|2,0:0|0:0|0:0,0:0:0:0:
404,268,60737,1,0,0:0:0:0:
444,188,60965,2,0,P|444:144|432:100,1,80,2|8,0:0|0:0,0:0:0:0:
416,24,61419,1,2,0:0:0:0:
344,76,61647,6,0,P|304:100|192:116,1,160,2|8,0:0|0:0,0:0:0:0:
108,144,62328,2,0,P|96:200|80:304,1,160,2|0,0:0|0:0,0:0:0:0:
136,232,63010,1,8,0:0:0:0:
204,288,63237,1,0,0:0:0:0:
204,288,63351,1,0,0:0:0:0:
204,288,63465,6,0,B|292:272|292:272|320:284,2,120,2|2|2,0:0|0:0|0:0,0:0:0:0:
256,360,64374,1,0,0:0:0:0:
344,364,64601,2,0,P|376:348|400:304,1,80,2|8,0:0|0:0,0:0:0:0:
404,224,65056,1,12,0:0:0:0:
420,44,65283,6,0,P|364:72|424:136,1,160,2|0,0:0|0:0,0:0:0:0:
492,148,65965,1,8,0:0:0:0:
404,224,66192,1,8,0:0:0:0:
300,172,66419,2,0,L|260:148,3,40,8|8|8|8,0:0|0:0|0:0|0:0,0:0:0:0:
224,136,66874,2,0,L|172:128,1,40,8|8,0:0|0:0,0:0:0:0:
132,140,67101,6,0,P|104:180|88:252,2,120,6|2|2,0:0|0:0|0:0,0:0:0:0:
184,212,68010,1,0,0:0:0:0:
224,288,68237,2,0,P|232:320|228:368,1,80,2|8,0:0|0:0,0:0:0:0:
148,328,68692,1,2,0:0:0:0:
324,360,68919,6,0,B|340:320|356:232|356:232|336:208,1,160,2|8,0:0|0:0,0:0:0:0:
264,160,69601,1,0,0:0:0:0:
204,96,69828,2,0,P|180:136|180:180,1,80,2|0,0:0|0:0,0:0:0:0:
184,256,70283,1,8,0:0:0:0:
120,316,70510,1,0,0:0:0:0:
120,316,70624,1,0,0:0:0:0:
120,316,70737,6,0,B|88:288|88:288|72:208,2,120,2|2|2,0:0|0:0|0:0,0:0:0:0:
204,340,71647,1,0,0:0:0:0:
292,324,71874,2,0,P|328:308|360:276,1,80,2|8,0:0|0:0,0:0:0:0:
376,196,72328,1,2,0:0:0:0:
452,40,72556,6,0,P|464:96|460:212,1,160,2|8,0:0|0:0,0:0:0:0:
376,196,73237,1,0,0:0:0:0:
288,208,73465,2,0,L|208:204,1,80,2|0,0:0|0:0,0:0:0:0:
144,144,73919,1,10,0:0:0:0:
124,228,74147,1,0,0:0:0:0:
60,132,74374,6,0,B|40:212|40:212|40:256,2,120,6|2|2,0:0|0:0|0:0,0:0:0:0:
116,64,75283,1,0,0:0:0:0:
204,52,75510,2,0,P|216:92|224:136,1,80,2|8,0:0|0:0,0:0:0:0:
244,216,75965,1,2,0:0:0:0:
320,272,76192,6,0,P|340:232|352:184,1,80,2|8,0:0|0:3,0:0:0:0:
380,116,76647,1,8,0:3:0:0:
304,68,76874,2,0,P|352:64|464:76,1,160,6|0,0:0|0:0,0:0:0:0:
468,164,77556,2,0,L|472:256,1,80,8|0,0:0|0:0,0:0:0:0:
408,304,78010,5,14,0:0:0:0:
296,320,78237,1,2,0:0:0:0:
404,300,78465,1,10,0:0:0:0:
291,285,78692,1,2,0:0:0:0:
400,296,78919,1,10,0:0:0:0:
295,253,79146,1,2,0:0:0:0:
396,292,79374,1,10,0:0:0:0:
305,224,79601,1,2,0:0:0:0:
164,241,79828,6,0,P|156:280|156:320,1,80,6|0,0:0|0:0,0:0:0:0:
166,241,80510,2,0,P|149:183|192:80,1,160,2|2,0:0|0:0,0:0:0:0:
300,68,81192,1,2,0:0:0:0:
432,128,81419,1,2,0:0:0:0:
252,192,81647,6,0,L|264:272,1,71.9999978027344,2|0,0:0|0:0,0:0:0:0:
276,341,82101,1,0,0:0:0:0:
262,262,82328,1,2,0:0:0:0:
128,347,82783,5,0,0:0:0:0:
112,268,83010,1,0,0:0:0:0:
96,192,83237,1,2,0:0:0:0:
336,48,83692,5,0,0:0:0:0:
352,124,83919,1,0,0:0:0:0:
368,203,84146,1,2,0:0:0:0:
176,112,84601,6,0,P|136:108|104:84,1,71.9999978027344,2|0,0:0|0:0,0:0:0:0:
168,36,85056,1,0,0:0:0:0:
244,164,85283,6,0,P|256:204|252:248,1,71.9999978027344,2|0,0:0|0:0,0:0:0:0:
180,208,85737,1,0,0:0:0:0:
332,188,85965,1,2,0:0:0:0:
332,188,86419,5,0,0:0:0:0:
348,264,86646,1,0,0:0:0:0:
364,343,86873,1,2,0:0:0:0:
256,192,87101,12,0,90397,0:0:0:0:
