osu file format v12

[General]
AudioFilename: Isshuukan Friends - Openin.mp3
AudioLeadIn: 1500
PreviewTime: 51181
Countdown: 0
SampleSet: Soft
StackLeniency: 0.7
Mode: 0
LetterboxInBreaks: 0
WidescreenStoryboard: 0

[Editor]
Bookmarks: 3444
DistanceSpacing: 1.2
BeatDivisor: 4
GridSize: 4
TimelineZoom: 1.2

[Metadata]
Title:Niji no Kakera (TV Size)
TitleUnicode:虹のかけら (TV Size)
Artist:Kon Natsumi
ArtistUnicode:昆夏美
Creator:AliomLoung
Version:Hard
Source:Isshuukan Friends.
Tags:一週間フレンズ。 one week friends Opening IamKwaN yf_bmp
BeatmapID:401278
BeatmapSetID:164893

[Difficulty]
HPDrainRate:6
CircleSize:4
OverallDifficulty:6
ApproachRate:7
SliderMultiplier:1.5
SliderTickRate:1

[Events]
//Background and Video events
0,0,"10172919_509405959169430_600880266_o.jpg",0,0
Video,0,"TV.avi"
//Break Periods
//Storyboard Layer 0 (Background)
//Storyboard Layer 1 (Fail)
//Storyboard Layer 2 (Pass)
//Storyboard Layer 3 (Foreground)
//Storyboard Sound Samples
//Background Colour Transformations
3,100,163,162,255

[TimingPoints]
500,454.545454545455,4,2,1,50,1,0
3454,-100,4,2,1,60,0,0
4136,-100,4,2,1,50,0,0
5500,-100,4,2,2,70,0,0
5727,-100,4,2,1,70,0,0
7545,-100,4,2,2,70,0,0
21522,-100,4,2,1,70,0,0
21863,-100,4,2,2,70,0,0
22318,-100,4,2,1,70,0,0
22772,-100,4,2,2,70,0,0
29590,-100,4,2,1,60,0,0
29818,-100,4,2,2,60,0,0
31636,-100,4,2,1,60,0,0
32545,-100,4,2,2,60,0,0
32659,-100,4,2,1,60,0,0
33227,-100,4,2,1,65,0,0
34363,-100,4,2,2,60,0,0
34590,-100,4,2,1,50,0,0
34818,-100,4,2,2,60,0,0
36863,-100,4,2,1,60,0,0
37090,-100,4,2,2,60,0,0
42090,-100,4,2,1,60,0,0
42772,-100,4,2,2,60,0,0
43000,-100,4,2,1,60,0,0
43454,-100,4,2,2,60,0,0
43681,-100,4,2,2,40,0,0
44136,-100,4,2,1,40,0,0
51409,-100,4,2,1,70,0,1
51863,-100,4,2,2,70,0,1
58681,-100,4,2,1,70,0,1
59136,-100,4,2,2,70,0,1
62318,-100,4,2,1,50,0,1
62772,-100,4,2,2,70,0,1
63909,-100,4,2,1,70,0,1
65045,-100,4,2,2,70,0,1
65272,-100,4,2,1,70,0,1
65500,-100,4,2,2,70,0,1
65954,-100,4,2,1,70,0,1
66409,-100,4,2,2,70,0,1
71409,-100,4,2,1,70,0,1
71863,-100,4,2,2,70,0,1
73227,-100,4,2,1,70,0,1
73681,-100,4,2,2,70,0,1
75727,-100,4,2,1,60,0,1
75954,-100,4,2,2,60,0,1
76863,-100,4,2,1,60,0,1
80500,-100,4,2,1,40,0,0
86409,-100,4,2,2,35,0,0
86863,-100,4,2,2,30,0,0
87318,-100,4,2,2,25,0,0
87772,-100,4,2,2,20,0,0
88227,-100,4,2,2,15,0,0
88681,-100,4,2,2,10,0,0
89136,-100,4,2,2,5,0,0

[Colours]
Combo1 : 240,240,240
Combo2 : 169,255,83
Combo3 : 242,145,188
Combo4 : 186,116,116

[HitObjects]
80,112,500,6,0,P|71:156|98:210,1,75,4|0,0:3|0:0,0:0:0:0:
160,220,954,2,0,P|167:183|158:147,1,75,0|4,0:0|0:3,0:0:0:0:
260,48,1636,1,0,0:0:0:0:
332,104,1863,1,0,0:0:0:0:
300,188,2090,1,4,0:3:0:0:
228,280,2545,6,0,P|204:300|136:304,2,75,0|0|4,0:0|0:0|0:3,0:0:0:0:
404,308,3454,1,0,0:0:0:0:
320,276,3681,1,0,0:0:0:0:
300,188,3909,1,0,0:0:0:0:
424,96,4136,6,0,P|365:49|293:31,1,150,4|0,0:0|0:0,0:0:0:0:
179,125,4818,2,0,P|215:133|250:122,1,75,4|0,0:0|0:0,0:0:0:0:
212,44,5272,1,8,0:0:0:0:
124,64,5500,1,4,0:0:0:0:
153,205,5727,2,0,P|217:261|309:273,1,150,4|0,0:0|0:0,0:0:0:0:
466,298,6409,5,2,0:0:0:0:
466,298,6863,2,0,L|434:342,2,37.5,10|8|8,0:0|0:0|0:0,0:0:0:0:
484,209,7318,1,10,0:0:0:0:
467,120,7545,2,0,P|406:164|399:237,1,150,4|0,0:0|0:0,0:0:0:0:
356,316,8227,5,2,0:0:0:0:
304,242,8454,1,0,0:0:0:0:
304,242,8681,2,0,P|268:249|226:243,1,75
128,268,9136,1,2,0:0:0:0:
164,184,9363,1,0,0:0:0:0:
200,324,9590,6,0,P|264:348|344:308,1,150,0|2,0:0|0:0,0:0:0:0:
420,288,10272,1,0,0:0:0:0:
452,204,10500,1,0,0:0:0:0:
396,132,10727,2,0,P|348:112|332:88,1,75,0|2,0:0|0:0,0:0:0:0:
256,48,11181,1,0,0:0:0:0:
176,94,11409,6,0,P|151:121|116:132,1,75
52,196,11863,2,0,P|42:245|62:293,2,75,2|0|0,0:0|0:0|0:0,0:0:0:0:
132,236,12545,1,0,0:0:0:0:
152,324,12772,1,2,0:0:0:0:
236,288,13000,1,0,0:0:0:0:
236,288,13227,6,0,B|314:282|314:282|378:248,1,150,0|2,0:0|0:0,0:0:0:0:
452,300,13909,2,0,L|389:341,2,75
380,157,14590,2,0,L|314:192,1,75,2|0,0:0|0:0,0:0:0:0:
468,168,15045,5,0,0:0:0:0:
504,84,15272,1,0,0:0:0:0:
436,28,15500,1,2,0:0:0:0:
356,72,15727,2,0,P|300:76|268:68,1,75
216,136,16181,1,0,0:0:0:0:
48,112,16409,2,0,P|44:160|56:200,1,75,2|0,0:0|0:0,0:0:0:0:
132,228,16863,6,0,B|144:188|144:188|116:144|124:96|160:72,1,150,0|2,0:0|0:0,0:0:0:0:
216,136,17545,1,0,0:0:0:0:
282,73,17772,2,0,P|320:72|360:72,1,75
443,161,18227,2,0,L|368:161,1,75,2|0,0:0|0:0,0:0:0:0:
306,226,18681,6,0,P|267:266|178:286,1,150,0|2,0:0|0:0,0:0:0:0:
93,320,19363,2,0,P|88:267|110:228,1,75
95,247,19818,1,0,0:0:0:0:
178,122,20045,2,0,P|181:159|172:195,1,75,2|0,0:0|0:0,0:0:0:0:
92,152,20500,6,0,P|92:90|169:31,1,150,0|2,0:0|0:0,0:0:0:0:
244,28,21181,1,4,0:0:0:0:
329,33,21409,1,2,0:0:0:0:
329,33,21522,1,8,0:0:0:0:
329,33,21636,1,8,0:0:0:0:
416,53,21863,2,0,P|400:87|372:110,1,75,2|8,0:0|0:0,2:0:0:0:
370,201,22318,6,0,P|398:224|413:258,1,75,4|0,0:0|0:0,2:0:0:0:
493,299,22772,1,8,0:0:0:0:
415,344,23000,1,0,0:0:0:0:
329,315,23227,2,0,P|277:320|157:315,1,150,8|8,0:0|0:0,0:0:0:0:
89,309,23909,1,0,0:0:0:0:
34,237,24136,6,0,P|25:175|33:67,1,150,8|8,0:0|0:0,0:0:0:0:
115,60,24818,2,0,P|145:81|181:90,1,75,0|8,0:0|0:0,0:0:0:0:
256,40,25272,1,0,0:0:0:0:
330,90,25500,2,0,P|366:81|396:59,1,75,10|0,0:0|0:0,0:0:0:0:
482,87,25954,6,0,P|487:162|478:237,1,150,8|8,0:0|0:0,0:0:0:0:
413,298,26636,1,0,0:0:0:0:
324,281,26863,2,0,P|270:275|228:289,1,75,8|0,0:0|0:0,0:0:0:0:
172,324,27318,1,10,0:0:0:0:
176,236,27545,1,0,0:0:0:0:
251,279,27772,6,0,P|259:211|193:150,1,150,8|8,0:0|0:0,0:0:0:0:
119,174,28454,1,0,0:0:0:0:
119,174,28681,2,0,P|115:135|137:101,1,75,8|0,0:0|0:0,0:0:0:0:
219,81,29136,2,0,P|224:120|208:154,1,75,8|0,0:0|0:0,0:0:0:0:
224,242,29590,6,0,P|259:278|273:312,1,75,4|0,0:0|0:0,0:0:0:0:
181,322,30045,1,8,0:0:0:0:
93,301,30272,1,0,0:0:0:0:
136,222,30500,2,0,P|83:185|46:175,2,75,8|0|10,0:0|0:0|0:0,0:0:0:0:
224,242,31181,1,0,0:0:0:0:
277,314,31409,6,0,P|341:317|376:304,1,75,8|8,0:0|0:0,0:0:0:0:
390,203,31863,2,0,L|441:146,2,75,8|4|0,0:0|0:0|0:0,0:0:0:0:
436,286,32545,1,4,0:0:0:0:
436,286,32659,1,8,0:0:0:0:
436,286,32772,2,0,L|484:223,1,75,8|0,0:0|0:0,0:0:0:0:
433,92,33227,6,0,P|356:83|299:131,1,150,4|8,0:0|0:0,0:0:0:0:
268,243,33909,2,0,P|341:231|382:171,1,150,4|8,0:0|0:0,0:0:0:0:
382,172,34590,2,0,L|286:128,1,75,4|8,0:0|0:0,0:0:0:0:
64,68,35272,5,8,0:0:0:0:
144,112,35500,2,0,P|104:152|56:156,1,75,8|0,0:0|0:0,0:0:0:0:
88,248,35954,2,0,P|132:292|144:324,1,75,0|8,0:0|0:0,0:0:0:0:
228,292,36409,1,2,0:0:0:0:
296,232,36636,1,0,0:0:0:0:
429,251,36863,6,0,P|405:279|372:296,1,75,4|8,0:0|0:0,0:0:0:0:
228,292,37545,1,8,0:0:0:0:
296,352,37772,1,2,0:0:0:0:
228,292,38000,1,8,0:0:0:0:
220,204,38227,2,0,P|244:168|288:148,1,75,2|0,0:0|0:0,0:0:0:0:
336,88,38681,5,8,0:0:0:0:
412,140,38909,1,8,0:0:0:0:
496,260,39363,2,0,L|496:344,2,75,8|2|8,0:0|0:0|0:0,0:0:0:0:
412,228,40045,1,4,0:0:0:0:
412,140,40272,1,0,0:0:0:0:
336,88,40500,6,0,P|308:113|273:124,1,75,8|0,0:0|0:0,0:0:0:0:
94,100,41181,1,8,0:0:0:0:
170,52,41409,1,2,0:0:0:0:
170,140,41636,1,8,0:0:0:0:
101,197,41863,2,0,P|144:226|187:228,1,75,2|4,0:0|0:0,0:0:0:0:
332,298,42545,6,0,L|407:298,1,75,8|4,0:0|0:0,0:0:0:0:
257,348,43000,2,0,P|195:348|102:310,1,150,4|8,0:0|0:0,0:0:0:0:
41,268,43681,2,0,P|42:227|56:193,1,75,4|2,0:0|0:0,0:0:0:0:
137,164,44136,6,0,P|206:141|286:146,1,150,4|0,0:0|0:0,0:0:0:0:
373,148,44818,2,0,P|364:105|340:75,1,75,0|8,0:0|0:0,0:0:0:0:
269,36,45272,1,8,0:0:0:0:
177,32,45500,1,8,0:0:0:0:
101,80,45727,1,0,0:0:0:0:
176,155,45954,6,0,P|172:192|176:230,1,75,8|8,0:0|0:0,0:0:0:0:
261,333,46409,2,0,P|264:296|261:259,1,75,8|8,0:0|0:0,0:0:0:0:
346,156,46863,2,0,P|342:193|346:231,1,75,8|8,0:0|0:0,0:0:0:0:
429,338,47318,2,0,P|432:301|429:264,1,75,0|0,0:0|0:0,0:0:0:0:
346,156,47772,5,4,0:0:0:0:
281,92,48000,1,0,0:0:0:0:
195,120,48227,1,8,0:0:0:0:
179,208,48454,1,0,0:0:0:0:
179,208,48568,1,8,0:0:0:0:
179,208,48681,1,0,0:0:0:0:
245,268,48909,1,0,0:0:0:0:
332,248,49136,1,8,0:0:0:0:
281,92,49363,5,4,0:0:0:0:
412,216,49818,1,8,0:0:0:0:
480,160,50045,1,8,0:0:0:0:
396,128,50272,1,8,0:0:0:0:
257,46,51181,2,0,L|196:80,1,37.5
184,88,51409,6,0,P|176:124|184:160,2,75,4|0|2,0:0|0:0|0:0,0:0:0:0:
236,231,52090,2,0,P|331:222|396:231,1,150
467,197,52772,1,2,0:0:0:0:
465,287,53000,1,0,0:0:0:0:
383,323,53227,6,0,P|304:332|216:316,1,150,0|2,0:0|0:0,0:0:0:0:
145,312,53909,2,0,L|100:328|46:346,2,75
145,312,54590,2,0,L|73:239,1,75,2|0,0:0|0:0,0:0:0:0:
140,184,55045,6,0,P|132:124|46:84,1,150,0|2,0:0|0:0,0:0:0:0:
64,162,55727,2,0,L|184:61,1,150
268,60,56409,1,2,0:0:0:0:
316,136,56636,1,0,0:0:0:0:
380,200,56863,6,0,P|414:167|430:120,1,75
444,52,57318,1,2,0:0:0:0:
356,56,57545,1,0,0:0:0:0:
316,136,57772,2,0,P|284:164|256:212,1,75
244,280,58227,1,2,0:0:0:0:
176,224,58454,1,0,0:0:0:0:
160,316,58681,6,0,P|104:308|36:320,1,112.5,4|0,0:0|0:0,0:0:0:0:
20,284,59136,2,0,L|3:184,1,75,2|0,0:0|0:0,0:0:0:0:
28,124,59590,1,0,0:0:0:0:
100,68,59818,1,0,0:0:0:0:
180,108,60045,2,0,P|224:116|280:100,1,75,2|0,0:0|0:0,0:0:0:0:
280,200,60500,6,0,P|292:260|276:312,1,112.5,0|0,0:0|0:0,0:0:0:0:
308,344,60954,2,0,P|368:340|412:348,1,75,2|0,0:0|0:0,0:0:0:0:
472,320,61409,1,0,0:0:0:0:
500,236,61636,1,0,0:0:0:0:
480,148,61863,2,0,P|440:136|396:152,1,75,2|0,0:0|0:0,0:0:0:0:
320,140,62318,6,0,B|272:108|272:108|240:144|172:132,1,150,4|2,0:0|0:0,0:0:0:0:
92,115,63000,2,0,P|136:56|208:42,1,150
219,192,63681,2,0,L|144:192,1,75,2|8,0:0|0:0,0:0:0:0:
93,268,64136,6,0,P|136:327|208:341,1,150,0|0,0:0|0:0,0:0:0:0:
300,336,64818,1,8,0:0:0:0:
332,252,65045,1,4,0:0:0:0:
256,204,65272,1,8,0:0:0:0:
256,204,65386,1,8,0:0:0:0:
256,204,65500,1,2,0:0:0:0:
180,252,65727,2,0,L|152:208,1,37.5
168,176,65954,6,0,P|208:124|290:117,1,150,4|2,0:0|0:0,0:0:0:0:
376,84,66636,1,0,0:0:0:0:
336,192,66863,1,0,0:0:0:0:
478,94,67090,1,0,0:0:0:0:
498,208,67318,1,2,0:0:0:0:
420,164,67545,1,0,0:0:0:0:
416,253,67772,6,0,P|374:312|274:324,1,150,0|2,0:0|0:0,0:0:0:0:
255,253,68454,1,0,0:0:0:0:
210,330,68681,2,0,P|138:312|95:252,1,150,0|2,0:0|0:0,0:0:0:0:
31,189,69363,1,0,0:0:0:0:
96,127,69590,6,0,P|167:110|227:137,1,112.5
232,155,70045,2,0,P|273:162|328:148,1,75,2|0,0:0|0:0,0:0:0:0:
363,87,70500,1,0,0:0:0:0:
377,242,70727,1,0,0:0:0:0:
405,88,70954,1,2,0:0:0:0:
343,239,71181,1,0,0:0:0:0:
252,246,71409,6,0,P|215:317|147:323,1,150,2|2,0:0|0:0,0:0:0:0:
25,251,72090,2,0,P|61:243|98:251,1,75,0|0,0:0|0:0,0:0:0:0:
62,334,72545,1,0,0:0:0:0:
25,251,72772,1,2,0:0:0:0:
37,161,73000,1,0,0:0:0:0:
37,161,73113,1,0,0:0:0:0:
37,160,73227,6,0,P|101:169|151:155,1,112.5,4|0,0:0|0:0,0:0:0:0:
191,152,73681,2,0,L|236:87,1,75,2|0,0:0|0:0,0:0:0:0:
361,47,74136,1,0,0:0:0:0:
317,123,74363,1,0,0:0:0:0:
405,123,74590,2,0,P|430:167|470:192,1,75,2|0,0:0|0:0,0:0:0:0:
480,313,75045,6,0,P|426:322|392:316,1,75,0|4,0:0|0:0,0:0:0:0:
295,232,75500,2,0,P|332:228|370:233,2,75,2|4|0,0:0|0:0|0:0,0:0:0:0:
228,291,76181,1,0,0:0:0:0:
52,255,76409,2,0,P|48:295|57:329,1,75,2|0,0:0|0:0,0:0:0:0:
139,287,76863,6,0,P|136:209|82:165,1,150,4|8,0:0|0:0,0:0:0:0:
58,79,77545,1,8,0:0:0:0:
139,40,77772,1,8,0:0:0:0:
224,70,78000,1,8,0:0:0:0:
251,155,78227,1,8,0:0:0:0:
212,236,78454,1,8,0:0:0:0:
236,322,78681,6,0,P|312:313|386:328,1,150,4|0,0:0|0:0,0:0:0:0:
403,239,79363,2,0,P|347:226|323:191,1,75
251,155,79818,1,0,0:0:0:0:
251,155,80045,2,0,P|254:110|275:79,1,75,0|0,0:0|0:0,0:0:0:0:
432,112,80500,6,0,P|441:156|414:210,1,75,4|0,0:3|0:0,0:0:0:0:
352,220,80954,2,0,P|345:183|354:147,1,75,0|4,0:0|0:3,0:0:0:0:
244,72,81636,1,0,0:0:0:0:
166,119,81863,1,0,0:0:0:0:
174,207,82090,1,4,0:3:0:0:
332,296,82545,5,0,0:0:0:0:
332,208,82772,1,0,0:0:0:0:
253,164,83000,1,4,0:3:0:0:
174,207,83227,1,2,0:0:0:0:
45,332,83681,1,2,0:0:0:0:
21,153,84136,5,2,0:0:0:0:
172,56,84590,1,0,0:0:0:0:
172,56,84818,2,0,L|232:102,1,75,2|0,0:0|0:0,0:0:0:0:
155,150,85272,2,0,L|214:195,2,75,2|0|2,0:0|0:0|0:0,0:0:0:0:
256,192,85954,12,0,89136,0:0:0:0:
